osu file format v14

[General]
AudioFilename: audio.mp3
AudioLeadIn: 0
PreviewTime: -1
Countdown: 1
SampleSet: Normal
StackLeniency: 0.7
Mode: 1
LetterboxInBreaks: 0
WidescreenStoryboard: 0

[Editor]
DistanceSpacing: 1
BeatDivisor: 4
GridSize: 32
TimelineZoom: 1

[Metadata]
Title:Yamanobori Kibun
TitleUnicode:山登り気分
Artist:O-Life Japan
ArtistUnicode:O-Life Japan
Creator:Love
Version:*
Source:
Tags:
BeatmapID:1539490
BeatmapSetID:729322

[Difficulty]
HPDrainRate:6.9
CircleSize:3.3
OverallDifficulty:6.9
ApproachRate:9.9
SliderMultiplier:1.4
SliderTickRate:1

[Events]
//Background and Video events
0,0,"asfgh.jpg",0,69
//Break Periods
//Storyboard Layer 0 (Background)
//Storyboard Layer 1 (Fail)
//Storyboard Layer 2 (Pass)
//Storyboard Layer 3 (Foreground)
//Storyboard Sound Samples

[TimingPoints]
17.7991180793726,375,4,1,2,69,1,0
162017,-144.927536231884,4,1,2,0,0,0
173267,-100,4,1,2,69,0,0
173361,-97.0873786407767,4,1,2,69,0,0
173455,-94.3396226415094,4,1,2,69,0,0
173549,-91.743119266055,4,1,2,69,0,0
173642,-89.2857142857143,4,1,2,69,0,0
173736,-86.9565217391304,4,1,2,69,0,0
173830,-84.7457627118644,4,1,2,69,0,0
173924,-81.9672131147541,4,1,2,69,0,0
174017,-80,4,1,2,100,0,1
186017,-71.4285714285714,4,1,2,100,0,1
198017,-71.4285714285714,4,1,2,100,0,0

[HitObjects]
256,192,25,5,0,0:0:0:0:
256,192,392,1,0,0:0:0:0:
256,192,580,1,0,0:0:0:0:
256,192,767,1,8,0:0:0:0:
256,192,955,1,8,0:0:0:0:
256,192,1142,1,0,0:0:0:0:
256,192,1517,1,8,0:0:0:0:
256,192,1892,1,0,0:0:0:0:
256,192,2080,1,0,0:0:0:0:
256,192,2267,1,8,0:0:0:0:
256,192,2455,1,0,0:0:0:0:
256,192,2549,1,8,0:0:0:0:
256,192,3017,1,0,0:0:0:0:
256,192,3392,1,0,0:0:0:0:
256,192,3580,1,0,0:0:0:0:
256,192,3767,1,8,0:0:0:0:
256,192,3955,1,8,0:0:0:0:
256,192,4142,1,0,0:0:0:0:
256,192,4517,1,8,0:0:0:0:
256,192,4892,1,0,0:0:0:0:
256,192,5080,1,0,0:0:0:0:
256,192,5267,1,4,0:0:0:0:
256,192,5549,1,4,0:0:0:0:
256,192,5830,1,8,0:0:0:0:
256,192,6017,1,0,0:0:0:0:
256,192,6392,1,8,0:0:0:0:
256,192,6580,1,0,0:0:0:0:
256,192,6674,1,8,0:0:0:0:
256,192,6767,1,0,0:0:0:0:
256,192,6955,1,8,0:0:0:0:
256,192,7142,1,8,0:0:0:0:
256,192,7330,1,0,0:0:0:0:
256,192,7517,1,0,0:0:0:0:
256,192,7799,1,0,0:0:0:0:
256,192,7892,1,8,0:0:0:0:
256,192,8080,1,0,0:0:0:0:
256,192,8267,1,0,0:0:0:0:
256,192,8455,1,8,0:0:0:0:
256,192,8549,1,8,0:0:0:0:
256,192,8642,1,8,0:0:0:0:
256,192,8830,1,0,0:0:0:0:
256,192,9017,1,0,0:0:0:0:
256,192,9299,1,0,0:0:0:0:
256,192,9392,1,8,0:0:0:0:
256,192,9580,1,0,0:0:0:0:
256,192,9674,1,8,0:0:0:0:
256,192,9767,1,0,0:0:0:0:
256,192,9955,1,8,0:0:0:0:
256,192,10142,1,8,0:0:0:0:
256,192,10330,1,0,0:0:0:0:
256,192,10517,1,0,0:0:0:0:
256,192,10799,1,0,0:0:0:0:
256,192,10892,1,8,0:0:0:0:
256,192,11080,1,0,0:0:0:0:
256,192,11267,1,0,0:0:0:0:
256,192,11455,1,8,0:0:0:0:
256,192,11549,1,8,0:0:0:0:
256,192,11642,1,8,0:0:0:0:
256,192,11736,1,8,0:0:0:0:
256,192,11830,1,0,0:0:0:0:
256,192,12017,1,0,0:0:0:0:
256,192,12205,1,8,0:0:0:0:
256,192,12299,1,0,0:0:0:0:
256,192,12392,1,8,0:0:0:0:
256,192,12580,1,0,0:0:0:0:
256,192,12674,1,0,0:0:0:0:
256,192,12767,1,8,0:0:0:0:
256,192,12955,1,8,0:0:0:0:
256,192,13142,1,8,0:0:0:0:
256,192,13330,1,0,0:0:0:0:
256,192,13517,1,0,0:0:0:0:
256,192,13799,1,0,0:0:0:0:
256,192,13892,1,8,0:0:0:0:
256,192,14080,1,0,0:0:0:0:
256,192,14267,1,0,0:0:0:0:
256,192,14455,1,8,0:0:0:0:
256,192,14549,1,0,0:0:0:0:
256,192,14642,1,8,0:0:0:0:
256,192,14830,1,0,0:0:0:0:
256,192,15017,1,0,0:0:0:0:
256,192,15299,1,0,0:0:0:0:
256,192,15392,1,8,0:0:0:0:
256,192,15580,1,0,0:0:0:0:
256,192,15674,1,0,0:0:0:0:
256,192,15767,1,8,0:0:0:0:
256,192,15955,1,8,0:0:0:0:
256,192,16142,1,8,0:0:0:0:
256,192,16330,1,0,0:0:0:0:
256,192,16517,1,0,0:0:0:0:
256,192,16799,1,0,0:0:0:0:
256,192,16892,1,8,0:0:0:0:
256,192,17080,1,0,0:0:0:0:
256,192,17267,1,8,0:0:0:0:
256,192,17361,1,0,0:0:0:0:
256,192,17455,1,8,0:0:0:0:
256,192,17549,1,8,0:0:0:0:
256,192,17642,1,0,0:0:0:0:
256,192,17830,1,8,0:0:0:0:
256,192,18017,1,0,0:0:0:0:
256,192,18205,1,8,0:0:0:0:
256,192,18392,1,8,0:0:0:0:
256,192,18580,1,0,0:0:0:0:
256,192,18674,1,0,0:0:0:0:
256,192,18767,1,8,0:0:0:0:
256,192,18955,1,8,0:0:0:0:
256,192,19330,1,0,0:0:0:0:
256,192,19517,1,0,0:0:0:0:
256,192,19705,1,8,0:0:0:0:
256,192,19892,1,0,0:0:0:0:
256,192,20080,1,0,0:0:0:0:
256,192,20267,1,8,0:0:0:0:
256,192,20455,1,8,0:0:0:0:
256,192,20549,1,0,0:0:0:0:
256,192,20830,1,8,0:0:0:0:
256,192,21017,1,0,0:0:0:0:
256,192,21205,1,8,0:0:0:0:
256,192,21392,1,8,0:0:0:0:
256,192,21580,1,0,0:0:0:0:
256,192,21674,1,0,0:0:0:0:
256,192,21767,1,8,0:0:0:0:
256,192,21955,1,8,0:0:0:0:
256,192,22330,1,0,0:0:0:0:
256,192,22517,1,0,0:0:0:0:
256,192,22705,1,8,0:0:0:0:
256,192,22892,1,0,0:0:0:0:
256,192,23080,1,0,0:0:0:0:
256,192,23267,1,8,0:0:0:0:
256,192,23455,1,8,0:0:0:0:
256,192,23549,1,0,0:0:0:0:
256,192,23642,1,0,0:0:0:0:
256,192,23830,1,8,0:0:0:0:
256,192,24017,1,0,0:0:0:0:
256,192,24205,1,8,0:0:0:0:
256,192,24392,1,8,0:0:0:0:
256,192,24580,1,0,0:0:0:0:
256,192,24674,1,0,0:0:0:0:
256,192,24767,1,8,0:0:0:0:
256,192,24955,1,8,0:0:0:0:
256,192,25330,1,0,0:0:0:0:
256,192,25517,1,0,0:0:0:0:
256,192,25705,1,0,0:0:0:0:
256,192,25892,1,8,0:0:0:0:
256,192,26080,1,0,0:0:0:0:
256,192,26267,1,8,0:0:0:0:
256,192,26455,1,0,0:0:0:0:
256,192,26549,1,8,0:0:0:0:
256,192,26736,1,0,0:0:0:0:
256,192,26830,1,8,0:0:0:0:
256,192,27017,1,0,0:0:0:0:
256,192,27205,1,8,0:0:0:0:
256,192,27392,1,0,0:0:0:0:
256,192,27580,1,0,0:0:0:0:
256,192,27674,1,0,0:0:0:0:
256,192,27767,1,8,0:0:0:0:
256,192,27955,1,8,0:0:0:0:
256,192,28330,1,0,0:0:0:0:
256,192,28517,1,0,0:0:0:0:
256,192,28705,1,0,0:0:0:0:
256,192,28892,1,8,0:0:0:0:
256,192,29080,1,0,0:0:0:0:
256,192,29267,1,8,0:0:0:0:
256,192,29361,1,8,0:0:0:0:
256,192,29455,1,0,0:0:0:0:
256,192,29549,1,8,0:0:0:0:
256,192,29642,1,0,0:0:0:0:
256,192,29830,1,0,0:0:0:0:
256,192,30017,1,0,0:0:0:0:
256,192,30205,1,8,0:0:0:0:
256,192,30392,1,0,0:0:0:0:
256,192,30580,1,8,0:0:0:0:
256,192,30767,1,0,0:0:0:0:
256,192,30955,1,0,0:0:0:0:
256,192,31049,1,8,0:0:0:0:
256,192,31236,1,0,0:0:0:0:
256,192,31330,1,8,0:0:0:0:
256,192,31517,1,0,0:0:0:0:
256,192,31705,1,8,0:0:0:0:
256,192,31799,1,0,0:0:0:0:
256,192,31986,1,0,0:0:0:0:
256,192,32080,1,8,0:0:0:0:
256,192,32267,1,0,0:0:0:0:
256,192,32455,1,8,0:0:0:0:
256,192,32549,1,8,0:0:0:0:
256,192,32642,1,0,0:0:0:0:
256,192,32736,1,0,0:0:0:0:
256,192,32830,1,8,0:0:0:0:
256,192,33017,1,0,0:0:0:0:
256,192,33205,1,8,0:0:0:0:
256,192,33392,1,0,0:0:0:0:
256,192,33580,1,8,0:0:0:0:
256,192,33767,1,0,0:0:0:0:
256,192,33955,1,0,0:0:0:0:
256,192,34049,1,8,0:0:0:0:
256,192,34142,1,0,0:0:0:0:
256,192,34236,1,0,0:0:0:0:
256,192,34330,1,8,0:0:0:0:
256,192,34517,1,0,0:0:0:0:
256,192,34705,1,8,0:0:0:0:
256,192,34799,1,8,0:0:0:0:
256,192,34892,1,0,0:0:0:0:
256,192,35080,1,8,0:0:0:0:
256,192,35267,1,0,0:0:0:0:
256,192,35455,1,8,0:0:0:0:
256,192,35549,1,8,0:0:0:0:
256,192,35642,1,0,0:0:0:0:
256,192,35736,1,0,0:0:0:0:
256,192,35830,1,8,0:0:0:0:
256,192,36017,1,0,0:0:0:0:
256,192,36205,1,8,0:0:0:0:
256,192,36392,1,0,0:0:0:0:
256,192,36580,1,8,0:0:0:0:
256,192,36767,1,0,0:0:0:0:
256,192,36955,1,0,0:0:0:0:
256,192,37049,1,8,0:0:0:0:
256,192,37142,1,0,0:0:0:0:
256,192,37330,1,8,0:0:0:0:
256,192,37517,1,0,0:0:0:0:
256,192,37705,1,8,0:0:0:0:
256,192,37799,1,8,0:0:0:0:
256,192,37892,1,0,0:0:0:0:
256,192,38080,1,8,0:0:0:0:
256,192,38267,1,0,0:0:0:0:
256,192,38361,1,0,0:0:0:0:
256,192,38455,1,8,0:0:0:0:
256,192,38549,1,8,0:0:0:0:
256,192,38642,1,0,0:0:0:0:
256,192,38830,1,8,0:0:0:0:
256,192,39017,1,0,0:0:0:0:
256,192,39205,1,0,0:0:0:0:
256,192,39299,1,0,0:0:0:0:
256,192,39392,1,8,0:0:0:0:
256,192,39580,1,8,0:0:0:0:
256,192,39767,1,0,0:0:0:0:
256,192,39955,1,0,0:0:0:0:
256,192,40049,1,8,0:0:0:0:
256,192,40142,1,8,0:0:0:0:
256,192,40330,1,8,0:0:0:0:
256,192,40517,1,0,0:0:0:0:
256,192,40705,1,8,0:0:0:0:
256,192,40799,1,8,0:0:0:0:
256,192,40892,1,0,0:0:0:0:
256,192,41080,1,8,0:0:0:0:
256,192,41267,1,4,0:0:0:0:
256,192,41455,1,4,0:0:0:0:
256,192,41642,1,4,0:0:0:0:
256,192,41830,1,8,0:0:0:0:
256,192,42017,1,0,0:0:0:0:
256,192,42205,1,0,0:0:0:0:
256,192,42299,1,0,0:0:0:0:
256,192,42392,1,8,0:0:0:0:
256,192,42486,1,0,0:0:0:0:
256,192,42580,1,8,0:0:0:0:
256,192,42674,1,8,0:0:0:0:
256,192,42767,1,0,0:0:0:0:
256,192,42955,1,0,0:0:0:0:
256,192,43049,1,8,0:0:0:0:
256,192,43142,1,8,0:0:0:0:
256,192,43236,1,0,0:0:0:0:
256,192,43330,1,8,0:0:0:0:
256,192,43517,1,0,0:0:0:0:
256,192,43705,1,8,0:0:0:0:
256,192,43799,1,0,0:0:0:0:
256,192,43892,1,8,0:0:0:0:
256,192,43986,1,0,0:0:0:0:
256,192,44080,1,8,0:0:0:0:
256,192,44174,1,8,0:0:0:0:
256,192,44267,1,0,0:0:0:0:
256,192,44455,1,8,0:0:0:0:
256,192,44642,1,0,0:0:0:0:
256,192,44736,1,8,0:0:0:0:
256,192,44830,1,8,0:0:0:0:
256,192,44924,1,0,0:0:0:0:
256,192,45017,1,8,0:0:0:0:
256,192,45205,1,8,0:0:0:0:
256,192,45299,1,8,0:0:0:0:
256,192,45392,1,0,0:0:0:0:
256,192,45486,1,0,0:0:0:0:
256,192,45580,1,8,0:0:0:0:
256,192,45674,1,8,0:0:0:0:
256,192,45767,1,8,0:0:0:0:
256,192,45955,1,8,0:0:0:0:
256,192,46142,1,0,0:0:0:0:
256,192,46236,1,8,0:0:0:0:
256,192,46330,1,8,0:0:0:0:
256,192,46517,1,0,0:0:0:0:
256,192,46705,1,8,0:0:0:0:
256,192,46799,1,8,0:0:0:0:
256,192,46892,1,0,0:0:0:0:
256,192,46986,1,0,0:0:0:0:
256,192,47080,1,8,0:0:0:0:
256,192,47174,1,8,0:0:0:0:
256,192,47267,1,8,0:0:0:0:
256,192,47455,1,8,0:0:0:0:
256,192,47642,1,0,0:0:0:0:
256,192,47736,1,0,0:0:0:0:
256,192,47830,1,8,0:0:0:0:
256,192,48017,1,0,0:0:0:0:
256,192,48205,1,0,0:0:0:0:
256,192,48299,1,0,0:0:0:0:
256,192,48392,1,8,0:0:0:0:
256,192,48486,1,0,0:0:0:0:
256,192,48580,1,8,0:0:0:0:
256,192,48674,1,8,0:0:0:0:
256,192,48767,1,0,0:0:0:0:
256,192,48955,1,8,0:0:0:0:
256,192,49049,1,0,0:0:0:0:
256,192,49142,1,8,0:0:0:0:
256,192,49330,1,8,0:0:0:0:
256,192,49424,1,8,0:0:0:0:
256,192,49517,1,0,0:0:0:0:
256,192,49705,1,0,0:0:0:0:
256,192,49799,1,0,0:0:0:0:
256,192,49892,1,8,0:0:0:0:
256,192,49986,1,0,0:0:0:0:
256,192,50080,1,8,0:0:0:0:
256,192,50174,1,8,0:0:0:0:
256,192,50267,1,8,0:0:0:0:
256,192,50455,1,8,0:0:0:0:
256,192,50642,1,0,0:0:0:0:
256,192,50736,1,0,0:0:0:0:
256,192,50830,1,8,0:0:0:0:
256,192,50924,1,8,0:0:0:0:
256,192,51017,1,0,0:0:0:0:
256,192,51205,1,8,0:0:0:0:
256,192,51392,1,0,0:0:0:0:
256,192,51486,1,8,0:0:0:0:
256,192,51580,1,8,0:0:0:0:
256,192,51674,1,0,0:0:0:0:
256,192,51767,1,8,0:0:0:0:
256,192,51955,1,8,0:0:0:0:
256,192,52049,1,8,0:0:0:0:
256,192,52142,1,0,0:0:0:0:
256,192,52236,1,0,0:0:0:0:
256,192,52330,1,8,0:0:0:0:
256,192,52424,1,8,0:0:0:0:
256,192,52517,1,0,0:0:0:0:
256,192,52705,1,8,0:0:0:0:
256,192,52799,1,8,0:0:0:0:
256,192,52892,1,0,0:0:0:0:
256,192,52986,1,0,0:0:0:0:
256,192,53080,1,8,0:0:0:0:
256,192,53267,1,8,0:0:0:0:
256,192,53455,1,0,0:0:0:0:
256,224,53642,1,8,0:0:0:0:
256,224,53736,1,8,0:0:0:0:
256,192,53830,1,8,0:0:0:0:
256,192,54017,1,0,0:0:0:0:
256,192,54580,1,0,0:0:0:0:
256,192,54674,1,0,0:0:0:0:
256,192,54767,1,8,0:0:0:0:
256,192,54955,1,8,0:0:0:0:
256,192,55142,1,0,0:0:0:0:
256,192,55517,1,0,0:0:0:0:
256,192,55611,1,0,0:0:0:0:
256,192,55705,1,0,0:0:0:0:
256,192,55892,1,8,0:0:0:0:
256,192,56080,1,0,0:0:0:0:
256,192,56267,1,4,0:0:0:0:
256,192,56549,1,4,0:0:0:0:
256,192,56830,1,8,0:0:0:0:
256,192,57017,1,0,0:0:0:0:
256,192,57111,1,0,0:0:0:0:
256,192,57205,1,0,0:0:0:0:
256,192,57392,1,0,0:0:0:0:
256,192,57580,1,0,0:0:0:0:
256,192,57674,1,0,0:0:0:0:
256,192,57767,1,8,0:0:0:0:
256,192,57955,1,8,0:0:0:0:
256,192,58142,1,0,0:0:0:0:
256,192,58517,1,8,0:0:0:0:
256,192,58611,1,8,0:0:0:0:
256,192,58705,1,0,0:0:0:0:
256,192,58892,1,8,0:0:0:0:
256,192,59080,1,0,0:0:0:0:
256,192,59267,1,4,0:0:0:0:
256,192,59549,1,4,0:0:0:0:
256,192,59830,1,8,0:0:0:0:
256,192,60017,1,0,0:0:0:0:
256,192,60111,1,8,0:0:0:0:
256,192,60205,1,0,0:0:0:0:
256,192,60299,1,0,0:0:0:0:
256,192,60392,1,8,0:0:0:0:
256,192,60486,1,8,0:0:0:0:
256,192,60580,1,0,0:0:0:0:
256,192,60674,1,0,0:0:0:0:
256,192,60767,1,8,0:0:0:0:
256,192,60955,1,8,0:0:0:0:
256,192,61142,1,0,0:0:0:0:
256,192,61330,1,0,0:0:0:0:
256,192,61517,1,8,0:0:0:0:
256,192,61611,1,8,0:0:0:0:
256,192,61705,1,0,0:0:0:0:
256,192,61799,1,0,0:0:0:0:
256,192,61892,1,8,0:0:0:0:
256,192,61986,1,0,0:0:0:0:
256,192,62080,1,0,0:0:0:0:
256,192,62267,1,4,0:0:0:0:
256,192,62549,1,4,0:0:0:0:
256,192,62830,1,8,0:0:0:0:
256,192,63017,1,8,0:0:0:0:
256,192,63111,1,0,0:0:0:0:
256,192,63205,1,8,0:0:0:0:
256,192,63299,1,0,0:0:0:0:
256,192,63392,1,8,0:0:0:0:
256,192,63486,1,8,0:0:0:0:
256,192,63580,1,0,0:0:0:0:
256,192,63674,1,0,0:0:0:0:
256,192,63767,1,8,0:0:0:0:
256,192,63955,1,8,0:0:0:0:
256,192,64142,1,0,0:0:0:0:
256,192,64330,1,8,0:0:0:0:
256,192,64517,1,0,0:0:0:0:
256,192,64705,1,0,0:0:0:0:
256,192,64799,1,0,0:0:0:0:
256,192,64892,1,8,0:0:0:0:
256,192,64986,1,8,0:0:0:0:
256,192,65080,1,0,0:0:0:0:
256,192,65174,1,0,0:0:0:0:
256,192,65267,1,8,0:0:0:0:
256,192,65455,1,0,0:0:0:0:
256,192,65642,1,4,0:0:0:0:
256,192,65830,1,4,0:0:0:0:
256,192,66017,1,0,0:0:0:0:
256,192,66111,1,8,0:0:0:0:
256,192,66205,1,0,0:0:0:0:
256,192,66299,1,0,0:0:0:0:
256,192,66392,1,8,0:0:0:0:
256,192,66486,1,0,0:0:0:0:
256,192,66580,1,8,0:0:0:0:
256,192,66674,1,8,0:0:0:0:
256,192,66767,1,0,0:0:0:0:
256,192,66861,1,8,0:0:0:0:
256,192,66955,1,0,0:0:0:0:
256,192,67049,1,8,0:0:0:0:
256,192,67142,1,0,0:0:0:0:
256,192,67236,1,0,0:0:0:0:
256,192,67330,1,8,0:0:0:0:
256,192,67424,1,8,0:0:0:0:
256,192,67517,1,0,0:0:0:0:
256,192,67705,1,0,0:0:0:0:
256,192,67799,1,0,0:0:0:0:
256,192,67892,1,8,0:0:0:0:
256,192,67986,1,0,0:0:0:0:
256,192,68080,1,8,0:0:0:0:
256,192,68267,1,0,0:0:0:0:
256,192,68455,1,8,0:0:0:0:
256,192,68549,1,8,0:0:0:0:
256,192,68642,1,0,0:0:0:0:
256,192,68736,1,0,0:0:0:0:
256,192,68830,1,8,0:0:0:0:
256,192,68924,1,8,0:0:0:0:
256,192,69017,1,0,0:0:0:0:
256,192,69111,1,8,0:0:0:0:
256,192,69205,1,0,0:0:0:0:
256,192,69299,1,0,0:0:0:0:
256,192,69392,1,8,0:0:0:0:
256,192,69486,1,8,0:0:0:0:
256,192,69580,1,0,0:0:0:0:
256,192,69674,1,8,0:0:0:0:
256,192,69767,1,0,0:0:0:0:
256,192,69861,1,8,0:0:0:0:
256,192,69955,1,8,0:0:0:0:
256,192,70049,1,0,0:0:0:0:
256,192,70142,1,8,0:0:0:0:
256,192,70330,1,0,0:0:0:0:
256,192,70424,1,8,0:0:0:0:
256,192,70517,1,0,0:0:0:0:
256,192,70705,1,0,0:0:0:0:
256,192,70799,1,0,0:0:0:0:
256,192,70892,1,8,0:0:0:0:
256,192,70986,1,0,0:0:0:0:
256,192,71080,1,8,0:0:0:0:
256,192,71267,1,0,0:0:0:0:
256,192,71361,1,0,0:0:0:0:
256,192,71455,1,8,0:0:0:0:
256,192,71549,1,0,0:0:0:0:
256,192,71642,1,8,0:0:0:0:
256,192,71736,1,8,0:0:0:0:
256,192,71830,1,8,0:0:0:0:
256,192,72017,1,0,0:0:0:0:
256,192,72205,1,0,0:0:0:0:
256,192,72299,1,0,0:0:0:0:
256,192,72392,1,8,0:0:0:0:
256,192,72486,1,8,0:0:0:0:
256,192,72580,1,0,0:0:0:0:
256,192,72674,1,8,0:0:0:0:
256,192,72767,1,0,0:0:0:0:
256,192,72861,1,8,0:0:0:0:
256,192,72955,1,0,0:0:0:0:
256,192,73049,1,0,0:0:0:0:
256,192,73142,1,8,0:0:0:0:
256,192,73236,1,0,0:0:0:0:
256,192,73330,1,0,0:0:0:0:
256,192,73424,1,8,0:0:0:0:
256,192,73517,1,0,0:0:0:0:
256,192,73705,1,0,0:0:0:0:
256,192,73799,1,0,0:0:0:0:
256,192,73892,1,8,0:0:0:0:
256,192,73986,1,0,0:0:0:0:
256,192,74080,1,8,0:0:0:0:
256,192,74267,1,0,0:0:0:0:
256,192,74455,1,8,0:0:0:0:
256,192,74549,1,8,0:0:0:0:
256,192,74642,1,0,0:0:0:0:
256,192,74736,1,0,0:0:0:0:
256,192,74830,1,8,0:0:0:0:
256,192,74924,1,0,0:0:0:0:
256,192,75017,1,8,0:0:0:0:
256,192,75205,1,0,0:0:0:0:
256,192,75299,1,0,0:0:0:0:
256,192,75392,1,8,0:0:0:0:
256,192,75486,1,0,0:0:0:0:
256,192,75580,1,0,0:0:0:0:
256,192,75674,1,8,0:0:0:0:
256,192,75767,1,0,0:0:0:0:
256,192,75861,1,8,0:0:0:0:
256,192,75955,1,8,0:0:0:0:
256,192,76049,1,0,0:0:0:0:
256,192,76142,1,8,0:0:0:0:
256,192,76330,1,0,0:0:0:0:
256,192,76424,1,8,0:0:0:0:
256,192,76517,1,0,0:0:0:0:
256,192,76705,1,8,0:0:0:0:
256,192,76799,1,0,0:0:0:0:
256,192,76892,1,8,0:0:0:0:
256,192,76986,1,8,0:0:0:0:
256,192,77080,1,8,0:0:0:0:
256,192,77267,1,4,0:0:0:0:
256,192,77455,1,4,0:0:0:0:
256,192,77642,1,4,0:0:0:0:
256,192,77830,1,8,0:0:0:0:
256,192,78017,1,0,0:0:0:0:
256,192,78111,1,0,0:0:0:0:
256,192,78205,1,8,0:0:0:0:
256,192,78299,1,0,0:0:0:0:
256,192,78392,1,8,0:0:0:0:
256,192,78486,1,0,0:0:0:0:
256,192,78580,1,8,0:0:0:0:
256,192,78674,1,8,0:0:0:0:
256,192,78767,1,0,0:0:0:0:
256,192,78861,1,8,0:0:0:0:
256,192,78955,1,0,0:0:0:0:
256,192,79049,1,0,0:0:0:0:
256,192,79142,1,8,0:0:0:0:
256,192,79330,1,0,0:0:0:0:
256,192,79424,1,8,0:0:0:0:
256,192,79517,1,0,0:0:0:0:
256,192,79705,1,0,0:0:0:0:
256,192,79799,1,0,0:0:0:0:
256,192,79892,1,8,0:0:0:0:
256,192,79986,1,8,0:0:0:0:
256,192,80080,1,8,0:0:0:0:
256,192,80267,1,0,0:0:0:0:
256,192,80455,1,8,0:0:0:0:
256,192,80549,1,8,0:0:0:0:
256,192,80642,1,0,0:0:0:0:
256,192,80736,1,0,0:0:0:0:
256,192,80830,1,8,0:0:0:0:
256,192,80924,1,0,0:0:0:0:
256,192,81017,1,8,0:0:0:0:
256,192,81111,1,8,0:0:0:0:
256,192,81205,1,0,0:0:0:0:
256,192,81299,1,0,0:0:0:0:
256,192,81392,1,8,0:0:0:0:
256,192,81580,1,8,0:0:0:0:
256,192,81674,1,8,0:0:0:0:
256,192,81767,1,0,0:0:0:0:
256,192,81861,1,8,0:0:0:0:
256,192,81955,1,0,0:0:0:0:
256,192,82049,1,0,0:0:0:0:
256,192,82142,1,8,0:0:0:0:
256,192,82330,1,0,0:0:0:0:
256,192,82424,1,8,0:0:0:0:
256,192,82517,1,0,0:0:0:0:
256,192,82705,1,0,0:0:0:0:
256,192,82799,1,0,0:0:0:0:
256,192,82892,1,8,0:0:0:0:
256,192,82986,1,0,0:0:0:0:
256,192,83080,1,8,0:0:0:0:
256,192,83267,1,0,0:0:0:0:
256,192,83455,1,8,0:0:0:0:
256,192,83549,1,8,0:0:0:0:
256,192,83642,1,0,0:0:0:0:
256,192,83830,1,8,0:0:0:0:
256,192,84017,1,0,0:0:0:0:
256,192,84111,1,0,0:0:0:0:
256,192,84205,1,0,0:0:0:0:
256,192,84299,1,0,0:0:0:0:
256,192,84392,1,8,0:0:0:0:
256,192,84486,1,0,0:0:0:0:
256,192,84580,1,0,0:0:0:0:
256,192,84674,1,8,0:0:0:0:
256,192,84767,1,0,0:0:0:0:
256,192,84861,1,8,0:0:0:0:
256,192,84955,1,0,0:0:0:0:
256,192,85049,1,0,0:0:0:0:
256,192,85142,1,8,0:0:0:0:
256,192,85330,1,8,0:0:0:0:
256,192,85424,1,0,0:0:0:0:
256,192,85517,1,8,0:0:0:0:
256,192,85705,1,0,0:0:0:0:
256,192,85799,1,0,0:0:0:0:
256,192,85892,1,8,0:0:0:0:
256,192,85986,1,0,0:0:0:0:
256,192,86080,1,8,0:0:0:0:
256,192,86174,1,8,0:0:0:0:
256,192,86267,1,0,0:0:0:0:
256,192,86455,1,8,0:0:0:0:
256,192,86642,1,0,0:0:0:0:
256,192,86736,1,0,0:0:0:0:
256,192,86830,1,8,0:0:0:0:
256,160,86924,1,0,0:0:0:0:
256,160,87017,1,8,0:0:0:0:
256,192,87205,1,0,0:0:0:0:
256,192,87299,1,0,0:0:0:0:
256,192,87392,1,8,0:0:0:0:
256,192,87580,1,0,0:0:0:0:
256,192,87674,1,8,0:0:0:0:
256,192,87767,1,0,0:0:0:0:
256,192,87861,1,8,0:0:0:0:
256,192,87955,1,8,0:0:0:0:
256,192,88049,1,0,0:0:0:0:
256,192,88142,1,8,0:0:0:0:
256,192,88330,1,8,0:0:0:0:
256,192,88424,1,8,0:0:0:0:
256,192,88517,1,8,0:0:0:0:
256,192,88705,1,0,0:0:0:0:
256,192,88799,1,8,0:0:0:0:
256,192,88892,1,8,0:0:0:0:
256,192,89080,1,8,0:0:0:0:
256,192,89267,1,0,0:0:0:0:
256,192,89361,1,8,0:0:0:0:
256,192,89455,1,0,0:0:0:0:
256,192,89549,1,0,0:0:0:0:
256,192,89642,1,8,0:0:0:0:
256,192,89736,1,8,0:0:0:0:
256,192,89830,1,8,0:0:0:0:
256,192,90017,1,0,0:0:0:0:
256,192,90205,1,8,0:0:0:0:
256,192,90299,1,0,0:0:0:0:
256,192,90392,1,0,0:0:0:0:
256,192,90580,1,8,0:0:0:0:
256,192,90767,1,0,0:0:0:0:
256,192,90955,1,8,0:0:0:0:
256,192,91049,1,0,0:0:0:0:
256,192,91142,1,0,0:0:0:0:
256,192,91330,1,8,0:0:0:0:
256,192,91517,1,0,0:0:0:0:
256,192,91705,1,8,0:0:0:0:
256,192,91799,1,0,0:0:0:0:
256,192,91892,1,0,0:0:0:0:
256,192,92080,1,8,0:0:0:0:
256,192,92267,1,0,0:0:0:0:
256,192,92455,1,8,0:0:0:0:
256,192,92549,1,0,0:0:0:0:
256,192,92642,1,0,0:0:0:0:
256,192,92736,1,0,0:0:0:0:
256,192,92830,1,8,0:0:0:0:
256,192,93017,1,0,0:0:0:0:
256,192,93205,1,8,0:0:0:0:
256,192,93299,1,0,0:0:0:0:
256,192,93392,1,0,0:0:0:0:
256,160,93580,1,8,0:0:0:0:
256,192,93767,1,0,0:0:0:0:
256,192,93955,1,8,0:0:0:0:
256,192,94049,1,0,0:0:0:0:
256,192,94142,1,0,0:0:0:0:
224,192,94330,1,8,0:0:0:0:
224,192,94517,1,0,0:0:0:0:
224,192,94705,1,8,0:0:0:0:
224,192,94799,1,0,0:0:0:0:
224,192,94892,1,0,0:0:0:0:
256,192,95080,1,8,0:0:0:0:
256,192,95267,1,0,0:0:0:0:
224,192,95455,1,8,0:0:0:0:
256,192,95549,1,0,0:0:0:0:
256,192,95642,1,0,0:0:0:0:
256,192,95736,1,0,0:0:0:0:
288,192,95830,1,8,0:0:0:0:
256,192,96017,1,0,0:0:0:0:
256,192,96205,1,8,0:0:0:0:
256,192,96299,1,8,0:0:0:0:
256,192,96392,1,0,0:0:0:0:
256,192,96580,1,8,0:0:0:0:
256,192,96767,1,0,0:0:0:0:
256,192,96955,1,0,0:0:0:0:
256,192,97049,1,8,0:0:0:0:
256,192,97142,1,0,0:0:0:0:
256,192,97236,1,0,0:0:0:0:
256,192,97330,1,8,0:0:0:0:
256,192,97517,1,0,0:0:0:0:
256,192,97705,1,8,0:0:0:0:
256,192,97799,1,8,0:0:0:0:
256,192,97892,1,0,0:0:0:0:
256,192,97986,1,0,0:0:0:0:
256,192,98080,1,8,0:0:0:0:
256,192,98267,1,0,0:0:0:0:
256,192,98455,1,0,0:0:0:0:
256,192,98549,1,8,0:0:0:0:
256,192,98642,1,8,0:0:0:0:
256,192,98736,1,0,0:0:0:0:
256,192,98830,1,8,0:0:0:0:
256,192,99017,1,0,0:0:0:0:
256,192,99205,1,8,0:0:0:0:
256,192,99299,1,0,0:0:0:0:
256,192,99392,1,0,0:0:0:0:
256,192,99580,1,8,0:0:0:0:
256,192,99767,1,0,0:0:0:0:
256,192,99955,1,8,0:0:0:0:
256,192,100049,1,8,0:0:0:0:
256,192,100142,1,0,0:0:0:0:
256,192,100236,1,0,0:0:0:0:
256,192,100330,1,8,0:0:0:0:
256,192,100517,1,0,0:0:0:0:
256,192,100705,1,0,0:0:0:0:
256,192,100799,1,8,0:0:0:0:
256,192,100892,1,8,0:0:0:0:
256,192,100986,1,8,0:0:0:0:
256,192,101080,1,8,0:0:0:0:
256,192,101267,1,8,0:0:0:0:
256,192,101361,1,8,0:0:0:0:
256,192,101455,1,0,0:0:0:0:
256,192,101549,1,8,0:0:0:0:
256,192,101642,1,8,0:0:0:0:
256,192,101736,1,8,0:0:0:0:
256,192,101830,1,8,0:0:0:0:
256,192,102017,1,12,0:0:0:0:
256,192,102205,1,0,0:0:0:0:
256,192,102299,1,0,0:0:0:0:
256,192,102392,1,8,0:0:0:0:
256,192,102580,1,0,0:0:0:0:
256,192,102674,1,8,0:0:0:0:
256,192,102767,1,0,0:0:0:0:
256,192,102861,1,8,0:0:0:0:
256,192,102955,1,0,0:0:0:0:
256,192,103142,1,8,0:0:0:0:
256,192,103330,1,0,0:0:0:0:
256,192,103424,1,8,0:0:0:0:
256,192,103517,1,0,0:0:0:0:
256,192,103705,1,0,0:0:0:0:
256,192,103799,1,8,0:0:0:0:
256,192,103892,1,8,0:0:0:0:
256,192,104080,1,8,0:0:0:0:
256,192,104267,1,0,0:0:0:0:
256,192,104455,1,8,0:0:0:0:
256,192,104642,1,0,0:0:0:0:
256,192,104736,1,0,0:0:0:0:
256,192,104830,1,8,0:0:0:0:
256,192,105017,1,0,0:0:0:0:
256,192,105111,1,8,0:0:0:0:
256,192,105205,1,0,0:0:0:0:
256,192,105299,1,0,0:0:0:0:
256,192,105392,1,8,0:0:0:0:
256,192,105580,1,0,0:0:0:0:
256,192,105674,1,8,0:0:0:0:
256,192,105767,1,0,0:0:0:0:
256,192,105861,1,8,0:0:0:0:
256,192,105955,1,0,0:0:0:0:
256,192,106049,1,0,0:0:0:0:
256,192,106142,1,8,0:0:0:0:
256,192,106330,1,0,0:0:0:0:
256,192,106424,1,8,0:0:0:0:
256,192,106517,1,0,0:0:0:0:
256,192,106705,1,0,0:0:0:0:
256,192,106799,1,0,0:0:0:0:
256,192,106892,1,8,0:0:0:0:
256,192,107080,1,0,0:0:0:0:
256,192,107267,1,8,0:0:0:0:
256,192,107361,1,0,0:0:0:0:
256,192,107455,1,8,0:0:0:0:
256,192,107549,1,8,0:0:0:0:
256,192,107642,1,0,0:0:0:0:
256,192,107736,1,0,0:0:0:0:
256,192,107830,1,8,0:0:0:0:
256,192,108017,1,0,0:0:0:0:
256,192,108205,1,8,0:0:0:0:
256,192,108299,1,8,0:0:0:0:
256,192,108392,1,8,0:0:0:0:
256,192,108580,1,0,0:0:0:0:
256,192,108674,1,8,0:0:0:0:
256,160,108767,1,0,0:0:0:0:
256,192,108861,1,8,0:0:0:0:
256,192,108955,1,0,0:0:0:0:
256,192,109049,1,0,0:0:0:0:
256,192,109142,1,8,0:0:0:0:
256,192,109330,1,0,0:0:0:0:
256,192,109424,1,8,0:0:0:0:
256,192,109517,1,0,0:0:0:0:
256,192,109705,1,0,0:0:0:0:
256,192,109799,1,0,0:0:0:0:
256,192,109892,1,8,0:0:0:0:
256,192,110080,1,8,0:0:0:0:
256,192,110267,1,0,0:0:0:0:
256,192,110455,1,8,0:0:0:0:
256,192,110549,1,8,0:0:0:0:
256,192,110642,1,0,0:0:0:0:
256,192,110736,1,0,0:0:0:0:
256,192,110830,1,8,0:0:0:0:
256,192,111017,1,0,0:0:0:0:
256,192,111111,1,8,0:0:0:0:
256,192,111205,1,0,0:0:0:0:
256,192,111299,1,0,0:0:0:0:
256,192,111392,1,8,0:0:0:0:
256,192,111580,1,0,0:0:0:0:
256,192,111674,1,8,0:0:0:0:
256,192,111767,1,0,0:0:0:0:
256,192,111861,1,8,0:0:0:0:
256,192,111955,1,0,0:0:0:0:
256,192,112049,1,0,0:0:0:0:
256,192,112142,1,8,0:0:0:0:
256,192,112330,1,0,0:0:0:0:
256,192,112424,1,8,0:0:0:0:
256,192,112517,1,0,0:0:0:0:
256,192,112705,1,0,0:0:0:0:
256,192,112799,1,0,0:0:0:0:
256,192,112892,1,8,0:0:0:0:
256,192,113080,1,0,0:0:0:0:
256,192,113174,1,0,0:0:0:0:
256,192,113267,1,8,0:0:0:0:
256,192,113361,1,8,0:0:0:0:
256,192,113455,1,0,0:0:0:0:
256,192,113549,1,8,0:0:0:0:
256,192,113642,1,8,0:0:0:0:
256,192,113736,1,0,0:0:0:0:
256,192,113830,1,8,0:0:0:0:
256,192,113924,1,8,0:0:0:0:
256,192,114017,1,0,0:0:0:0:
256,192,114205,1,8,0:0:0:0:
256,192,114392,1,0,0:0:0:0:
256,192,114486,1,0,0:0:0:0:
256,192,114580,1,8,0:0:0:0:
256,192,114767,1,0,0:0:0:0:
256,192,114955,1,0,0:0:0:0:
256,192,115049,1,8,0:0:0:0:
256,192,115142,1,0,0:0:0:0:
256,192,115236,1,0,0:0:0:0:
256,192,115330,1,8,0:0:0:0:
256,192,115517,1,0,0:0:0:0:
256,192,115705,1,8,0:0:0:0:
256,192,115799,1,8,0:0:0:0:
256,192,115892,1,0,0:0:0:0:
256,192,115986,1,0,0:0:0:0:
256,192,116080,1,8,0:0:0:0:
256,192,116267,1,0,0:0:0:0:
256,192,116455,1,0,0:0:0:0:
256,192,116549,1,8,0:0:0:0:
256,192,116642,1,8,0:0:0:0:
256,192,116736,1,0,0:0:0:0:
256,192,116830,1,8,0:0:0:0:
256,192,117017,1,0,0:0:0:0:
256,192,117205,1,8,0:0:0:0:
256,192,117392,1,0,0:0:0:0:
256,192,117486,1,0,0:0:0:0:
256,192,117580,1,8,0:0:0:0:
256,192,117767,1,0,0:0:0:0:
256,192,117861,1,8,0:0:0:0:
256,192,118049,1,8,0:0:0:0:
256,192,118142,1,0,0:0:0:0:
256,192,118236,1,0,0:0:0:0:
256,192,118330,1,8,0:0:0:0:
256,192,118517,1,0,0:0:0:0:
256,192,118705,1,8,0:0:0:0:
256,192,118892,1,0,0:0:0:0:
256,192,118986,1,0,0:0:0:0:
256,192,119080,1,8,0:0:0:0:
256,192,119174,1,8,0:0:0:0:
256,192,119267,1,0,0:0:0:0:
256,192,119455,1,8,0:0:0:0:
256,192,119642,1,0,0:0:0:0:
256,192,119736,1,0,0:0:0:0:
256,192,119830,1,8,0:0:0:0:
256,192,120017,1,12,0:0:0:0:
256,192,120205,1,8,0:0:0:0:
256,192,120392,1,0,0:0:0:0:
256,192,120486,1,0,0:0:0:0:
256,160,120580,1,8,0:0:0:0:
256,192,120767,1,0,0:0:0:0:
256,192,120955,1,8,0:0:0:0:
256,192,121049,1,8,0:0:0:0:
256,192,121142,1,0,0:0:0:0:
256,192,121236,1,0,0:0:0:0:
256,192,121330,1,8,0:0:0:0:
256,192,121517,1,0,0:0:0:0:
256,192,121705,1,8,0:0:0:0:
256,192,121799,1,0,0:0:0:0:
256,192,121892,1,8,0:0:0:0:
256,192,122080,1,8,0:0:0:0:
256,192,122267,1,0,0:0:0:0:
256,192,122455,1,8,0:0:0:0:
256,192,122642,1,0,0:0:0:0:
256,192,122736,1,0,0:0:0:0:
256,192,122830,1,8,0:0:0:0:
256,192,123017,1,0,0:0:0:0:
256,192,123205,1,8,0:0:0:0:
256,192,123392,1,0,0:0:0:0:
256,192,123486,1,0,0:0:0:0:
256,192,123580,1,8,0:0:0:0:
256,192,123674,1,8,0:0:0:0:
256,192,123767,1,0,0:0:0:0:
256,192,123955,1,8,0:0:0:0:
256,192,124142,1,8,0:0:0:0:
256,192,124236,1,0,0:0:0:0:
256,192,124330,1,8,0:0:0:0:
256,192,124517,1,0,0:0:0:0:
256,192,124705,1,8,0:0:0:0:
256,192,124799,1,8,0:0:0:0:
256,192,124892,1,0,0:0:0:0:
256,192,124986,1,0,0:0:0:0:
256,192,125080,1,8,0:0:0:0:
256,192,125267,1,4,0:0:0:0:
256,192,125455,1,4,0:0:0:0:
256,192,125642,1,8,0:0:0:0:
256,192,125736,1,8,0:0:0:0:
256,192,125830,1,8,0:0:0:0:
256,192,126017,1,4,0:0:0:0:
256,192,126205,1,8,0:0:0:0:
256,192,126299,1,8,0:0:0:0:
256,192,126392,1,0,0:0:0:0:
256,192,126486,1,0,0:0:0:0:
256,192,126580,1,8,0:0:0:0:
256,192,126674,1,8,0:0:0:0:
256,192,126767,1,0,0:0:0:0:
256,192,126955,1,0,0:0:0:0:
256,192,127049,1,8,0:0:0:0:
256,192,127142,1,0,0:0:0:0:
256,192,127236,1,0,0:0:0:0:
256,192,127330,1,8,0:0:0:0:
256,192,127424,1,8,0:0:0:0:
256,192,127517,1,0,0:0:0:0:
256,192,127705,1,8,0:0:0:0:
256,192,127799,1,8,0:0:0:0:
256,192,127892,1,0,0:0:0:0:
256,192,127986,1,0,0:0:0:0:
256,192,128080,1,8,0:0:0:0:
256,192,128174,1,8,0:0:0:0:
256,192,128267,1,0,0:0:0:0:
256,192,128455,1,0,0:0:0:0:
256,192,128549,1,8,0:0:0:0:
256,192,128642,1,0,0:0:0:0:
256,192,128736,1,0,0:0:0:0:
256,192,128830,1,8,0:0:0:0:
256,192,128924,1,8,0:0:0:0:
256,192,129017,1,0,0:0:0:0:
256,192,129205,1,0,0:0:0:0:
256,192,129299,1,8,0:0:0:0:
256,192,129392,1,0,0:0:0:0:
256,192,129486,1,0,0:0:0:0:
256,192,129580,1,8,0:0:0:0:
256,192,129767,1,0,0:0:0:0:
256,192,129955,1,0,0:0:0:0:
256,192,130049,1,8,0:0:0:0:
256,192,130142,1,8,0:0:0:0:
256,192,130236,1,0,0:0:0:0:
256,192,130330,1,8,0:0:0:0:
256,192,130517,1,0,0:0:0:0:
256,192,130705,1,8,0:0:0:0:
256,192,130799,1,8,0:0:0:0:
256,192,130892,1,0,0:0:0:0:
256,192,130986,1,0,0:0:0:0:
256,192,131080,1,8,0:0:0:0:
256,192,131267,1,0,0:0:0:0:
256,192,131455,1,8,0:0:0:0:
256,192,131549,1,8,0:0:0:0:
256,192,131642,1,0,0:0:0:0:
256,160,131736,1,0,0:0:0:0:
256,192,131830,1,8,0:0:0:0:
256,160,132017,1,12,0:0:0:0:
256,192,132205,1,8,0:0:0:0:
256,192,132392,1,0,0:0:0:0:
256,192,132486,1,0,0:0:0:0:
256,192,132580,1,8,0:0:0:0:
256,192,132767,1,0,0:0:0:0:
256,192,132955,1,8,0:0:0:0:
256,192,133049,1,8,0:0:0:0:
256,192,133142,1,0,0:0:0:0:
256,192,133236,1,0,0:0:0:0:
256,192,133330,1,8,0:0:0:0:
256,192,133517,1,8,0:0:0:0:
256,192,133611,1,0,0:0:0:0:
256,192,133705,1,8,0:0:0:0:
256,192,133799,1,8,0:0:0:0:
256,192,133892,1,0,0:0:0:0:
256,192,133986,1,0,0:0:0:0:
256,192,134080,1,8,0:0:0:0:
256,192,134267,1,0,0:0:0:0:
256,192,134455,1,8,0:0:0:0:
256,192,134642,1,0,0:0:0:0:
256,192,134736,1,0,0:0:0:0:
256,192,134830,1,8,0:0:0:0:
256,192,135017,1,0,0:0:0:0:
256,192,135205,1,8,0:0:0:0:
256,192,135392,1,0,0:0:0:0:
256,192,135486,1,0,0:0:0:0:
256,192,135580,1,8,0:0:0:0:
256,192,135767,1,0,0:0:0:0:
256,192,135861,1,8,0:0:0:0:
256,192,135955,1,8,0:0:0:0:
256,192,136049,1,0,0:0:0:0:
256,192,136142,1,8,0:0:0:0:
256,192,136236,1,0,0:0:0:0:
256,192,136330,1,8,0:0:0:0:
256,192,136517,1,0,0:0:0:0:
256,192,136705,1,8,0:0:0:0:
256,192,136892,1,0,0:0:0:0:
256,192,136986,1,0,0:0:0:0:
256,192,137080,1,8,0:0:0:0:
256,192,137267,1,0,0:0:0:0:
256,192,137361,1,8,0:0:0:0:
256,192,137455,1,0,0:0:0:0:
256,192,137549,1,0,0:0:0:0:
256,192,137642,1,8,0:0:0:0:
256,192,137736,1,8,0:0:0:0:
256,192,137830,1,8,0:0:0:0:
256,192,138017,1,0,0:0:0:0:
256,192,138205,1,0,0:0:0:0:
256,192,138392,1,8,0:0:0:0:
256,192,138580,1,8,0:0:0:0:
256,192,138767,1,4,0:0:0:0:
256,192,138955,1,4,0:0:0:0:
256,192,139142,1,8,0:0:0:0:
256,192,139330,1,0,0:0:0:0:
256,192,139424,1,8,0:0:0:0:
256,192,139517,1,0,0:0:0:0:
256,192,139611,1,0,0:0:0:0:
256,192,139705,1,0,0:0:0:0:
256,192,139892,1,8,0:0:0:0:
256,192,140080,1,0,0:0:0:0:
256,192,140174,1,8,0:0:0:0:
256,192,140267,1,4,0:0:0:0:
256,192,140549,1,4,0:0:0:0:
256,192,140736,1,8,0:0:0:0:
256,192,140830,1,8,0:0:0:0:
256,192,141017,1,0,0:0:0:0:
256,192,141205,1,0,0:0:0:0:
256,192,141392,1,8,0:0:0:0:
256,192,141580,1,8,0:0:0:0:
256,192,141767,1,4,0:0:0:0:
256,192,141955,1,4,0:0:0:0:
256,192,142142,1,8,0:0:0:0:
256,192,142330,1,0,0:0:0:0:
256,192,142424,1,8,0:0:0:0:
256,192,142517,1,0,0:0:0:0:
256,192,142611,1,0,0:0:0:0:
256,192,142705,1,0,0:0:0:0:
256,192,142892,1,8,0:0:0:0:
256,192,143080,1,0,0:0:0:0:
256,192,143174,1,8,0:0:0:0:
256,192,143267,1,4,0:0:0:0:
256,192,143549,1,4,0:0:0:0:
256,192,143830,1,8,0:0:0:0:
256,192,144017,1,12,0:0:0:0:
256,192,144205,1,0,0:0:0:0:
256,192,144299,1,0,0:0:0:0:
256,192,144392,1,8,0:0:0:0:
256,192,144580,1,8,0:0:0:0:
256,192,144767,1,4,0:0:0:0:
256,192,144955,1,4,0:0:0:0:
256,192,145142,1,8,0:0:0:0:
256,192,145330,1,0,0:0:0:0:
256,192,145424,1,8,0:0:0:0:
256,192,145517,1,0,0:0:0:0:
256,192,145705,1,0,0:0:0:0:
256,192,145892,1,12,0:0:0:0:
256,192,146267,1,4,0:0:0:0:
256,192,146549,1,4,0:0:0:0:
256,192,146830,1,0,0:0:0:0:
256,192,147017,1,0,0:0:0:0:
256,192,147299,1,0,0:0:0:0:
256,192,147392,1,8,0:0:0:0:
256,192,147580,1,8,0:0:0:0:
256,192,147767,1,4,0:0:0:0:
256,192,147955,1,4,0:0:0:0:
256,192,148142,1,0,0:0:0:0:
256,192,148424,1,8,0:0:0:0:
256,192,148517,1,0,0:0:0:0:
256,192,148705,1,0,0:0:0:0:
256,192,148892,1,12,0:0:0:0:
256,192,149267,1,8,0:0:0:0:
256,192,149361,1,0,0:0:0:0:
256,192,149455,1,8,0:0:0:0:
256,192,149549,1,8,0:0:0:0:
256,192,149642,1,0,0:0:0:0:
256,192,149736,1,0,0:0:0:0:
256,192,149830,1,8,0:0:0:0:
256,192,149924,1,8,0:0:0:0:
256,192,150017,1,8,0:0:0:0:
256,192,150767,1,4,0:0:0:0:
256,192,150955,1,4,0:0:0:0:
256,192,151517,1,0,0:0:0:0:
256,192,152267,1,8,0:0:0:0:
256,160,152455,1,0,0:0:0:0:
256,192,152549,1,8,0:0:0:0:
256,192,152642,1,0,0:0:0:0:
256,192,153017,1,0,0:0:0:0:
256,192,153205,1,0,0:0:0:0:
256,192,153299,1,0,0:0:0:0:
256,192,153392,1,0,0:0:0:0:
256,192,153580,1,0,0:0:0:0:
256,192,153767,1,4,0:0:0:0:
256,192,153955,1,4,0:0:0:0:
256,192,154517,1,0,0:0:0:0:
256,192,154705,1,0,0:0:0:0:
256,192,155080,1,0,0:0:0:0:
256,192,155267,1,4,0:0:0:0:
256,192,155549,1,4,0:0:0:0:
256,192,155830,1,8,0:0:0:0:
256,192,156017,1,0,0:0:0:0:
256,192,156205,1,8,0:0:0:0:
256,192,156299,1,8,0:0:0:0:
256,192,156392,1,0,0:0:0:0:
256,192,156580,1,8,0:0:0:0:
256,192,156767,1,4,0:0:0:0:
256,192,156955,1,4,0:0:0:0:
256,192,157142,1,8,0:0:0:0:
256,192,157330,1,8,0:0:0:0:
256,192,157517,1,0,0:0:0:0:
256,192,157705,1,8,0:0:0:0:
256,192,157799,1,8,0:0:0:0:
256,192,157892,1,0,0:0:0:0:
256,192,158080,1,8,0:0:0:0:
256,192,158267,1,4,0:0:0:0:
256,192,158549,1,4,0:0:0:0:
256,192,158736,1,8,0:0:0:0:
256,192,158830,1,8,0:0:0:0:
256,192,159017,1,0,0:0:0:0:
256,192,159205,1,8,0:0:0:0:
256,192,159299,1,8,0:0:0:0:
256,192,159392,1,0,0:0:0:0:
256,192,159486,1,0,0:0:0:0:
256,192,159580,1,8,0:0:0:0:
256,192,159767,1,4,0:0:0:0:
256,192,159955,1,4,0:0:0:0:
256,192,160142,1,8,0:0:0:0:
256,192,160330,1,8,0:0:0:0:
256,192,160424,1,0,0:0:0:0:
256,192,160517,1,0,0:0:0:0:
256,192,161080,1,0,0:0:0:0:
256,192,161267,1,4,0:0:0:0:
256,192,161549,1,4,0:0:0:0:
256,192,161830,1,8,0:0:0:0:
256,192,162017,1,0,0:0:0:0:
256,192,162205,1,0,0:0:0:0:
256,192,162392,1,0,0:0:0:0:
256,192,162580,1,8,0:0:0:0:
256,192,162767,1,0,0:0:0:0:
256,192,163049,1,8,0:0:0:0:
256,192,163142,1,0,0:0:0:0:
256,192,163330,1,8,0:0:0:0:
256,192,163517,1,0,0:0:0:0:
256,192,163799,1,8,0:0:0:0:
256,192,163892,1,0,0:0:0:0:
256,192,164080,1,8,0:0:0:0:
256,192,164267,1,0,0:0:0:0:
256,192,164455,1,0,0:0:0:0:
256,192,164549,1,8,0:0:0:0:
256,192,164642,1,0,0:0:0:0:
256,192,164830,1,8,0:0:0:0:
256,192,165017,1,0,0:0:0:0:
256,192,165205,1,0,0:0:0:0:
256,192,165392,1,0,0:0:0:0:
256,192,165580,1,8,0:0:0:0:
256,192,165767,1,0,0:0:0:0:
256,192,166049,1,8,0:0:0:0:
256,192,166142,1,0,0:0:0:0:
256,192,166330,1,8,0:0:0:0:
256,192,166517,1,0,0:0:0:0:
256,192,166705,1,0,0:0:0:0:
256,192,166892,1,8,0:0:0:0:
256,192,167267,1,8,0:0:0:0:
256,192,167642,1,8,0:0:0:0:
256,192,167830,1,0,0:0:0:0:
256,192,168017,1,8,0:0:0:0:
256,192,168205,1,0,0:0:0:0:
256,192,168392,1,0,0:0:0:0:
256,192,168767,1,0,0:0:0:0:
256,192,168955,1,8,0:0:0:0:
256,192,169142,1,8,0:0:0:0:
256,192,169330,1,0,0:0:0:0:
256,192,169517,1,8,0:0:0:0:
256,192,169705,1,0,0:0:0:0:
256,192,169799,1,0,0:0:0:0:
256,192,169892,1,8,0:0:0:0:
256,192,170080,1,8,0:0:0:0:
256,192,170267,1,0,0:0:0:0:
256,192,170642,1,0,0:0:0:0:
256,192,170830,1,8,0:0:0:0:
256,192,171017,1,0,0:0:0:0:
256,192,171205,1,0,0:0:0:0:
256,192,171392,1,8,0:0:0:0:
256,192,171767,1,0,0:0:0:0:
256,192,171955,1,8,0:0:0:0:
256,192,172049,1,0,0:0:0:0:
256,192,172142,5,8,0:0:0:0:
256,192,172330,1,8,0:0:0:0:
256,192,172517,1,0,0:0:0:0:
256,192,172705,1,0,0:0:0:0:
256,192,172892,1,8,0:0:0:0:
256,192,173267,5,8,0:0:0:0:
256,192,173361,1,8,0:0:0:0:
256,192,173455,1,0,0:0:0:0:
256,192,173549,1,8,0:0:0:0:
256,192,173642,1,8,0:0:0:0:
256,192,173736,1,0,0:0:0:0:
256,192,173830,1,8,0:0:0:0:
256,192,173924,1,8,0:0:0:0:
256,192,174017,1,0,0:0:0:0:
256,192,174205,1,8,0:0:0:0:
256,192,174392,1,0,0:0:0:0:
256,192,174486,1,0,0:0:0:0:
256,192,174580,1,8,0:0:0:0:
288,192,174674,1,0,0:0:0:0:
288,192,174767,1,8,0:0:0:0:
256,192,174861,1,8,0:0:0:0:
256,192,174955,1,0,0:0:0:0:
256,192,175049,1,8,0:0:0:0:
256,192,175142,1,8,0:0:0:0:
256,192,175236,1,0,0:0:0:0:
256,192,175330,1,8,0:0:0:0:
256,192,175517,1,0,0:0:0:0:
256,192,175705,1,8,0:0:0:0:
256,192,175799,1,0,0:0:0:0:
256,192,175986,1,0,0:0:0:0:
256,192,176080,1,8,0:0:0:0:
256,192,176174,1,8,0:0:0:0:
256,192,176267,1,0,0:0:0:0:
256,192,176455,1,0,0:0:0:0:
256,192,176549,1,8,0:0:0:0:
256,192,176642,1,0,0:0:0:0:
256,192,176736,1,0,0:0:0:0:
256,192,176830,1,8,0:0:0:0:
256,192,177017,1,0,0:0:0:0:
256,192,177205,1,8,0:0:0:0:
256,192,177392,1,0,0:0:0:0:
256,192,177486,1,0,0:0:0:0:
256,192,177580,1,8,0:0:0:0:
256,192,177767,1,8,0:0:0:0:
256,192,177861,1,8,0:0:0:0:
256,192,177955,1,0,0:0:0:0:
256,192,178049,1,8,0:0:0:0:
256,192,178142,1,8,0:0:0:0:
256,192,178236,1,0,0:0:0:0:
256,192,178330,1,8,0:0:0:0:
256,192,178517,1,0,0:0:0:0:
256,192,178705,1,8,0:0:0:0:
256,192,178892,1,0,0:0:0:0:
256,192,178986,1,0,0:0:0:0:
256,192,179080,1,8,0:0:0:0:
256,192,179267,1,0,0:0:0:0:
256,192,179455,1,8,0:0:0:0:
256,192,179642,1,8,0:0:0:0:
256,192,179736,1,0,0:0:0:0:
256,192,179830,1,8,0:0:0:0:
256,192,180017,1,0,0:0:0:0:
224,192,180205,1,8,0:0:0:0:
256,192,180392,1,0,0:0:0:0:
256,192,180486,1,8,0:0:0:0:
256,192,180674,1,8,0:0:0:0:
256,192,180767,1,0,0:0:0:0:
256,192,180955,1,8,0:0:0:0:
256,192,181142,1,0,0:0:0:0:
256,192,181236,1,0,0:0:0:0:
256,192,181330,1,8,0:0:0:0:
256,192,181517,1,8,0:0:0:0:
256,192,181705,1,8,0:0:0:0:
256,192,181799,1,8,0:0:0:0:
256,192,181892,1,0,0:0:0:0:
256,192,181986,1,0,0:0:0:0:
256,192,182080,1,8,0:0:0:0:
256,192,182267,1,0,0:0:0:0:
256,192,182455,1,8,0:0:0:0:
256,192,182642,1,8,0:0:0:0:
256,192,182736,1,0,0:0:0:0:
256,192,182830,1,8,0:0:0:0:
256,192,183017,1,0,0:0:0:0:
256,192,183205,1,8,0:0:0:0:
256,192,183299,1,8,0:0:0:0:
256,192,183392,1,0,0:0:0:0:
256,192,183486,1,0,0:0:0:0:
256,192,183580,1,8,0:0:0:0:
256,192,183767,1,0,0:0:0:0:
256,192,183955,1,0,0:0:0:0:
256,192,184049,1,8,0:0:0:0:
256,192,184142,1,8,0:0:0:0:
256,192,184236,1,0,0:0:0:0:
256,192,184330,1,8,0:0:0:0:
256,192,184517,1,0,0:0:0:0:
256,192,184705,1,8,0:0:0:0:
256,224,184892,1,0,0:0:0:0:
256,192,184986,1,0,0:0:0:0:
256,192,185080,1,8,0:0:0:0:
256,192,185267,1,0,0:0:0:0:
256,192,185455,1,8,0:0:0:0:
256,192,185642,1,8,0:0:0:0:
256,192,185736,1,8,0:0:0:0:
256,192,185830,1,8,0:0:0:0:
256,192,186017,1,4,0:0:0:0:
256,192,186205,1,8,0:0:0:0:
256,192,186392,1,8,0:0:0:0:
256,192,186486,1,8,0:0:0:0:
256,192,186580,1,0,0:0:0:0:
256,192,186674,1,0,0:0:0:0:
256,192,186767,1,8,0:0:0:0:
256,192,186861,1,0,0:0:0:0:
256,192,186955,1,0,0:0:0:0:
256,192,187049,1,8,0:0:0:0:
256,192,187142,1,0,0:0:0:0:
256,160,187236,1,0,0:0:0:0:
256,192,187330,1,8,0:0:0:0:
256,192,187517,1,8,0:0:0:0:
256,192,187611,1,8,0:0:0:0:
256,192,187705,1,0,0:0:0:0:
256,192,187799,1,8,0:0:0:0:
256,192,187892,1,0,0:0:0:0:
256,192,187986,1,0,0:0:0:0:
256,192,188080,1,8,0:0:0:0:
256,192,188267,1,0,0:0:0:0:
256,192,188361,1,8,0:0:0:0:
256,192,188455,1,8,0:0:0:0:
256,192,188549,1,0,0:0:0:0:
256,192,188642,1,8,0:0:0:0:
256,192,188830,1,8,0:0:0:0:
256,192,189017,1,0,0:0:0:0:
256,192,189205,1,8,0:0:0:0:
256,192,189392,1,0,0:0:0:0:
256,192,189486,1,0,0:0:0:0:
256,192,189580,1,8,0:0:0:0:
256,192,189674,1,0,0:0:0:0:
256,192,189767,1,8,0:0:0:0:
256,192,189861,1,8,0:0:0:0:
256,192,189955,1,0,0:0:0:0:
256,192,190049,1,8,0:0:0:0:
256,192,190142,1,0,0:0:0:0:
256,192,190236,1,0,0:0:0:0:
256,192,190330,1,8,0:0:0:0:
256,192,190424,1,0,0:0:0:0:
256,192,190517,1,8,0:0:0:0:
256,192,190705,1,8,0:0:0:0:
256,192,190892,1,0,0:0:0:0:
256,192,190986,1,0,0:0:0:0:
256,192,191080,1,8,0:0:0:0:
256,192,191174,1,8,0:0:0:0:
256,192,191267,1,0,0:0:0:0:
256,192,191455,1,8,0:0:0:0:
256,192,191549,1,8,0:0:0:0:
256,192,191642,1,0,0:0:0:0:
256,192,191736,1,8,0:0:0:0:
256,192,191830,1,8,0:0:0:0:
256,192,192017,1,4,0:0:0:0:
256,192,192205,1,8,0:0:0:0:
256,192,192392,1,0,0:0:0:0:
256,192,192486,1,0,0:0:0:0:
256,192,192580,1,8,0:0:0:0:
256,192,192767,1,0,0:0:0:0:
256,192,192861,1,0,0:0:0:0:
256,192,192955,1,8,0:0:0:0:
256,192,193049,1,8,0:0:0:0:
256,192,193142,1,0,0:0:0:0:
256,192,193236,1,0,0:0:0:0:
256,192,193330,1,8,0:0:0:0:
256,192,193424,1,0,0:0:0:0:
256,192,193517,1,8,0:0:0:0:
256,192,193705,1,8,0:0:0:0:
256,192,193799,1,8,0:0:0:0:
256,192,193892,1,0,0:0:0:0:
256,192,193986,1,0,0:0:0:0:
256,192,194080,1,8,0:0:0:0:
256,192,194267,1,8,0:0:0:0:
256,192,194455,1,0,0:0:0:0:
256,192,194549,1,8,0:0:0:0:
256,192,194642,1,0,0:0:0:0:
256,192,194736,1,0,0:0:0:0:
256,192,194830,1,8,0:0:0:0:
256,192,195017,1,0,0:0:0:0:
256,192,195205,1,8,0:0:0:0:
256,192,195392,1,0,0:0:0:0:
256,192,195486,1,0,0:0:0:0:
256,192,195580,1,8,0:0:0:0:
256,192,195674,1,8,0:0:0:0:
256,192,195767,1,0,0:0:0:0:
256,192,195955,1,8,0:0:0:0:
256,192,196049,1,8,0:0:0:0:
256,192,196142,1,0,0:0:0:0:
256,192,196236,1,0,0:0:0:0:
256,192,196330,1,8,0:0:0:0:
256,192,196424,1,8,0:0:0:0:
256,192,196517,1,0,0:0:0:0:
256,192,196705,1,8,0:0:0:0:
256,192,196799,1,8,0:0:0:0:
256,192,196892,1,0,0:0:0:0:
256,192,196986,1,0,0:0:0:0:
256,192,197080,1,8,0:0:0:0:
256,192,197174,1,0,0:0:0:0:
256,192,197267,1,8,0:0:0:0:
256,160,197361,1,8,0:0:0:0:
256,160,197455,1,0,0:0:0:0:
256,192,197549,1,8,0:0:0:0:
256,192,197642,1,0,0:0:0:0:
256,192,197736,1,8,0:0:0:0:
256,192,197830,1,8,0:0:0:0:
256,192,198017,1,4,0:0:0:0:
