osu file format v14

[General]
AudioFilename: audio.mp3
AudioLeadIn: 0
PreviewTime: 62987
Countdown: 0
SampleSet: Soft
StackLeniency: 0.7
Mode: 3
LetterboxInBreaks: 0
SpecialStyle: 0
WidescreenStoryboard: 0

[Editor]
Bookmarks: 6580,10390,25627,40865,56104,63723,78961,94199,101819,109437,124675,132294,147532,162770
DistanceSpacing: 0.8
BeatDivisor: 4
GridSize: 32
TimelineZoom: 2.899999

[Metadata]
Title:Guo Feng Ji Ni Tai Mei (O Hu w remix)
TitleUnicode:国风鸡你太美(哦呼w remix)
Artist:O Hu w
ArtistUnicode:哦呼w
Creator:AelSan
Version:Niganmaaaaaaaa
Source:
Tags:Pop Chinese 只因你太美 蔡徐坤 Just Because You're So Beautiful New World SWIN-S triditional chinese style ikun 鸡 皮影戏
BeatmapID:3881597
BeatmapSetID:1885207

[Difficulty]
HPDrainRate:8
CircleSize:4
OverallDifficulty:8
ApproachRate:5
SliderMultiplier:1.4
SliderTickRate:1

[Events]
//Background and Video events
0,0,"0683cda0b4c97a5a4bf5877bb2a0ce52f2f1c1f5.jpg",0,0
Video,433,"ikun.mp4"
//Break Periods
//Storyboard Layer 0 (Background)
//Storyboard Layer 1 (Fail)
//Storyboard Layer 2 (Pass)
//Storyboard Layer 3 (Foreground)
//Storyboard Layer 4 (Overlay)
//Storyboard Sound Samples

[TimingPoints]
-1060,476.190476190476,4,2,1,50,1,0
63701,-100,4,2,1,50,0,1
94178,-100,4,2,1,50,0,0
132273,-100,4,2,1,50,0,1
162749,-100,4,2,1,50,0,0

[HitObjects]
192,192,844,128,0,1241:0:0:0:0:
448,192,844,1,0,0:0:0:0:
320,192,1241,128,0,3344:0:0:0:0:
64,192,1856,128,0,2392:0:0:0:0:
192,192,2570,128,0,2868:0:0:0:0:
64,192,2868,128,0,3047:0:0:0:0:
192,192,3047,128,0,3225:0:0:0:0:
64,192,3225,1,0,0:0:0:0:
448,192,3344,128,0,3463:0:0:0:0:
64,192,3463,128,0,3662:0:0:0:0:
320,192,3463,1,0,0:0:0:0:
192,192,3662,128,0,3900:0:0:0:0:
448,192,3662,1,0,0:0:0:0:
64,192,3900,1,0,0:0:0:0:
320,192,3900,128,0,4178:0:0:0:0:
64,192,4178,128,0,4733:0:0:0:0:
448,192,4178,1,0,0:0:0:0:
448,192,4495,1,0,0:0:0:0:
320,192,4495,1,0,0:0:0:0:
192,192,4733,128,0,5368:0:0:0:0:
448,192,4892,1,0,0:0:0:0:
64,192,4892,1,0,0:0:0:0:
448,192,5368,128,0,6082:0:0:0:0:
320,192,5368,1,0,0:0:0:0:
320,192,6082,128,0,6559:0:0:0:0:
192,192,6082,1,0,0:0:0:0:
448,192,6559,1,0,0:0:0:0:
64,192,6559,128,0,7511:0:0:0:0:
192,192,6559,1,0,0:0:0:0:
448,192,6797,128,0,6916:0:0:0:0:
192,192,7035,1,0,0:0:0:0:
320,192,7035,1,0,0:0:0:0:
320,192,7273,128,0,7392:0:0:0:0:
192,192,7392,1,0,0:0:0:0:
320,192,7511,1,0,0:0:0:0:
448,192,7511,1,0,0:0:0:0:
64,192,7749,128,0,7868:0:0:0:0:
448,192,7749,1,0,0:0:0:0:
64,192,7987,1,0,0:0:0:0:
320,192,7987,1,0,0:0:0:0:
320,192,8225,128,0,8344:0:0:0:0:
192,192,8463,1,0,0:0:0:0:
448,192,8463,1,0,0:0:0:0:
64,192,8701,128,0,8820:0:0:0:0:
448,192,8939,1,0,0:0:0:0:
320,192,8939,1,0,0:0:0:0:
64,192,8939,1,0,0:0:0:0:
192,192,9178,1,0,0:0:0:0:
320,192,9297,1,0,0:0:0:0:
448,192,9416,1,0,0:0:0:0:
64,192,9416,1,0,0:0:0:0:
192,192,9475,1,0,0:0:0:0:
320,192,9535,1,0,0:0:0:0:
448,192,9594,1,0,0:0:0:0:
64,192,9654,128,0,9892:0:0:0:0:
192,192,9654,1,0,0:0:0:0:
448,192,9892,1,0,0:0:0:0:
192,192,9892,128,0,10130:0:0:0:0:
320,192,9892,1,0,0:0:0:0:
448,192,10130,128,0,10368:0:0:0:0:
64,192,10368,128,0,10606:0:0:0:0:
192,192,10368,128,0,10487:0:0:0:0:
320,192,10368,1,0,0:0:0:0:
448,192,10606,1,0,0:0:0:0:
320,192,10725,1,0,0:0:0:0:
192,192,10844,128,0,11320:0:0:0:0:
448,192,10844,1,0,0:0:0:0:
64,192,10844,128,0,10963:0:0:0:0:
448,192,11082,128,0,11201:0:0:0:0:
320,192,11320,128,0,11559:0:0:0:0:
64,192,11320,128,0,11439:0:0:0:0:
192,192,11559,128,0,11678:0:0:0:0:
448,192,11678,128,0,11797:0:0:0:0:
320,192,11797,1,0,0:0:0:0:
192,192,11797,1,0,0:0:0:0:
64,192,11797,1,0,0:0:0:0:
448,192,12035,1,0,0:0:0:0:
320,192,12035,1,0,0:0:0:0:
320,192,12154,1,0,0:0:0:0:
64,192,12273,1,0,0:0:0:0:
448,192,12273,1,0,0:0:0:0:
192,192,12511,1,0,0:0:0:0:
64,192,12511,1,0,0:0:0:0:
192,192,12630,1,0,0:0:0:0:
320,192,12749,1,0,0:0:0:0:
448,192,12749,1,0,0:0:0:0:
64,192,12749,1,0,0:0:0:0:
192,192,12987,128,0,13106:0:0:0:0:
192,192,13225,128,0,13344:0:0:0:0:
448,192,13225,1,0,0:0:0:0:
320,192,13344,1,0,0:0:0:0:
64,192,13463,128,0,13701:0:0:0:0:
448,192,13463,1,0,0:0:0:0:
192,192,13582,1,0,0:0:0:0:
320,192,13701,128,0,13939:0:0:0:0:
448,192,13701,1,0,0:0:0:0:
64,192,13939,128,0,14178:0:0:0:0:
448,192,14178,128,0,14416:0:0:0:0:
320,192,14178,128,0,14297:0:0:0:0:
192,192,14178,1,0,0:0:0:0:
64,192,14416,1,0,0:0:0:0:
192,192,14535,1,0,0:0:0:0:
320,192,14654,128,0,15130:0:0:0:0:
64,192,14654,1,0,0:0:0:0:
448,192,14654,128,0,14773:0:0:0:0:
64,192,14892,128,0,15011:0:0:0:0:
192,192,15130,128,0,15368:0:0:0:0:
448,192,15130,128,0,15249:0:0:0:0:
320,192,15368,128,0,15487:0:0:0:0:
64,192,15487,128,0,15606:0:0:0:0:
192,192,15606,1,0,0:0:0:0:
320,192,15606,1,0,0:0:0:0:
448,192,15606,1,0,0:0:0:0:
64,192,15844,1,0,0:0:0:0:
192,192,15844,1,0,0:0:0:0:
192,192,15963,1,0,0:0:0:0:
448,192,16082,1,0,0:0:0:0:
64,192,16082,128,0,16320:0:0:0:0:
320,192,16320,1,0,0:0:0:0:
448,192,16320,1,0,0:0:0:0:
320,192,16439,1,0,0:0:0:0:
448,192,16559,1,0,0:0:0:0:
64,192,16559,1,0,0:0:0:0:
192,192,16559,128,0,16797:0:0:0:0:
320,192,16797,128,0,17035:0:0:0:0:
448,192,17035,128,0,17273:0:0:0:0:
64,192,17035,1,0,0:0:0:0:
192,192,17273,128,0,17392:0:0:0:0:
320,192,17273,1,0,0:0:0:0:
448,192,17392,128,0,17511:0:0:0:0:
192,192,17511,128,0,17749:0:0:0:0:
64,192,17511,1,0,0:0:0:0:
320,192,17511,1,0,0:0:0:0:
448,192,17749,128,0,17987:0:0:0:0:
64,192,17749,1,0,0:0:0:0:
64,192,17987,128,0,18225:0:0:0:0:
192,192,17987,128,0,18106:0:0:0:0:
320,192,17987,1,0,0:0:0:0:
448,192,18225,1,0,0:0:0:0:
320,192,18344,1,0,0:0:0:0:
192,192,18463,128,0,18939:0:0:0:0:
448,192,18463,1,0,0:0:0:0:
64,192,18463,128,0,18582:0:0:0:0:
320,192,18701,128,0,18820:0:0:0:0:
448,192,18939,128,0,19416:0:0:0:0:
64,192,18939,128,0,19059:0:0:0:0:
192,192,19178,1,0,0:0:0:0:
64,192,19297,1,0,0:0:0:0:
320,192,19416,128,0,19654:0:0:0:0:
192,192,19416,1,0,0:0:0:0:
448,192,19654,128,0,19892:0:0:0:0:
192,192,19892,1,0,0:0:0:0:
64,192,19892,1,0,0:0:0:0:
448,192,20130,128,0,20249:0:0:0:0:
192,192,20249,1,0,0:0:0:0:
320,192,20368,128,0,20606:0:0:0:0:
448,192,20368,1,0,0:0:0:0:
64,192,20368,128,0,20487:0:0:0:0:
192,192,20606,128,0,20725:0:0:0:0:
64,192,20844,1,0,0:0:0:0:
448,192,20844,128,0,20963:0:0:0:0:
64,192,21082,128,0,21320:0:0:0:0:
320,192,21082,1,0,0:0:0:0:
448,192,21201,1,0,0:0:0:0:
320,192,21320,128,0,21559:0:0:0:0:
192,192,21320,1,0,0:0:0:0:
64,192,21559,128,0,21797:0:0:0:0:
448,192,21559,1,0,0:0:0:0:
448,192,21797,128,0,22035:0:0:0:0:
320,192,21797,128,0,21916:0:0:0:0:
192,192,21797,1,0,0:0:0:0:
64,192,22035,1,0,0:0:0:0:
192,192,22154,1,0,0:0:0:0:
320,192,22273,128,0,22749:0:0:0:0:
64,192,22273,1,0,0:0:0:0:
448,192,22273,128,0,22392:0:0:0:0:
192,192,22511,128,0,22630:0:0:0:0:
64,192,22749,128,0,23225:0:0:0:0:
448,192,22749,128,0,22868:0:0:0:0:
192,192,22987,1,0,0:0:0:0:
320,192,23106,1,0,0:0:0:0:
192,192,23225,128,0,23463:0:0:0:0:
448,192,23225,1,0,0:0:0:0:
64,192,23463,128,0,23701:0:0:0:0:
320,192,23463,1,0,0:0:0:0:
320,192,23582,1,0,0:0:0:0:
448,192,23701,1,0,0:0:0:0:
192,192,23701,1,0,0:0:0:0:
64,192,23939,128,0,24059:0:0:0:0:
320,192,24059,1,0,0:0:0:0:
192,192,24178,1,0,0:0:0:0:
448,192,24178,1,0,0:0:0:0:
192,192,24297,1,0,0:0:0:0:
448,192,24416,1,0,0:0:0:0:
64,192,24416,1,0,0:0:0:0:
320,192,24416,1,0,0:0:0:0:
320,192,24654,1,0,0:0:0:0:
320,192,24773,1,0,0:0:0:0:
64,192,24892,1,0,0:0:0:0:
448,192,24892,1,0,0:0:0:0:
192,192,25130,1,0,0:0:0:0:
448,192,25368,1,0,0:0:0:0:
64,192,25487,1,0,0:0:0:0:
448,192,25606,1,0,0:0:0:0:
320,192,25606,1,0,0:0:0:0:
192,192,25725,1,0,0:0:0:0:
448,192,25844,1,0,0:0:0:0:
448,192,25963,1,0,0:0:0:0:
192,192,26082,1,0,0:0:0:0:
64,192,26082,1,0,0:0:0:0:
320,192,26201,1,0,0:0:0:0:
64,192,26320,1,0,0:0:0:0:
64,192,26439,1,0,0:0:0:0:
448,192,26559,1,0,0:0:0:0:
320,192,26559,1,0,0:0:0:0:
64,192,26678,1,0,0:0:0:0:
192,192,26797,1,0,0:0:0:0:
320,192,26797,1,0,0:0:0:0:
448,192,26916,1,0,0:0:0:0:
64,192,26916,1,0,0:0:0:0:
192,192,27154,1,0,0:0:0:0:
320,192,27213,1,0,0:0:0:0:
448,192,27273,1,0,0:0:0:0:
64,192,27273,1,0,0:0:0:0:
192,192,27392,1,0,0:0:0:0:
448,192,27511,1,0,0:0:0:0:
320,192,27511,1,0,0:0:0:0:
64,192,27630,1,0,0:0:0:0:
320,192,27749,1,0,0:0:0:0:
320,192,27868,1,0,0:0:0:0:
192,192,27987,1,0,0:0:0:0:
64,192,27987,1,0,0:0:0:0:
448,192,28106,1,0,0:0:0:0:
64,192,28225,1,0,0:0:0:0:
64,192,28344,1,0,0:0:0:0:
320,192,28463,1,0,0:0:0:0:
448,192,28463,1,0,0:0:0:0:
192,192,28622,1,0,0:0:0:0:
448,192,28701,1,0,0:0:0:0:
64,192,28701,1,0,0:0:0:0:
320,192,28860,1,0,0:0:0:0:
448,192,28939,1,0,0:0:0:0:
64,192,28939,1,0,0:0:0:0:
192,192,29178,128,0,29416:0:0:0:0:
448,192,29416,1,0,0:0:0:0:
320,192,29416,1,0,0:0:0:0:
448,192,29654,1,0,0:0:0:0:
192,192,29892,1,0,0:0:0:0:
64,192,29892,1,0,0:0:0:0:
64,192,30130,1,0,0:0:0:0:
448,192,30368,1,0,0:0:0:0:
320,192,30368,1,0,0:0:0:0:
320,192,30487,1,0,0:0:0:0:
64,192,30606,1,0,0:0:0:0:
192,192,30725,1,0,0:0:0:0:
448,192,30844,1,0,0:0:0:0:
320,192,30844,1,0,0:0:0:0:
64,192,30844,1,0,0:0:0:0:
320,192,31082,1,0,0:0:0:0:
448,192,31201,1,0,0:0:0:0:
192,192,31320,1,0,0:0:0:0:
64,192,31320,1,0,0:0:0:0:
64,192,31439,1,0,0:0:0:0:
448,192,31559,1,0,0:0:0:0:
320,192,31797,1,0,0:0:0:0:
192,192,31797,1,0,0:0:0:0:
320,192,31916,1,0,0:0:0:0:
64,192,32035,1,0,0:0:0:0:
448,192,32273,1,0,0:0:0:0:
320,192,32273,1,0,0:0:0:0:
448,192,32392,1,0,0:0:0:0:
192,192,32511,1,0,0:0:0:0:
320,192,32630,1,0,0:0:0:0:
448,192,32749,1,0,0:0:0:0:
64,192,32749,1,0,0:0:0:0:
192,192,32987,1,0,0:0:0:0:
448,192,33106,1,0,0:0:0:0:
320,192,33225,1,0,0:0:0:0:
64,192,33225,128,0,33463:0:0:0:0:
192,192,33463,1,0,0:0:0:0:
320,192,33582,1,0,0:0:0:0:
64,192,33701,1,0,0:0:0:0:
448,192,33701,128,0,33939:0:0:0:0:
192,192,33701,1,0,0:0:0:0:
320,192,33939,1,0,0:0:0:0:
192,192,34059,1,0,0:0:0:0:
448,192,34178,1,0,0:0:0:0:
64,192,34178,1,0,0:0:0:0:
192,192,34416,1,0,0:0:0:0:
448,192,34535,1,0,0:0:0:0:
320,192,34535,1,0,0:0:0:0:
448,192,34654,1,0,0:0:0:0:
192,192,34654,1,0,0:0:0:0:
64,192,34654,1,0,0:0:0:0:
320,192,34892,1,0,0:0:0:0:
64,192,35011,1,0,0:0:0:0:
192,192,35130,1,0,0:0:0:0:
448,192,35130,128,0,35368:0:0:0:0:
320,192,35368,1,0,0:0:0:0:
192,192,35487,1,0,0:0:0:0:
448,192,35606,1,0,0:0:0:0:
64,192,35606,128,0,35844:0:0:0:0:
320,192,35606,1,0,0:0:0:0:
192,192,35844,1,0,0:0:0:0:
320,192,35963,1,0,0:0:0:0:
64,192,36082,1,0,0:0:0:0:
448,192,36082,1,0,0:0:0:0:
320,192,36320,1,0,0:0:0:0:
64,192,36439,1,0,0:0:0:0:
192,192,36439,1,0,0:0:0:0:
64,192,36559,1,0,0:0:0:0:
320,192,36559,1,0,0:0:0:0:
448,192,36559,1,0,0:0:0:0:
192,192,36797,1,0,0:0:0:0:
320,192,37035,1,0,0:0:0:0:
448,192,37035,1,0,0:0:0:0:
64,192,37154,1,0,0:0:0:0:
192,192,37273,1,0,0:0:0:0:
448,192,37273,1,0,0:0:0:0:
64,192,37392,1,0,0:0:0:0:
320,192,37511,1,0,0:0:0:0:
192,192,37511,1,0,0:0:0:0:
448,192,37630,1,0,0:0:0:0:
320,192,37749,1,0,0:0:0:0:
64,192,37749,1,0,0:0:0:0:
448,192,37868,1,0,0:0:0:0:
192,192,37987,1,0,0:0:0:0:
64,192,37987,1,0,0:0:0:0:
192,192,38225,1,0,0:0:0:0:
448,192,38225,1,0,0:0:0:0:
192,192,38344,1,0,0:0:0:0:
448,192,38463,1,0,0:0:0:0:
320,192,38463,1,0,0:0:0:0:
64,192,38463,1,0,0:0:0:0:
320,192,38701,1,0,0:0:0:0:
192,192,38820,1,0,0:0:0:0:
448,192,38939,1,0,0:0:0:0:
64,192,38939,1,0,0:0:0:0:
320,192,38999,1,0,0:0:0:0:
192,192,39059,1,0,0:0:0:0:
64,192,39118,1,0,0:0:0:0:
448,192,39178,1,0,0:0:0:0:
320,192,39178,1,0,0:0:0:0:
192,192,39297,1,0,0:0:0:0:
320,192,39416,1,0,0:0:0:0:
64,192,39416,1,0,0:0:0:0:
448,192,39535,1,0,0:0:0:0:
192,192,39654,1,0,0:0:0:0:
64,192,39654,1,0,0:0:0:0:
320,192,39773,1,0,0:0:0:0:
192,192,39892,1,0,0:0:0:0:
448,192,39892,1,0,0:0:0:0:
448,192,40130,1,0,0:0:0:0:
64,192,40130,1,0,0:0:0:0:
320,192,40249,1,0,0:0:0:0:
192,192,40368,1,0,0:0:0:0:
64,192,40368,1,0,0:0:0:0:
448,192,40368,1,0,0:0:0:0:
320,192,40606,1,0,0:0:0:0:
192,192,40606,1,0,0:0:0:0:
64,192,40844,1,0,0:0:0:0:
448,192,40844,1,0,0:0:0:0:
320,192,40844,1,0,0:0:0:0:
192,192,41082,128,0,41320:0:0:0:0:
448,192,41082,1,0,0:0:0:0:
448,192,41320,1,0,0:0:0:0:
320,192,41320,1,0,0:0:0:0:
64,192,41320,1,0,0:0:0:0:
64,192,41559,128,0,41797:0:0:0:0:
448,192,41559,1,0,0:0:0:0:
320,192,41797,128,0,41916:0:0:0:0:
192,192,41797,1,0,0:0:0:0:
448,192,41916,128,0,42035:0:0:0:0:
192,192,42035,128,0,42154:0:0:0:0:
64,192,42035,1,0,0:0:0:0:
320,192,42154,128,0,42273:0:0:0:0:
192,192,42273,128,0,42511:0:0:0:0:
448,192,42273,1,0,0:0:0:0:
64,192,42273,1,0,0:0:0:0:
320,192,42392,1,0,0:0:0:0:
64,192,42511,128,0,42749:0:0:0:0:
448,192,42511,1,0,0:0:0:0:
448,192,42749,1,0,0:0:0:0:
192,192,42749,1,0,0:0:0:0:
320,192,42987,128,0,43225:0:0:0:0:
64,192,42987,1,0,0:0:0:0:
192,192,43225,1,0,0:0:0:0:
64,192,43225,1,0,0:0:0:0:
448,192,43225,1,0,0:0:0:0:
448,192,43463,128,0,43701:0:0:0:0:
320,192,43463,1,0,0:0:0:0:
192,192,43701,128,0,43820:0:0:0:0:
64,192,43701,1,0,0:0:0:0:
320,192,43820,128,0,43939:0:0:0:0:
64,192,43939,128,0,44059:0:0:0:0:
448,192,43939,1,0,0:0:0:0:
192,192,44059,128,0,44178:0:0:0:0:
448,192,44178,128,0,44416:0:0:0:0:
320,192,44178,1,0,0:0:0:0:
64,192,44178,1,0,0:0:0:0:
64,192,44416,128,0,44654:0:0:0:0:
192,192,44416,1,0,0:0:0:0:
320,192,44654,128,0,44892:0:0:0:0:
448,192,44654,1,0,0:0:0:0:
192,192,44892,1,0,0:0:0:0:
64,192,44892,128,0,45130:0:0:0:0:
192,192,45130,1,0,0:0:0:0:
320,192,45130,1,0,0:0:0:0:
448,192,45130,1,0,0:0:0:0:
448,192,45368,128,0,45487:0:0:0:0:
320,192,45368,1,0,0:0:0:0:
192,192,45487,128,0,45606:0:0:0:0:
320,192,45606,128,0,45844:0:0:0:0:
64,192,45606,1,0,0:0:0:0:
64,192,45844,128,0,45963:0:0:0:0:
192,192,45844,1,0,0:0:0:0:
448,192,45963,128,0,46082:0:0:0:0:
192,192,46082,128,0,46320:0:0:0:0:
320,192,46082,1,0,0:0:0:0:
64,192,46082,1,0,0:0:0:0:
448,192,46201,1,0,0:0:0:0:
64,192,46320,128,0,46559:0:0:0:0:
320,192,46320,1,0,0:0:0:0:
448,192,46559,1,0,0:0:0:0:
192,192,46559,1,0,0:0:0:0:
448,192,46797,128,0,47035:0:0:0:0:
64,192,46797,1,0,0:0:0:0:
320,192,47035,1,0,0:0:0:0:
192,192,47035,1,0,0:0:0:0:
64,192,47035,1,0,0:0:0:0:
320,192,47273,128,0,47511:0:0:0:0:
192,192,47273,1,0,0:0:0:0:
64,192,47511,128,0,47630:0:0:0:0:
448,192,47511,1,0,0:0:0:0:
320,192,47630,128,0,47749:0:0:0:0:
192,192,47749,128,0,47868:0:0:0:0:
64,192,47749,1,0,0:0:0:0:
448,192,47868,128,0,47987:0:0:0:0:
64,192,47987,128,0,48225:0:0:0:0:
320,192,47987,1,0,0:0:0:0:
192,192,47987,1,0,0:0:0:0:
320,192,48225,128,0,48463:0:0:0:0:
448,192,48225,1,0,0:0:0:0:
192,192,48463,128,0,48701:0:0:0:0:
64,192,48463,1,0,0:0:0:0:
448,192,48701,1,0,0:0:0:0:
448,192,48939,128,0,49416:0:0:0:0:
64,192,48939,1,0,0:0:0:0:
320,192,48939,1,0,0:0:0:0:
192,192,49178,1,0,0:0:0:0:
192,192,49416,128,0,49654:0:0:0:0:
64,192,49416,1,0,0:0:0:0:
448,192,49654,1,0,0:0:0:0:
320,192,49773,1,0,0:0:0:0:
192,192,49892,1,0,0:0:0:0:
448,192,49892,1,0,0:0:0:0:
64,192,49892,128,0,50130:0:0:0:0:
320,192,50011,1,0,0:0:0:0:
448,192,50130,128,0,50368:0:0:0:0:
192,192,50130,1,0,0:0:0:0:
64,192,50368,1,0,0:0:0:0:
320,192,50368,1,0,0:0:0:0:
192,192,50606,128,0,50844:0:0:0:0:
320,192,50606,1,0,0:0:0:0:
320,192,50844,128,0,51082:0:0:0:0:
64,192,50844,1,0,0:0:0:0:
448,192,50844,1,0,0:0:0:0:
64,192,51082,1,0,0:0:0:0:
448,192,51320,128,0,51439:0:0:0:0:
192,192,51320,1,0,0:0:0:0:
64,192,51439,128,0,51559:0:0:0:0:
320,192,51559,128,0,51678:0:0:0:0:
448,192,51559,1,0,0:0:0:0:
192,192,51678,128,0,51797:0:0:0:0:
448,192,51797,128,0,52035:0:0:0:0:
320,192,51797,1,0,0:0:0:0:
64,192,51797,1,0,0:0:0:0:
64,192,52035,128,0,52273:0:0:0:0:
192,192,52035,1,0,0:0:0:0:
448,192,52273,1,0,0:0:0:0:
320,192,52273,1,0,0:0:0:0:
192,192,52511,128,0,52749:0:0:0:0:
448,192,52511,1,0,0:0:0:0:
448,192,52749,1,0,0:0:0:0:
64,192,52749,1,0,0:0:0:0:
320,192,52749,1,0,0:0:0:0:
320,192,52987,128,0,53225:0:0:0:0:
64,192,52987,1,0,0:0:0:0:
192,192,53225,128,0,53344:0:0:0:0:
448,192,53225,1,0,0:0:0:0:
64,192,53344,128,0,53463:0:0:0:0:
320,192,53463,128,0,53582:0:0:0:0:
448,192,53463,1,0,0:0:0:0:
192,192,53582,128,0,53701:0:0:0:0:
448,192,53701,128,0,53939:0:0:0:0:
320,192,53701,1,0,0:0:0:0:
64,192,53701,1,0,0:0:0:0:
192,192,53820,1,0,0:0:0:0:
320,192,53939,128,0,54178:0:0:0:0:
64,192,53939,1,0,0:0:0:0:
448,192,54059,1,0,0:0:0:0:
64,192,54178,128,0,54297:0:0:0:0:
192,192,54178,1,0,0:0:0:0:
320,192,54297,1,0,0:0:0:0:
448,192,54416,1,0,0:0:0:0:
192,192,54416,128,0,54654:0:0:0:0:
320,192,54535,1,0,0:0:0:0:
64,192,54654,1,0,0:0:0:0:
448,192,54654,1,0,0:0:0:0:
192,192,54773,1,0,0:0:0:0:
448,192,54892,128,0,55130:0:0:0:0:
64,192,54892,1,0,0:0:0:0:
320,192,55011,1,0,0:0:0:0:
64,192,55130,1,0,0:0:0:0:
192,192,55130,1,0,0:0:0:0:
320,192,55189,1,0,0:0:0:0:
448,192,55249,1,0,0:0:0:0:
192,192,55309,1,0,0:0:0:0:
64,192,55368,1,0,0:0:0:0:
320,192,55487,1,0,0:0:0:0:
64,192,55606,128,0,55844:0:0:0:0:
448,192,55606,1,0,0:0:0:0:
192,192,55606,1,0,0:0:0:0:
192,192,55844,128,0,56082:0:0:0:0:
320,192,55844,1,0,0:0:0:0:
448,192,56082,128,0,56320:0:0:0:0:
64,192,56082,1,0,0:0:0:0:
448,192,56559,128,0,56797:0:0:0:0:
192,192,56559,1,0,0:0:0:0:
320,192,57035,128,0,57273:0:0:0:0:
64,192,57035,1,0,0:0:0:0:
320,192,57392,1,0,0:0:0:0:
192,192,57511,128,0,57749:0:0:0:0:
448,192,57511,1,0,0:0:0:0:
320,192,57749,1,0,0:0:0:0:
64,192,57987,128,0,58225:0:0:0:0:
448,192,57987,1,0,0:0:0:0:
320,192,58225,128,0,58463:0:0:0:0:
448,192,58463,128,0,58701:0:0:0:0:
192,192,58463,1,0,0:0:0:0:
320,192,58939,128,0,59178:0:0:0:0:
64,192,58939,1,0,0:0:0:0:
64,192,59297,1,0,0:0:0:0:
192,192,59416,128,0,59654:0:0:0:0:
448,192,59416,1,0,0:0:0:0:
448,192,59654,128,0,59892:0:0:0:0:
64,192,59892,128,0,60130:0:0:0:0:
320,192,59892,1,0,0:0:0:0:
320,192,60130,128,0,60606:0:0:0:0:
192,192,60368,128,0,60606:0:0:0:0:
448,192,60368,1,0,0:0:0:0:
320,192,60844,128,0,61082:0:0:0:0:
64,192,60844,1,0,0:0:0:0:
320,192,61201,1,0,0:0:0:0:
64,192,61320,128,0,61559:0:0:0:0:
448,192,61320,1,0,0:0:0:0:
320,192,61559,128,0,61797:0:0:0:0:
192,192,61797,128,0,62035:0:0:0:0:
448,192,61797,1,0,0:0:0:0:
320,192,62035,128,0,62273:0:0:0:0:
64,192,62035,1,0,0:0:0:0:
64,192,62273,128,0,62511:0:0:0:0:
448,192,62273,1,0,0:0:0:0:
448,192,62511,128,0,62749:0:0:0:0:
192,192,62511,1,0,0:0:0:0:
192,192,62749,128,0,62987:0:0:0:0:
320,192,62749,1,0,0:0:0:0:
64,192,62987,1,0,0:0:0:0:
448,192,62987,1,0,0:0:0:0:
64,192,63225,1,0,0:0:0:0:
448,192,63225,1,0,0:0:0:0:
192,192,63225,1,0,0:0:0:0:
192,192,63463,1,0,0:0:0:0:
320,192,63463,1,0,0:0:0:0:
448,192,63582,1,0,0:0:0:0:
64,192,63701,128,0,63939:0:0:0:0:
192,192,63701,128,0,63820:0:0:0:0:
320,192,63701,1,0,0:0:0:0:
448,192,63939,1,0,0:0:0:0:
320,192,64059,1,0,0:0:0:0:
192,192,64178,128,0,64654:0:0:0:0:
448,192,64178,1,0,0:0:0:0:
64,192,64178,128,0,64297:0:0:0:0:
448,192,64416,128,0,64535:0:0:0:0:
320,192,64654,128,0,64892:0:0:0:0:
64,192,64654,128,0,64773:0:0:0:0:
192,192,64892,128,0,65011:0:0:0:0:
448,192,65011,128,0,65130:0:0:0:0:
320,192,65130,1,0,0:0:0:0:
192,192,65130,1,0,0:0:0:0:
64,192,65130,1,0,0:0:0:0:
448,192,65368,1,0,0:0:0:0:
320,192,65368,1,0,0:0:0:0:
320,192,65487,1,0,0:0:0:0:
64,192,65606,1,0,0:0:0:0:
448,192,65606,1,0,0:0:0:0:
192,192,65844,1,0,0:0:0:0:
64,192,65844,1,0,0:0:0:0:
192,192,65963,1,0,0:0:0:0:
320,192,66082,1,0,0:0:0:0:
448,192,66082,1,0,0:0:0:0:
64,192,66082,1,0,0:0:0:0:
192,192,66320,128,0,66439:0:0:0:0:
192,192,66559,128,0,66678:0:0:0:0:
448,192,66559,1,0,0:0:0:0:
320,192,66678,1,0,0:0:0:0:
64,192,66797,128,0,67035:0:0:0:0:
448,192,66797,1,0,0:0:0:0:
192,192,66916,1,0,0:0:0:0:
320,192,67035,128,0,67273:0:0:0:0:
448,192,67035,1,0,0:0:0:0:
64,192,67273,128,0,67511:0:0:0:0:
448,192,67511,128,0,67749:0:0:0:0:
320,192,67511,128,0,67630:0:0:0:0:
192,192,67511,1,0,0:0:0:0:
64,192,67749,1,0,0:0:0:0:
192,192,67868,1,0,0:0:0:0:
320,192,67987,128,0,68463:0:0:0:0:
64,192,67987,1,0,0:0:0:0:
448,192,67987,128,0,68106:0:0:0:0:
64,192,68225,128,0,68344:0:0:0:0:
192,192,68463,128,0,68701:0:0:0:0:
448,192,68463,128,0,68582:0:0:0:0:
320,192,68701,128,0,68820:0:0:0:0:
64,192,68820,128,0,68939:0:0:0:0:
192,192,68939,1,0,0:0:0:0:
320,192,68939,1,0,0:0:0:0:
448,192,68939,1,0,0:0:0:0:
64,192,69178,1,0,0:0:0:0:
192,192,69178,1,0,0:0:0:0:
192,192,69297,1,0,0:0:0:0:
448,192,69416,1,0,0:0:0:0:
64,192,69416,128,0,69654:0:0:0:0:
320,192,69654,1,0,0:0:0:0:
448,192,69654,1,0,0:0:0:0:
320,192,69773,1,0,0:0:0:0:
448,192,69892,1,0,0:0:0:0:
64,192,69892,1,0,0:0:0:0:
192,192,69892,128,0,70130:0:0:0:0:
320,192,70130,128,0,70368:0:0:0:0:
448,192,70368,128,0,70606:0:0:0:0:
64,192,70368,1,0,0:0:0:0:
192,192,70606,128,0,70725:0:0:0:0:
320,192,70606,1,0,0:0:0:0:
448,192,70725,128,0,70844:0:0:0:0:
192,192,70844,128,0,71082:0:0:0:0:
64,192,70844,1,0,0:0:0:0:
320,192,70844,1,0,0:0:0:0:
448,192,71082,128,0,71320:0:0:0:0:
64,192,71082,1,0,0:0:0:0:
64,192,71320,128,0,71559:0:0:0:0:
192,192,71320,128,0,71439:0:0:0:0:
320,192,71320,1,0,0:0:0:0:
448,192,71559,1,0,0:0:0:0:
320,192,71678,1,0,0:0:0:0:
192,192,71797,128,0,72273:0:0:0:0:
448,192,71797,1,0,0:0:0:0:
64,192,71797,128,0,71916:0:0:0:0:
320,192,72035,128,0,72154:0:0:0:0:
448,192,72273,128,0,72749:0:0:0:0:
64,192,72273,128,0,72392:0:0:0:0:
192,192,72511,1,0,0:0:0:0:
64,192,72630,1,0,0:0:0:0:
320,192,72749,128,0,72987:0:0:0:0:
192,192,72749,1,0,0:0:0:0:
448,192,72987,128,0,73225:0:0:0:0:
192,192,73225,1,0,0:0:0:0:
64,192,73225,1,0,0:0:0:0:
448,192,73463,128,0,73582:0:0:0:0:
192,192,73582,1,0,0:0:0:0:
320,192,73701,128,0,73939:0:0:0:0:
448,192,73701,1,0,0:0:0:0:
64,192,73701,128,0,73820:0:0:0:0:
192,192,73939,128,0,74059:0:0:0:0:
64,192,74178,1,0,0:0:0:0:
448,192,74178,128,0,74297:0:0:0:0:
64,192,74416,128,0,74654:0:0:0:0:
320,192,74416,1,0,0:0:0:0:
448,192,74535,1,0,0:0:0:0:
320,192,74654,128,0,74892:0:0:0:0:
192,192,74654,1,0,0:0:0:0:
64,192,74892,128,0,75130:0:0:0:0:
448,192,74892,1,0,0:0:0:0:
448,192,75130,128,0,75368:0:0:0:0:
320,192,75130,128,0,75249:0:0:0:0:
192,192,75130,1,0,0:0:0:0:
64,192,75368,1,0,0:0:0:0:
192,192,75487,1,0,0:0:0:0:
320,192,75606,128,0,76082:0:0:0:0:
64,192,75606,1,0,0:0:0:0:
448,192,75606,128,0,75725:0:0:0:0:
192,192,75844,128,0,75963:0:0:0:0:
64,192,76082,128,0,76559:0:0:0:0:
448,192,76082,128,0,76201:0:0:0:0:
192,192,76320,1,0,0:0:0:0:
320,192,76439,1,0,0:0:0:0:
192,192,76559,128,0,76797:0:0:0:0:
448,192,76559,1,0,0:0:0:0:
64,192,76797,128,0,77035:0:0:0:0:
320,192,76797,1,0,0:0:0:0:
320,192,76916,1,0,0:0:0:0:
448,192,77035,1,0,0:0:0:0:
192,192,77035,1,0,0:0:0:0:
64,192,77273,128,0,77392:0:0:0:0:
320,192,77392,1,0,0:0:0:0:
192,192,77511,1,0,0:0:0:0:
448,192,77511,1,0,0:0:0:0:
192,192,77630,1,0,0:0:0:0:
320,192,77749,1,0,0:0:0:0:
64,192,77749,128,0,77987:0:0:0:0:
448,192,77987,1,0,0:0:0:0:
320,192,77987,128,0,78225:0:0:0:0:
64,192,78225,128,0,78344:0:0:0:0:
320,192,78344,128,0,78463:0:0:0:0:
64,192,78463,128,0,78701:0:0:0:0:
192,192,78463,1,0,0:0:0:0:
320,192,78701,128,0,78939:0:0:0:0:
448,192,78701,1,0,0:0:0:0:
64,192,78939,128,0,79178:0:0:0:0:
192,192,78939,128,0,79059:0:0:0:0:
448,192,78939,1,0,0:0:0:0:
448,192,79178,1,0,0:0:0:0:
320,192,79297,1,0,0:0:0:0:
192,192,79416,128,0,79892:0:0:0:0:
448,192,79416,1,0,0:0:0:0:
64,192,79416,128,0,79535:0:0:0:0:
320,192,79654,1,0,0:0:0:0:
64,192,79773,1,0,0:0:0:0:
448,192,79892,1,0,0:0:0:0:
320,192,79892,1,0,0:0:0:0:
448,192,80011,1,0,0:0:0:0:
192,192,80130,1,0,0:0:0:0:
320,192,80249,1,0,0:0:0:0:
448,192,80368,1,0,0:0:0:0:
192,192,80368,1,0,0:0:0:0:
64,192,80368,1,0,0:0:0:0:
64,192,80487,1,0,0:0:0:0:
448,192,80606,1,0,0:0:0:0:
320,192,80606,1,0,0:0:0:0:
448,192,80844,1,0,0:0:0:0:
192,192,80844,1,0,0:0:0:0:
64,192,81082,1,0,0:0:0:0:
192,192,81201,1,0,0:0:0:0:
448,192,81320,1,0,0:0:0:0:
64,192,81320,1,0,0:0:0:0:
320,192,81320,128,0,81797:0:0:0:0:
448,192,81559,1,0,0:0:0:0:
192,192,81797,128,0,82035:0:0:0:0:
64,192,81797,1,0,0:0:0:0:
320,192,82035,1,0,0:0:0:0:
448,192,82035,128,0,82273:0:0:0:0:
192,192,82154,1,0,0:0:0:0:
320,192,82273,128,0,82511:0:0:0:0:
64,192,82273,1,0,0:0:0:0:
64,192,82511,128,0,82749:0:0:0:0:
192,192,82511,1,0,0:0:0:0:
448,192,82749,128,0,82987:0:0:0:0:
320,192,82749,128,0,82868:0:0:0:0:
192,192,82749,1,0,0:0:0:0:
64,192,82987,1,0,0:0:0:0:
192,192,83106,1,0,0:0:0:0:
320,192,83225,128,0,83463:0:0:0:0:
64,192,83225,1,0,0:0:0:0:
448,192,83225,128,0,83344:0:0:0:0:
64,192,83463,128,0,83701:0:0:0:0:
448,192,83582,128,0,83701:0:0:0:0:
192,192,83701,128,0,83939:0:0:0:0:
320,192,83701,1,0,0:0:0:0:
448,192,83939,128,0,84178:0:0:0:0:
64,192,84059,1,0,0:0:0:0:
320,192,84178,1,0,0:0:0:0:
192,192,84178,128,0,84416:0:0:0:0:
64,192,84416,1,0,0:0:0:0:
320,192,84416,128,0,84892:0:0:0:0:
192,192,84654,1,0,0:0:0:0:
64,192,84654,1,0,0:0:0:0:
448,192,84892,1,0,0:0:0:0:
64,192,85130,1,0,0:0:0:0:
448,192,85130,1,0,0:0:0:0:
192,192,85130,128,0,85606:0:0:0:0:
64,192,85368,1,0,0:0:0:0:
320,192,85606,128,0,85844:0:0:0:0:
448,192,85606,1,0,0:0:0:0:
64,192,85844,128,0,86082:0:0:0:0:
448,192,85844,1,0,0:0:0:0:
320,192,85963,1,0,0:0:0:0:
448,192,86082,128,0,86320:0:0:0:0:
192,192,86082,1,0,0:0:0:0:
320,192,86320,128,0,86559:0:0:0:0:
64,192,86320,1,0,0:0:0:0:
64,192,86559,128,0,86797:0:0:0:0:
192,192,86559,128,0,86678:0:0:0:0:
448,192,86559,1,0,0:0:0:0:
448,192,86797,1,0,0:0:0:0:
320,192,86916,1,0,0:0:0:0:
192,192,87035,128,0,87511:0:0:0:0:
448,192,87035,1,0,0:0:0:0:
64,192,87035,128,0,87154:0:0:0:0:
320,192,87273,1,0,0:0:0:0:
64,192,87392,1,0,0:0:0:0:
448,192,87511,1,0,0:0:0:0:
320,192,87511,1,0,0:0:0:0:
448,192,87630,1,0,0:0:0:0:
192,192,87749,1,0,0:0:0:0:
320,192,87868,1,0,0:0:0:0:
448,192,87987,1,0,0:0:0:0:
192,192,87987,1,0,0:0:0:0:
64,192,87987,1,0,0:0:0:0:
64,192,88106,1,0,0:0:0:0:
320,192,88225,1,0,0:0:0:0:
448,192,88225,1,0,0:0:0:0:
448,192,88463,1,0,0:0:0:0:
192,192,88463,1,0,0:0:0:0:
64,192,88701,1,0,0:0:0:0:
192,192,88820,1,0,0:0:0:0:
448,192,88939,1,0,0:0:0:0:
64,192,88939,1,0,0:0:0:0:
320,192,88939,128,0,89416:0:0:0:0:
448,192,89178,1,0,0:0:0:0:
192,192,89416,128,0,89654:0:0:0:0:
64,192,89416,1,0,0:0:0:0:
448,192,89654,1,0,0:0:0:0:
192,192,89773,1,0,0:0:0:0:
448,192,89892,1,0,0:0:0:0:
320,192,89892,128,0,90368:0:0:0:0:
64,192,89892,128,0,90368:0:0:0:0:
192,192,90130,1,0,0:0:0:0:
448,192,90368,128,0,90606:0:0:0:0:
192,192,90368,128,0,90606:0:0:0:0:
64,192,90606,1,0,0:0:0:0:
192,192,90725,1,0,0:0:0:0:
448,192,90844,1,0,0:0:0:0:
64,192,90844,1,0,0:0:0:0:
320,192,90844,128,0,91320:0:0:0:0:
192,192,91082,1,0,0:0:0:0:
64,192,91201,1,0,0:0:0:0:
192,192,91320,128,0,91559:0:0:0:0:
448,192,91320,1,0,0:0:0:0:
320,192,91559,1,0,0:0:0:0:
64,192,91559,1,0,0:0:0:0:
192,192,91678,1,0,0:0:0:0:
320,192,91797,1,0,0:0:0:0:
64,192,91797,1,0,0:0:0:0:
448,192,91797,1,0,0:0:0:0:
448,192,92035,1,0,0:0:0:0:
192,192,92035,1,0,0:0:0:0:
64,192,92273,1,0,0:0:0:0:
320,192,92273,128,0,92511:0:0:0:0:
192,192,92511,1,0,0:0:0:0:
448,192,92511,1,0,0:0:0:0:
64,192,92511,128,0,92749:0:0:0:0:
448,192,92749,1,0,0:0:0:0:
192,192,92749,128,0,92987:0:0:0:0:
320,192,92987,1,0,0:0:0:0:
64,192,92987,1,0,0:0:0:0:
448,192,92987,128,0,93225:0:0:0:0:
192,192,93225,1,0,0:0:0:0:
64,192,93344,1,0,0:0:0:0:
320,192,93463,1,0,0:0:0:0:
448,192,93463,1,0,0:0:0:0:
192,192,93463,1,0,0:0:0:0:
192,192,93701,1,0,0:0:0:0:
64,192,93701,1,0,0:0:0:0:
448,192,93701,1,0,0:0:0:0:
320,192,93939,1,0,0:0:0:0:
192,192,94059,1,0,0:0:0:0:
448,192,94059,1,0,0:0:0:0:
64,192,94178,1,0,0:0:0:0:
320,192,94178,1,0,0:0:0:0:
448,192,94178,1,0,0:0:0:0:
192,192,94416,1,0,0:0:0:0:
320,192,94535,1,0,0:0:0:0:
448,192,94654,1,0,0:0:0:0:
64,192,94654,1,0,0:0:0:0:
192,192,94892,1,0,0:0:0:0:
448,192,95130,1,0,0:0:0:0:
320,192,95130,1,0,0:0:0:0:
64,192,95130,1,0,0:0:0:0:
192,192,95368,1,0,0:0:0:0:
64,192,95487,1,0,0:0:0:0:
448,192,95606,1,0,0:0:0:0:
320,192,95606,1,0,0:0:0:0:
320,192,95844,1,0,0:0:0:0:
192,192,96082,1,0,0:0:0:0:
64,192,96082,1,0,0:0:0:0:
448,192,96320,1,0,0:0:0:0:
320,192,96439,1,0,0:0:0:0:
64,192,96559,1,0,0:0:0:0:
448,192,96559,1,0,0:0:0:0:
192,192,96797,1,0,0:0:0:0:
320,192,96797,1,0,0:0:0:0:
448,192,97035,1,0,0:0:0:0:
320,192,97035,1,0,0:0:0:0:
64,192,97035,1,0,0:0:0:0:
192,192,97273,1,0,0:0:0:0:
320,192,97392,1,0,0:0:0:0:
64,192,97511,1,0,0:0:0:0:
192,192,97511,1,0,0:0:0:0:
320,192,97749,1,0,0:0:0:0:
64,192,97868,1,0,0:0:0:0:
320,192,97987,1,0,0:0:0:0:
448,192,97987,1,0,0:0:0:0:
192,192,98225,1,0,0:0:0:0:
320,192,98344,1,0,0:0:0:0:
64,192,98463,1,0,0:0:0:0:
448,192,98463,1,0,0:0:0:0:
192,192,98701,1,0,0:0:0:0:
448,192,98820,1,0,0:0:0:0:
320,192,98939,1,0,0:0:0:0:
64,192,98939,1,0,0:0:0:0:
192,192,98939,1,0,0:0:0:0:
320,192,99178,1,0,0:0:0:0:
448,192,99297,1,0,0:0:0:0:
64,192,99416,1,0,0:0:0:0:
320,192,99416,1,0,0:0:0:0:
192,192,99654,1,0,0:0:0:0:
64,192,99654,1,0,0:0:0:0:
192,192,99773,1,0,0:0:0:0:
448,192,99892,1,0,0:0:0:0:
64,192,99892,1,0,0:0:0:0:
192,192,100130,1,0,0:0:0:0:
320,192,100249,1,0,0:0:0:0:
448,192,100368,1,0,0:0:0:0:
64,192,100368,1,0,0:0:0:0:
320,192,100606,1,0,0:0:0:0:
192,192,100725,1,0,0:0:0:0:
64,192,100844,1,0,0:0:0:0:
320,192,100844,1,0,0:0:0:0:
448,192,100844,1,0,0:0:0:0:
192,192,101082,1,0,0:0:0:0:
448,192,101201,1,0,0:0:0:0:
64,192,101320,1,0,0:0:0:0:
192,192,101320,1,0,0:0:0:0:
320,192,101559,1,0,0:0:0:0:
448,192,101559,1,0,0:0:0:0:
64,192,101559,1,0,0:0:0:0:
192,192,101797,1,0,0:0:0:0:
448,192,101797,1,0,0:0:0:0:
64,192,101916,1,0,0:0:0:0:
320,192,102035,1,0,0:0:0:0:
192,192,102154,1,0,0:0:0:0:
448,192,102273,1,0,0:0:0:0:
64,192,102392,1,0,0:0:0:0:
320,192,102511,1,0,0:0:0:0:
192,192,102630,1,0,0:0:0:0:
448,192,102749,1,0,0:0:0:0:
320,192,102749,1,0,0:0:0:0:
64,192,102749,1,0,0:0:0:0:
192,192,102868,1,0,0:0:0:0:
448,192,102987,1,0,0:0:0:0:
64,192,103106,1,0,0:0:0:0:
320,192,103225,1,0,0:0:0:0:
192,192,103225,1,0,0:0:0:0:
448,192,103344,1,0,0:0:0:0:
192,192,103582,1,0,0:0:0:0:
320,192,103701,1,0,0:0:0:0:
64,192,103701,1,0,0:0:0:0:
448,192,103820,1,0,0:0:0:0:
192,192,103939,1,0,0:0:0:0:
320,192,104059,1,0,0:0:0:0:
64,192,104178,1,0,0:0:0:0:
448,192,104297,1,0,0:0:0:0:
192,192,104416,1,0,0:0:0:0:
64,192,104416,1,0,0:0:0:0:
320,192,104535,1,0,0:0:0:0:
64,192,104654,1,0,0:0:0:0:
192,192,104654,1,0,0:0:0:0:
448,192,104654,1,0,0:0:0:0:
320,192,104773,1,0,0:0:0:0:
192,192,104892,1,0,0:0:0:0:
448,192,105011,1,0,0:0:0:0:
64,192,105130,1,0,0:0:0:0:
320,192,105130,1,0,0:0:0:0:
192,192,105249,1,0,0:0:0:0:
448,192,105606,1,0,0:0:0:0:
320,192,105606,1,0,0:0:0:0:
64,192,105725,1,0,0:0:0:0:
192,192,105844,1,0,0:0:0:0:
448,192,105963,1,0,0:0:0:0:
320,192,106082,1,0,0:0:0:0:
64,192,106201,1,0,0:0:0:0:
448,192,106320,1,0,0:0:0:0:
192,192,106439,1,0,0:0:0:0:
320,192,106559,1,0,0:0:0:0:
448,192,106559,1,0,0:0:0:0:
64,192,106559,1,0,0:0:0:0:
192,192,106797,1,0,0:0:0:0:
320,192,106916,1,0,0:0:0:0:
64,192,107035,1,0,0:0:0:0:
192,192,107035,1,0,0:0:0:0:
448,192,107273,1,0,0:0:0:0:
320,192,107273,1,0,0:0:0:0:
320,192,107392,1,0,0:0:0:0:
64,192,107511,1,0,0:0:0:0:
448,192,107630,1,0,0:0:0:0:
64,192,107749,1,0,0:0:0:0:
448,192,107868,1,0,0:0:0:0:
192,192,107987,1,0,0:0:0:0:
64,192,107987,1,0,0:0:0:0:
320,192,108106,1,0,0:0:0:0:
192,192,108225,1,0,0:0:0:0:
320,192,108344,1,0,0:0:0:0:
64,192,108463,1,0,0:0:0:0:
448,192,108463,1,0,0:0:0:0:
192,192,108582,1,0,0:0:0:0:
448,192,108701,1,0,0:0:0:0:
320,192,108701,1,0,0:0:0:0:
64,192,108820,1,0,0:0:0:0:
192,192,108939,1,0,0:0:0:0:
320,192,108939,1,0,0:0:0:0:
448,192,108939,1,0,0:0:0:0:
64,192,109059,1,0,0:0:0:0:
448,192,109178,1,0,0:0:0:0:
320,192,109297,1,0,0:0:0:0:
64,192,109416,1,0,0:0:0:0:
192,192,109416,1,0,0:0:0:0:
320,192,109654,1,0,0:0:0:0:
448,192,109654,1,0,0:0:0:0:
64,192,109892,1,0,0:0:0:0:
320,192,109892,1,0,0:0:0:0:
192,192,109892,1,0,0:0:0:0:
64,192,110130,128,0,110368:0:0:0:0:
448,192,110130,1,0,0:0:0:0:
320,192,110368,128,0,110487:0:0:0:0:
192,192,110368,1,0,0:0:0:0:
448,192,110487,128,0,110606:0:0:0:0:
192,192,110606,128,0,110725:0:0:0:0:
64,192,110606,1,0,0:0:0:0:
320,192,110725,128,0,110844:0:0:0:0:
192,192,110844,128,0,111082:0:0:0:0:
448,192,110844,1,0,0:0:0:0:
64,192,110844,1,0,0:0:0:0:
64,192,111082,128,0,111320:0:0:0:0:
320,192,111082,1,0,0:0:0:0:
448,192,111320,1,0,0:0:0:0:
192,192,111320,1,0,0:0:0:0:
320,192,111559,128,0,111797:0:0:0:0:
64,192,111559,1,0,0:0:0:0:
192,192,111797,1,0,0:0:0:0:
64,192,111797,1,0,0:0:0:0:
448,192,111797,1,0,0:0:0:0:
448,192,112035,128,0,112273:0:0:0:0:
320,192,112035,1,0,0:0:0:0:
192,192,112273,128,0,112392:0:0:0:0:
64,192,112273,1,0,0:0:0:0:
320,192,112392,128,0,112511:0:0:0:0:
64,192,112511,128,0,112630:0:0:0:0:
448,192,112511,1,0,0:0:0:0:
192,192,112630,128,0,112749:0:0:0:0:
448,192,112749,128,0,112987:0:0:0:0:
320,192,112749,1,0,0:0:0:0:
64,192,112749,1,0,0:0:0:0:
64,192,112987,128,0,113225:0:0:0:0:
192,192,112987,1,0,0:0:0:0:
448,192,113225,1,0,0:0:0:0:
320,192,113225,1,0,0:0:0:0:
192,192,113463,1,0,0:0:0:0:
64,192,113463,1,0,0:0:0:0:
192,192,113701,1,0,0:0:0:0:
320,192,113701,1,0,0:0:0:0:
448,192,113701,1,0,0:0:0:0:
448,192,113939,128,0,114059:0:0:0:0:
320,192,113939,1,0,0:0:0:0:
64,192,114059,128,0,114178:0:0:0:0:
320,192,114178,128,0,114297:0:0:0:0:
448,192,114178,1,0,0:0:0:0:
192,192,114297,128,0,114416:0:0:0:0:
320,192,114416,128,0,114535:0:0:0:0:
64,192,114416,1,0,0:0:0:0:
448,192,114535,128,0,114654:0:0:0:0:
192,192,114654,128,0,114892:0:0:0:0:
64,192,114654,1,0,0:0:0:0:
320,192,114654,1,0,0:0:0:0:
64,192,114892,128,0,115130:0:0:0:0:
448,192,114892,1,0,0:0:0:0:
320,192,115130,1,0,0:0:0:0:
192,192,115130,1,0,0:0:0:0:
448,192,115368,128,0,115606:0:0:0:0:
64,192,115368,1,0,0:0:0:0:
320,192,115606,1,0,0:0:0:0:
192,192,115606,1,0,0:0:0:0:
64,192,115606,1,0,0:0:0:0:
320,192,115844,128,0,116082:0:0:0:0:
192,192,115844,1,0,0:0:0:0:
64,192,116082,128,0,116201:0:0:0:0:
448,192,116082,1,0,0:0:0:0:
320,192,116201,128,0,116320:0:0:0:0:
192,192,116320,128,0,116439:0:0:0:0:
64,192,116320,1,0,0:0:0:0:
448,192,116439,128,0,116559:0:0:0:0:
64,192,116559,128,0,116797:0:0:0:0:
320,192,116559,1,0,0:0:0:0:
192,192,116559,1,0,0:0:0:0:
320,192,116797,128,0,117035:0:0:0:0:
448,192,116797,1,0,0:0:0:0:
192,192,117035,128,0,117273:0:0:0:0:
64,192,117035,1,0,0:0:0:0:
448,192,117273,1,0,0:0:0:0:
448,192,117511,128,0,117987:0:0:0:0:
64,192,117511,1,0,0:0:0:0:
320,192,117511,1,0,0:0:0:0:
192,192,117749,1,0,0:0:0:0:
192,192,117987,128,0,118225:0:0:0:0:
64,192,117987,1,0,0:0:0:0:
448,192,118225,1,0,0:0:0:0:
320,192,118344,1,0,0:0:0:0:
192,192,118463,1,0,0:0:0:0:
448,192,118463,1,0,0:0:0:0:
64,192,118463,128,0,118701:0:0:0:0:
320,192,118701,128,0,118939:0:0:0:0:
192,192,118701,1,0,0:0:0:0:
64,192,118939,1,0,0:0:0:0:
448,192,118939,1,0,0:0:0:0:
192,192,119178,128,0,119416:0:0:0:0:
320,192,119178,1,0,0:0:0:0:
320,192,119416,128,0,119654:0:0:0:0:
64,192,119416,1,0,0:0:0:0:
448,192,119416,1,0,0:0:0:0:
64,192,119654,1,0,0:0:0:0:
448,192,119892,128,0,120011:0:0:0:0:
192,192,119892,1,0,0:0:0:0:
64,192,120011,128,0,120130:0:0:0:0:
320,192,120130,128,0,120249:0:0:0:0:
448,192,120130,1,0,0:0:0:0:
192,192,120249,128,0,120368:0:0:0:0:
448,192,120368,128,0,120606:0:0:0:0:
320,192,120368,1,0,0:0:0:0:
64,192,120368,1,0,0:0:0:0:
64,192,120606,128,0,120844:0:0:0:0:
192,192,120606,1,0,0:0:0:0:
448,192,120844,1,0,0:0:0:0:
320,192,120844,1,0,0:0:0:0:
192,192,121082,128,0,121201:0:0:0:0:
64,192,121082,1,0,0:0:0:0:
448,192,121320,1,0,0:0:0:0:
64,192,121320,1,0,0:0:0:0:
320,192,121320,1,0,0:0:0:0:
320,192,121559,128,0,121797:0:0:0:0:
192,192,121559,1,0,0:0:0:0:
192,192,121797,128,0,121916:0:0:0:0:
448,192,121797,1,0,0:0:0:0:
64,192,121916,128,0,122035:0:0:0:0:
320,192,122035,128,0,122154:0:0:0:0:
448,192,122035,1,0,0:0:0:0:
192,192,122154,128,0,122273:0:0:0:0:
448,192,122273,128,0,122511:0:0:0:0:
320,192,122273,1,0,0:0:0:0:
64,192,122273,1,0,0:0:0:0:
320,192,122511,128,0,122749:0:0:0:0:
192,192,122511,1,0,0:0:0:0:
64,192,122749,128,0,122987:0:0:0:0:
448,192,122749,1,0,0:0:0:0:
320,192,122868,1,0,0:0:0:0:
192,192,122987,1,0,0:0:0:0:
448,192,122987,128,0,123225:0:0:0:0:
320,192,123106,1,0,0:0:0:0:
64,192,123225,1,0,0:0:0:0:
192,192,123344,1,0,0:0:0:0:
64,192,123463,128,0,123701:0:0:0:0:
448,192,123463,1,0,0:0:0:0:
320,192,123582,1,0,0:0:0:0:
448,192,123701,1,0,0:0:0:0:
192,192,123701,1,0,0:0:0:0:
320,192,123820,1,0,0:0:0:0:
64,192,123939,1,0,0:0:0:0:
192,192,124059,1,0,0:0:0:0:
64,192,124178,128,0,124416:0:0:0:0:
448,192,124178,1,0,0:0:0:0:
320,192,124178,1,0,0:0:0:0:
192,192,124416,128,0,124654:0:0:0:0:
320,192,124416,1,0,0:0:0:0:
448,192,124654,128,0,124892:0:0:0:0:
64,192,124654,1,0,0:0:0:0:
448,192,125130,128,0,125368:0:0:0:0:
192,192,125130,1,0,0:0:0:0:
320,192,125606,128,0,125844:0:0:0:0:
64,192,125606,1,0,0:0:0:0:
448,192,125844,1,0,0:0:0:0:
192,192,125844,1,0,0:0:0:0:
64,192,125963,1,0,0:0:0:0:
192,192,126082,128,0,126320:0:0:0:0:
320,192,126082,1,0,0:0:0:0:
448,192,126320,1,0,0:0:0:0:
64,192,126559,128,0,126797:0:0:0:0:
320,192,126559,1,0,0:0:0:0:
320,192,126797,128,0,127035:0:0:0:0:
448,192,127035,128,0,127273:0:0:0:0:
192,192,127035,1,0,0:0:0:0:
320,192,127511,128,0,127749:0:0:0:0:
64,192,127511,1,0,0:0:0:0:
64,192,127868,1,0,0:0:0:0:
192,192,127987,128,0,128225:0:0:0:0:
448,192,127987,1,0,0:0:0:0:
448,192,128225,128,0,128463:0:0:0:0:
64,192,128463,128,0,128701:0:0:0:0:
320,192,128463,1,0,0:0:0:0:
320,192,128701,128,0,129178:0:0:0:0:
192,192,128939,128,0,129178:0:0:0:0:
448,192,128939,1,0,0:0:0:0:
320,192,129416,128,0,129654:0:0:0:0:
64,192,129416,1,0,0:0:0:0:
320,192,129773,1,0,0:0:0:0:
64,192,129892,128,0,130130:0:0:0:0:
448,192,129892,1,0,0:0:0:0:
320,192,130130,128,0,130368:0:0:0:0:
192,192,130368,128,0,130606:0:0:0:0:
448,192,130368,1,0,0:0:0:0:
320,192,130606,128,0,130844:0:0:0:0:
64,192,130606,1,0,0:0:0:0:
64,192,130844,128,0,131082:0:0:0:0:
448,192,130844,1,0,0:0:0:0:
448,192,131082,128,0,131320:0:0:0:0:
192,192,131082,1,0,0:0:0:0:
192,192,131320,128,0,131559:0:0:0:0:
320,192,131320,1,0,0:0:0:0:
64,192,131559,1,0,0:0:0:0:
448,192,131559,1,0,0:0:0:0:
448,192,131797,1,0,0:0:0:0:
64,192,131797,1,0,0:0:0:0:
192,192,131797,1,0,0:0:0:0:
320,192,132035,1,0,0:0:0:0:
192,192,132035,1,0,0:0:0:0:
448,192,132154,1,0,0:0:0:0:
64,192,132273,128,0,132511:0:0:0:0:
192,192,132273,128,0,132392:0:0:0:0:
320,192,132273,1,0,0:0:0:0:
448,192,132511,1,0,0:0:0:0:
320,192,132630,1,0,0:0:0:0:
192,192,132749,128,0,133225:0:0:0:0:
448,192,132749,1,0,0:0:0:0:
64,192,132749,128,0,132868:0:0:0:0:
448,192,132987,128,0,133106:0:0:0:0:
320,192,133225,128,0,133463:0:0:0:0:
64,192,133225,128,0,133344:0:0:0:0:
192,192,133463,128,0,133582:0:0:0:0:
448,192,133582,128,0,133701:0:0:0:0:
320,192,133701,1,0,0:0:0:0:
192,192,133701,1,0,0:0:0:0:
64,192,133701,1,0,0:0:0:0:
448,192,133939,1,0,0:0:0:0:
320,192,133939,1,0,0:0:0:0:
320,192,134059,1,0,0:0:0:0:
64,192,134178,1,0,0:0:0:0:
448,192,134178,1,0,0:0:0:0:
192,192,134416,1,0,0:0:0:0:
64,192,134416,1,0,0:0:0:0:
192,192,134535,1,0,0:0:0:0:
320,192,134654,1,0,0:0:0:0:
448,192,134654,1,0,0:0:0:0:
64,192,134654,1,0,0:0:0:0:
192,192,134892,128,0,135011:0:0:0:0:
192,192,135130,128,0,135249:0:0:0:0:
448,192,135130,1,0,0:0:0:0:
320,192,135249,1,0,0:0:0:0:
64,192,135368,128,0,135606:0:0:0:0:
448,192,135368,1,0,0:0:0:0:
192,192,135487,1,0,0:0:0:0:
320,192,135606,128,0,135844:0:0:0:0:
448,192,135606,1,0,0:0:0:0:
64,192,135844,128,0,136082:0:0:0:0:
448,192,136082,128,0,136320:0:0:0:0:
320,192,136082,128,0,136201:0:0:0:0:
192,192,136082,1,0,0:0:0:0:
64,192,136320,1,0,0:0:0:0:
192,192,136439,1,0,0:0:0:0:
320,192,136559,128,0,137035:0:0:0:0:
64,192,136559,1,0,0:0:0:0:
448,192,136559,128,0,136678:0:0:0:0:
64,192,136797,128,0,136916:0:0:0:0:
192,192,137035,128,0,137273:0:0:0:0:
448,192,137035,128,0,137154:0:0:0:0:
320,192,137273,128,0,137392:0:0:0:0:
64,192,137392,128,0,137511:0:0:0:0:
192,192,137511,1,0,0:0:0:0:
320,192,137511,1,0,0:0:0:0:
448,192,137511,1,0,0:0:0:0:
64,192,137749,1,0,0:0:0:0:
192,192,137749,1,0,0:0:0:0:
192,192,137868,1,0,0:0:0:0:
448,192,137987,1,0,0:0:0:0:
64,192,137987,128,0,138225:0:0:0:0:
320,192,138225,1,0,0:0:0:0:
448,192,138225,1,0,0:0:0:0:
320,192,138344,1,0,0:0:0:0:
448,192,138463,1,0,0:0:0:0:
64,192,138463,1,0,0:0:0:0:
192,192,138463,128,0,138701:0:0:0:0:
320,192,138701,128,0,138939:0:0:0:0:
448,192,138939,128,0,139178:0:0:0:0:
64,192,138939,1,0,0:0:0:0:
192,192,139178,128,0,139297:0:0:0:0:
320,192,139178,1,0,0:0:0:0:
448,192,139297,128,0,139416:0:0:0:0:
192,192,139416,128,0,139654:0:0:0:0:
64,192,139416,1,0,0:0:0:0:
320,192,139416,1,0,0:0:0:0:
448,192,139654,128,0,139892:0:0:0:0:
64,192,139654,1,0,0:0:0:0:
64,192,139892,128,0,140130:0:0:0:0:
192,192,139892,128,0,140011:0:0:0:0:
320,192,139892,1,0,0:0:0:0:
448,192,140130,1,0,0:0:0:0:
320,192,140249,1,0,0:0:0:0:
192,192,140368,128,0,140844:0:0:0:0:
448,192,140368,1,0,0:0:0:0:
64,192,140368,128,0,140487:0:0:0:0:
320,192,140606,128,0,140725:0:0:0:0:
64,192,140844,128,0,140963:0:0:0:0:
448,192,140844,128,0,141082:0:0:0:0:
192,192,141082,128,0,141201:0:0:0:0:
320,192,141201,128,0,141320:0:0:0:0:
64,192,141320,1,0,0:0:0:0:
448,192,141320,1,0,0:0:0:0:
192,192,141320,1,0,0:0:0:0:
448,192,141559,1,0,0:0:0:0:
320,192,141559,1,0,0:0:0:0:
448,192,141678,1,0,0:0:0:0:
64,192,141797,1,0,0:0:0:0:
192,192,141797,1,0,0:0:0:0:
320,192,142035,128,0,142154:0:0:0:0:
192,192,142154,1,0,0:0:0:0:
320,192,142273,128,0,142392:0:0:0:0:
64,192,142273,1,0,0:0:0:0:
448,192,142273,1,0,0:0:0:0:
192,192,142511,128,0,142630:0:0:0:0:
448,192,142511,1,0,0:0:0:0:
64,192,142749,1,0,0:0:0:0:
192,192,142749,128,0,142868:0:0:0:0:
64,192,142987,128,0,143225:0:0:0:0:
320,192,142987,1,0,0:0:0:0:
448,192,143106,1,0,0:0:0:0:
320,192,143225,128,0,143463:0:0:0:0:
192,192,143225,1,0,0:0:0:0:
64,192,143463,128,0,143701:0:0:0:0:
448,192,143463,1,0,0:0:0:0:
448,192,143701,128,0,143939:0:0:0:0:
320,192,143701,128,0,143820:0:0:0:0:
192,192,143701,1,0,0:0:0:0:
64,192,143939,1,0,0:0:0:0:
192,192,144059,1,0,0:0:0:0:
320,192,144178,128,0,144654:0:0:0:0:
64,192,144178,1,0,0:0:0:0:
448,192,144178,128,0,144297:0:0:0:0:
192,192,144416,128,0,144535:0:0:0:0:
64,192,144654,128,0,145130:0:0:0:0:
448,192,144654,128,0,144773:0:0:0:0:
192,192,144892,1,0,0:0:0:0:
320,192,145011,1,0,0:0:0:0:
192,192,145130,128,0,145368:0:0:0:0:
448,192,145130,1,0,0:0:0:0:
64,192,145368,128,0,145606:0:0:0:0:
320,192,145368,1,0,0:0:0:0:
320,192,145487,1,0,0:0:0:0:
448,192,145606,1,0,0:0:0:0:
192,192,145606,1,0,0:0:0:0:
320,192,145844,1,0,0:0:0:0:
448,192,145844,1,0,0:0:0:0:
64,192,145844,128,0,145963:0:0:0:0:
448,192,146082,128,0,146201:0:0:0:0:
320,192,146320,1,0,0:0:0:0:
64,192,146320,1,0,0:0:0:0:
192,192,146320,1,0,0:0:0:0:
320,192,146559,128,0,146678:0:0:0:0:
64,192,146797,1,0,0:0:0:0:
448,192,146797,1,0,0:0:0:0:
192,192,146797,128,0,146916:0:0:0:0:
448,192,147035,128,0,147273:0:0:0:0:
64,192,147035,1,0,0:0:0:0:
320,192,147035,1,0,0:0:0:0:
192,192,147273,1,0,0:0:0:0:
320,192,147392,1,0,0:0:0:0:
448,192,147392,1,0,0:0:0:0:
64,192,147511,128,0,147749:0:0:0:0:
192,192,147511,128,0,147630:0:0:0:0:
448,192,147749,1,0,0:0:0:0:
320,192,147868,1,0,0:0:0:0:
192,192,147987,128,0,148463:0:0:0:0:
448,192,147987,1,0,0:0:0:0:
64,192,147987,128,0,148106:0:0:0:0:
320,192,148225,1,0,0:0:0:0:
64,192,148344,1,0,0:0:0:0:
448,192,148463,1,0,0:0:0:0:
320,192,148463,1,0,0:0:0:0:
448,192,148582,1,0,0:0:0:0:
192,192,148701,1,0,0:0:0:0:
320,192,148820,1,0,0:0:0:0:
448,192,148939,1,0,0:0:0:0:
192,192,148939,1,0,0:0:0:0:
64,192,148939,1,0,0:0:0:0:
64,192,149059,1,0,0:0:0:0:
320,192,149178,1,0,0:0:0:0:
448,192,149178,1,0,0:0:0:0:
448,192,149416,1,0,0:0:0:0:
192,192,149416,1,0,0:0:0:0:
64,192,149654,1,0,0:0:0:0:
192,192,149773,1,0,0:0:0:0:
448,192,149892,1,0,0:0:0:0:
64,192,149892,1,0,0:0:0:0:
320,192,149892,128,0,150368:0:0:0:0:
448,192,150130,1,0,0:0:0:0:
192,192,150368,128,0,150606:0:0:0:0:
64,192,150368,1,0,0:0:0:0:
448,192,150606,1,0,0:0:0:0:
192,192,150725,1,0,0:0:0:0:
320,192,150844,128,0,151082:0:0:0:0:
448,192,150844,1,0,0:0:0:0:
64,192,150844,1,0,0:0:0:0:
64,192,151082,128,0,151320:0:0:0:0:
192,192,151082,1,0,0:0:0:0:
448,192,151320,128,0,151559:0:0:0:0:
320,192,151320,128,0,151439:0:0:0:0:
192,192,151320,1,0,0:0:0:0:
64,192,151559,1,0,0:0:0:0:
192,192,151678,1,0,0:0:0:0:
320,192,151797,128,0,152035:0:0:0:0:
64,192,151797,1,0,0:0:0:0:
448,192,151797,128,0,151916:0:0:0:0:
64,192,152035,128,0,152273:0:0:0:0:
448,192,152154,128,0,152273:0:0:0:0:
192,192,152273,128,0,152511:0:0:0:0:
320,192,152273,1,0,0:0:0:0:
448,192,152511,128,0,152749:0:0:0:0:
64,192,152630,1,0,0:0:0:0:
320,192,152749,1,0,0:0:0:0:
192,192,152749,128,0,152987:0:0:0:0:
64,192,152987,1,0,0:0:0:0:
320,192,152987,128,0,153463:0:0:0:0:
192,192,153225,1,0,0:0:0:0:
64,192,153225,1,0,0:0:0:0:
448,192,153463,1,0,0:0:0:0:
64,192,153701,1,0,0:0:0:0:
448,192,153701,1,0,0:0:0:0:
192,192,153701,128,0,154178:0:0:0:0:
64,192,153939,1,0,0:0:0:0:
320,192,154178,128,0,154416:0:0:0:0:
448,192,154178,1,0,0:0:0:0:
448,192,154416,1,0,0:0:0:0:
64,192,154416,1,0,0:0:0:0:
320,192,154535,1,0,0:0:0:0:
448,192,154654,128,0,154892:0:0:0:0:
192,192,154654,1,0,0:0:0:0:
320,192,154892,128,0,155130:0:0:0:0:
64,192,154892,1,0,0:0:0:0:
64,192,155130,128,0,155368:0:0:0:0:
192,192,155130,128,0,155249:0:0:0:0:
448,192,155130,1,0,0:0:0:0:
448,192,155368,1,0,0:0:0:0:
320,192,155487,1,0,0:0:0:0:
192,192,155606,128,0,156082:0:0:0:0:
448,192,155606,1,0,0:0:0:0:
64,192,155606,128,0,155725:0:0:0:0:
320,192,155844,1,0,0:0:0:0:
64,192,155963,1,0,0:0:0:0:
448,192,156082,1,0,0:0:0:0:
320,192,156082,1,0,0:0:0:0:
448,192,156201,1,0,0:0:0:0:
192,192,156320,1,0,0:0:0:0:
320,192,156439,1,0,0:0:0:0:
448,192,156559,1,0,0:0:0:0:
192,192,156559,1,0,0:0:0:0:
64,192,156559,1,0,0:0:0:0:
64,192,156678,1,0,0:0:0:0:
320,192,156797,1,0,0:0:0:0:
448,192,156797,1,0,0:0:0:0:
448,192,157035,1,0,0:0:0:0:
192,192,157035,1,0,0:0:0:0:
64,192,157273,1,0,0:0:0:0:
192,192,157392,1,0,0:0:0:0:
448,192,157511,1,0,0:0:0:0:
64,192,157511,1,0,0:0:0:0:
320,192,157511,128,0,157987:0:0:0:0:
448,192,157749,1,0,0:0:0:0:
192,192,157987,128,0,158225:0:0:0:0:
64,192,157987,1,0,0:0:0:0:
448,192,158225,1,0,0:0:0:0:
192,192,158344,1,0,0:0:0:0:
448,192,158463,1,0,0:0:0:0:
320,192,158463,128,0,158939:0:0:0:0:
64,192,158463,128,0,158939:0:0:0:0:
192,192,158701,1,0,0:0:0:0:
448,192,158939,128,0,159178:0:0:0:0:
192,192,158939,128,0,159178:0:0:0:0:
64,192,159178,1,0,0:0:0:0:
192,192,159297,1,0,0:0:0:0:
448,192,159416,1,0,0:0:0:0:
64,192,159416,1,0,0:0:0:0:
320,192,159416,128,0,159892:0:0:0:0:
192,192,159654,1,0,0:0:0:0:
64,192,159773,1,0,0:0:0:0:
192,192,159892,128,0,160130:0:0:0:0:
448,192,159892,1,0,0:0:0:0:
320,192,160130,1,0,0:0:0:0:
64,192,160130,1,0,0:0:0:0:
192,192,160249,1,0,0:0:0:0:
320,192,160368,1,0,0:0:0:0:
64,192,160368,1,0,0:0:0:0:
448,192,160368,1,0,0:0:0:0:
448,192,160606,1,0,0:0:0:0:
192,192,160606,1,0,0:0:0:0:
64,192,160844,1,0,0:0:0:0:
320,192,160844,128,0,161082:0:0:0:0:
448,192,160844,1,0,0:0:0:0:
192,192,161082,1,0,0:0:0:0:
64,192,161082,128,0,161320:0:0:0:0:
448,192,161320,1,0,0:0:0:0:
192,192,161320,128,0,161559:0:0:0:0:
320,192,161559,1,0,0:0:0:0:
448,192,161559,128,0,161797:0:0:0:0:
192,192,161797,128,0,162035:0:0:0:0:
448,192,162035,1,0,0:0:0:0:
64,192,162035,1,0,0:0:0:0:
320,192,162154,1,0,0:0:0:0:
192,192,162273,1,0,0:0:0:0:
448,192,162392,1,0,0:0:0:0:
64,192,162511,1,0,0:0:0:0:
192,192,162511,1,0,0:0:0:0:
320,192,162630,1,0,0:0:0:0:
448,192,162749,1,0,0:0:0:0:
64,192,162749,1,0,0:0:0:0:
192,192,162749,1,0,0:0:0:0:
