osu file format v14

[General]
AudioFilename: audio.mp3
AudioLeadIn: 0
PreviewTime: 54760
Countdown: 0
SampleSet: Soft
StackLeniency: 0
Mode: 0
LetterboxInBreaks: 0
WidescreenStoryboard: 0

[Editor]
Bookmarks: 95960,131160,172760
DistanceSpacing: 0.1
BeatDivisor: 4
GridSize: 4
TimelineZoom: 1

[Metadata]
Title:Frostbite
TitleUnicode:Frostbite
Artist:Nyptane & Fynch
ArtistUnicode:Nyptane & Fynch
Creator:Spiral527
Version:Aspire
Source:
Tags:2B fail
BeatmapID:1138708
BeatmapSetID:537360

[Difficulty]
HPDrainRate:3
CircleSize:4
OverallDifficulty:6.9
ApproachRate:9
SliderMultiplier:1.8
SliderTickRate:1

[Events]
//Background and Video events
0,0,"IcyTimes.jpg",0,0
//Break Periods
2,83360,95360
//Storyboard Layer 0 (Background)
//Storyboard Layer 1 (Fail)
//Storyboard Layer 2 (Pass)
//Storyboard Layer 3 (Foreground)
//Storyboard Sound Samples

[TimingPoints]
3160,800,4,2,1,5,1,0
3160,-400,4,2,1,5,0,0
15960,400,4,2,2,20,1,0
22360,-100,4,2,2,40,0,0
28760,50800,4,2,2,40,1,0
28760,-20,4,2,2,40,0,0
28960,400,4,2,2,40,1,0
33760,-83.3333333333333,4,2,2,40,0,0
34160,-69.4444444444444,4,2,2,40,0,0
34560,-57.8034682080925,4,2,2,40,0,0
34960,-100,4,2,2,40,0,0
35160,37200,4,2,2,40,1,0
35160,-20,4,2,2,40,0,0
35360,400,4,2,2,40,1,0
40160,-83.3333333333333,4,2,2,40,0,0
40560,-69.4444444444444,4,2,2,40,0,0
40960,-57.8034682080925,4,2,2,40,0,0
41360,-100,4,2,2,40,0,0
41560,23600,4,2,2,40,1,0
41560,-20,4,2,2,40,0,0
41760,400,4,2,2,40,1,0
46560,-83.3333333333333,4,2,2,40,0,0
46960,-69.4444444444444,4,2,2,40,0,0
47360,-57.8034682080925,4,2,2,40,0,0
47760,-100,4,2,2,40,0,0
47960,10000,4,2,2,40,1,0
47960,-20,4,2,2,40,0,0
48160,400,4,2,2,40,1,0
54160,48000,4,2,2,40,1,0
54160,-1000,4,2,2,40,0,0
57160,400,4,2,2,40,1,0
57560,400,4,1,2,40,1,1
57560,-50,4,1,2,40,0,1
57960,-100,4,1,2,40,0,1
60760,-33.333333333,4,1,2,40,0,1
61560,-100,4,1,2,40,0,1
62560,-25,4,1,2,40,0,1
62760,-149.253731343284,4,1,2,40,0,1
63160,-100,4,1,2,40,0,1
63960,-50,4,1,2,40,0,1
64360,-100,4,1,2,40,0,1
64960,-200,4,1,2,40,0,1
65760,-16.666666667,4,1,2,40,0,1
65960,-74.0740740740741,4,1,2,40,0,1
66360,-100,4,1,2,40,0,1
67560,-33.33333333333,4,1,2,40,0,1
67960,-100,4,1,2,40,0,1
68960,-25,4,1,2,40,0,1
69160,-100,4,1,2,40,0,1
70360,800,4,1,2,40,1,1
70560,600,4,1,2,40,1,1
70760,400,4,1,2,40,1,1
71160,400,4,1,2,40,1,1
73560,-33.33333333333,4,1,2,40,0,1
73960,-100,4,1,2,40,0,1
75360,-25,4,1,2,40,0,1
75560,-149.253731343284,4,1,2,40,0,1
75960,-100,4,1,2,40,0,1
76760,-50,4,1,2,40,0,1
77160,-100,4,1,2,40,0,1
77760,-1000,4,1,2,40,0,1
78560,-16.6666666667,4,1,2,40,0,1
78760,-50,4,1,2,40,0,1
79160,-100,4,1,2,40,0,1
80360,-33.333333333,4,1,2,40,0,1
80760,-100,4,1,2,40,0,1
82360,1600,4,1,2,40,1,1
82360,-1000,4,1,2,40,0,1
82760,-1000,4,1,2,20,0,1
83160,400,4,2,2,20,1,0
95960,800,4,2,1,5,1,0
106960,4000,4,2,1,5,1,0
106960,-20,4,2,1,5,0,0
108760,68000,4,2,2,40,1,0
108760,-20,4,2,2,40,0,0
108960,400,4,2,2,40,1,0
111360,-33.33333333333,4,2,2,40,0,0
111960,-100,4,2,2,40,0,0
114760,-50,4,2,2,40,0,0
115160,48000,4,2,2,40,1,0
115160,-20,4,2,2,40,0,0
115360,400,4,2,2,40,1,0
117760,-25,4,2,2,40,0,0
118360,-100,4,2,2,40,0,0
120760,-200,4,2,2,40,0,0
120960,-149.253731343284,4,2,2,40,0,0
121560,28571.4286,4,2,2,40,1,0
121560,-20,4,2,2,40,0,0
121760,400,4,2,2,40,1,0
124360,-1000,4,2,2,40,0,0
124560,-100,4,2,2,40,0,0
127960,9142.85714,4,2,2,40,1,0
127960,-20,4,2,2,40,0,0
128160,400,4,2,2,40,1,0
130360,-28.5714286,4,2,2,40,0,0
131160,-100,4,2,2,40,0,0
132560,2800,4,2,2,40,1,0
132560,-1000,4,2,2,40,0,0
133960,400,4,2,2,40,1,0
134360,400,4,1,2,40,1,1
134360,-50,4,1,2,40,0,1
134760,-100,4,1,2,40,0,1
137560,-33.3333333333333,4,1,2,40,0,1
138560,-100,4,1,2,40,0,1
140360,-149.253731343284,4,1,2,40,0,1
140760,-100,4,1,2,40,0,1
141560,-25,4,1,2,40,0,1
141760,-100,4,1,2,40,0,1
142760,-20,4,1,2,40,0,1
143160,-100,4,1,2,40,0,1
143960,-16.66666666667,4,1,2,40,0,1
144960,-100,4,1,2,40,0,1
145760,-50,4,1,2,40,0,1
145960,-30,4,1,2,40,0,1
146360,-100,4,1,2,40,0,1
147160,800,4,1,2,40,1,1
147360,600,4,1,2,40,1,1
147560,400,4,1,2,40,1,1
147960,400,4,1,2,40,1,1
148960,-12.5,4,1,2,40,0,1
149160,-75,4,1,2,40,0,1
149560,-100,4,1,2,40,0,1
149960,-37,4,1,2,40,0,1
150360,-100,4,1,2,40,0,1
151160,-66.6666666666667,4,1,2,40,0,1
151560,-100,4,1,2,40,0,1
152360,-200,4,1,2,40,0,1
152560,600,4,1,2,40,1,1
152560,-200,4,1,2,40,0,1
152960,400,4,1,2,40,1,1
152960,-200,4,1,2,40,0,1
153560,400,4,1,2,40,1,1
153560,-16.66666666667,4,1,2,40,0,1
154160,-33.33333333333,4,1,2,40,0,1
154560,-100,4,1,2,40,0,1
156360,-32.42,4,1,2,40,0,1
156760,-100,4,1,2,40,0,1
156960,1600,4,1,2,40,1,1
157360,400,4,1,2,40,1,1
157560,1200,4,1,2,40,1,1
157760,400,4,1,2,40,1,1
158360,400,4,1,2,40,1,1
159160,-25,4,1,2,40,0,1
159960,400,4,2,2,40,1,0
172760,800,4,2,1,5,1,0
172760,-400,4,2,1,5,0,0
179160,-266.6666666667,4,2,1,5,0,0
185560,-200,4,2,1,5,0,0
195160,102400,4,2,1,5,1,0
195160,-1000,4,2,1,5,0,0

[Colours]
Combo1 : 15,99,255
Combo2 : 98,208,255

[HitObjects]
36,240,3160,6,0,P|120:208|116:264,1,180,2|0,0:0|3:0,0:0:0:0:
114,270,6360,6,0,P|140:341|196:290,1,180,2|0,0:0|3:0,0:0:0:0:
195,277,9560,6,0,B|189:212|189:212|213:224|238:228|264:225|285:218|297:206,1,180,2|0,0:0|3:0,0:0:0:0:
306,198,12760,6,0,B|318:186|339:179|365:176|390:180|414:192|414:192|408:127,1,180,2|0,0:0|3:0,0:0:0:0:
412,115,15960,6,0,P|420:71|401:31,1,90
311,20,16360,1,4,0:0:0:0:
243,79,16560,1,0,0:0:0:0:
306,198,16760,6,0,L|315:289,1,90
240,338,17160,1,4,0:0:0:0:
168,283,17360,1,0,0:0:0:0:
232,162,17560,6,0,P|250:121|242:78,1,90
172,22,17960,1,4,0:0:0:0:
86,48,18160,1,0,0:0:0:0:
142,171,18360,6,0,L|233:161,1,90
310,204,18760,1,4,0:0:0:0:
242,263,18960,1,0,0:0:0:0:
142,171,19160,6,0,P|99:156|57:168,1,90
38,256,19560,1,4,0:0:0:0:
113,304,19760,1,0,0:0:0:0:
242,263,19960,6,0,L|252:172,1,90
310,105,20360,1,4,0:0:0:0:
392,140,20560,1,0,0:0:0:0:
326,259,20760,6,0,P|283:274|241:262,1,90
171,204,21160,1,4,0:0:0:0:
98,256,21360,1,0,0:0:0:0:
19,146,21560,6,0,L|29:55,1,90
112,23,21960,1,4,0:0:0:0:
185,75,22160,1,0,0:0:0:0:
310,24,22360,6,0,P|354:12|394:28,1,90
452,97,22760,1,4,0:0:0:0:
405,173,22960,1,0,0:0:0:0:
382,171,23060,1,0,0:0:0:0:
360,169,23160,2,0,L|260:160,1,90,8|0,1:2|0:0,0:0:0:0:
186,266,23560,2,0,L|275:273,1,90,4|0,0:0|0:0,0:0:0:0:
360,169,23960,6,0,P|371:126|356:84,1,90
278,40,24360,2,0,B|249:37|225:50|210:79|211:100|211:100|180:136,1,135,4|0,0:0|0:0,0:0:0:0:
167,131,24760,2,0,L|67:122,1,90,8|0,1:2|0:0,0:0:0:0:
164,226,25160,2,0,L|263:217,1,90,4|0,0:0|0:0,0:0:0:0:
366,143,25560,6,0,L|266:134,1,90
189,125,25960,1,4,0:0:0:0:
158,209,26160,1,0,0:0:0:0:
161,217,26260,1,0,0:0:0:0:
164,226,26360,2,0,P|171:269|152:309,1,90,8|0,1:2|0:0,0:0:0:0:
39,234,26760,2,0,P|31:190|50:150,1,90,4|0,0:0|0:0,0:0:0:0:
164,226,27160,6,0,P|204:244|247:237,1,90
326,193,27560,2,0,P|369:182|338:233,1,135,4|0,0:0|0:0,0:0:0:0:
328,251,27960,2,0,L|336:342,1,90,8|0,1:2|0:0,0:0:0:0:
247,237,28360,2,0,L|239:147,1,90,4|0,0:0|0:0,0:0:0:0:
30,32,28760,6,0,L|486:32,1,450,2|0,0:0|0:0,0:0:0:0:
89,121,28960,1,0,0:0:0:0:
40,217,29160,2,0,P|29:259|43:300,1,90,4|0,0:0|0:0,0:0:0:0:
121,349,29460,1,0,0:0:0:0:
130,354,29560,2,0,L|221:346,1,90,8|0,1:2|0:0,0:0:0:0:
302,275,29960,1,4,0:0:0:0:
172,215,30160,6,0,B|139:211|104:213|74:230|56:261|56:261|45:236|36:209,1,180,2|0,0:0|0:0,0:0:0:0:
89,121,30760,1,4,0:0:0:0:
89,121,30960,1,2,0:0:0:0:
130,259,31160,2,0,L|122:350,1,90,8|0,1:2|0:0,0:0:0:0:
228,250,31560,2,0,L|220:160,1,90,4|0,0:0|0:0,0:0:0:0:
326,259,31960,6,0,L|318:349,1,90,2|0,0:0|0:0,0:0:0:0:
228,250,32360,1,4,0:0:0:0:
280,176,32560,1,0,0:0:0:0:
300,166,32660,1,0,0:0:0:0:
322,163,32760,2,0,P|365:165|400:190,1,90,8|0,1:2|0:0,0:0:0:0:
405,282,33160,1,4,0:0:0:0:
322,163,33360,6,0,L|232:155,1,90,2|0,0:0|0:0,0:0:0:0:
293,234,33760,6,0,L|176:223,1,107.999996704102,0|4,0:0|0:0,0:0:0:0:
264,305,34160,6,0,L|134:293,1,129.600003164063,2|8,0:0|1:2,0:0:0:0:
235,376,34560,6,0,L|76:362,1,155.70000380127,0|4,0:0|0:0,0:0:0:0:
480,100,35160,6,0,L|30:100,1,450,2|0,0:0|0:0,0:0:0:0:
403,175,35360,1,0,0:0:0:0:
472,257,35560,2,0,P|484:298|472:340,1,90,4|0,0:0|0:0,0:0:0:0:
384,356,35860,1,0,0:0:0:0:
378,348,35960,2,0,L|370:257,1,90,8|0,1:2|0:0,0:0:0:0:
293,182,36360,1,4,0:0:0:0:
207,298,36560,6,0,P|130:329|53:262,1,180,2|0,0:0|0:0,0:0:0:0:
34,171,37160,1,4,0:0:0:0:
34,171,37360,1,2,0:0:0:0:
164,233,37560,2,0,P|205:245|247:233,1,90,8|0,1:2|0:0,0:0:0:0:
375,302,37960,2,0,P|333:289|291:301,1,90,4|0,0:0|0:0,0:0:0:0:
163,371,38360,6,0,P|205:383|247:370,1,90,2|0,0:0|0:0,0:0:0:0:
375,302,38760,1,4,0:0:0:0:
297,255,38960,1,0,0:0:0:0:
287,253,39060,1,0,0:0:0:0:
277,251,39160,2,0,L|186:258,1,90,8|0,1:2|0:0,0:0:0:0:
120,319,39560,1,4,0:0:0:0:
259,352,39760,6,0,B|304:351|304:351|339:323,1,90,2|0,0:0|0:0,0:0:0:0:
216,285,40160,6,0,B|161:285|161:285|119:318,1,107.999996704102,0|4,0:0|0:0,0:0:0:0:
303,260,40560,6,0,B|368:259|368:259|418:219,1,129.600003164063,2|8,0:0|1:2,0:0:0:0:
182,204,40960,6,0,B|103:205|103:205|43:252,1,155.70000380127,0|4,0:0|0:0,0:0:0:0:
30,168,41560,6,0,L|480:168,1,450,2|2,0:0|0:0,0:0:0:0:
12,274,41760,1,0,0:0:0:0:
108,324,41960,2,0,L|197:317,1,90,4|0,0:0|0:0,0:0:0:0:
253,245,42260,1,0,0:0:0:0:
262,250,42360,2,0,P|285:287|288:337,1,90,8|0,1:2|0:0,0:0:0:0:
197,317,42760,1,4,0:0:0:0:
334,274,42960,6,0,B|358:265|391:259|432:267|452:278|469:295|469:295|415:327,1,180,2|0,0:0|0:0,0:0:0:0:
336,351,43560,1,4,0:0:0:0:
336,351,43760,1,2,0:0:0:0:
224,260,43960,2,0,L|133:253,1,90,8|0,1:2|0:0,0:0:0:0:
24,347,44360,2,0,L|115:340,1,90,4|0,0:0|0:0,0:0:0:0:
224,260,44760,6,0,L|133:253,1,90,2|0,0:0|0:0,0:0:0:0:
24,347,45160,1,4,0:0:0:0:
113,340,45360,1,0,0:0:0:0:
125,344,45460,1,0,0:0:0:0:
135,351,45560,2,0,P|177:363|219:350,1,90,8|0,1:2|0:0,0:0:0:0:
280,282,45960,1,4,0:0:0:0:
418,322,46160,6,0,B|489:328|489:328|479:307,1,90,2|0,0:0|0:0,0:0:0:0:
280,282,46560,6,0,B|198:271|198:271|209:295,1,107.999996704102,0|4,0:0|0:0,0:0:0:0:
418,322,46960,6,0,B|515:313|515:313|496:287,1,129.600003164063,2|8,0:0|1:2,0:0:0:0:
265,251,47360,6,0,B|146:264|146:264|170:294,1,155.70000380127,0|4,0:0|0:0,0:0:0:0:
480,236,47960,6,0,L|30:236,1,450,2|0,0:0|0:0,0:0:0:0:
500,341,48160,1,0,0:0:0:0:
399,305,48360,2,0,L|307:314,1,90,4|0,0:0|0:0,0:0:0:0:
233,360,48660,1,0,0:0:0:0:
228,351,48760,2,0,P|193:323|149:319,1,90,8|0,1:2|0:0,0:0:0:0:
47,356,49160,1,4,0:0:0:0:
192,362,49360,6,0,L|374:342,1,180,2|0,0:0|0:0,0:0:0:0:
479,353,49960,1,4,0:0:0:0:
479,353,50160,1,2,0:0:0:0:
371,343,50360,2,0,L|279:333,1,90,8|0,1:2|0:0,0:0:0:0:
136,341,50760,2,0,P|178:353|220:340,1,90,4|0,0:0|0:0,0:0:0:0:
362,310,51160,6,0,L|451:319,1,90,2|0,0:0|0:0,0:0:0:0:
321,355,51560,1,4,0:0:0:0:
239,317,51760,1,0,0:0:0:0:
246,311,51860,1,0,0:0:0:0:
254,306,51960,2,0,L|345:315,1,90,8|0,1:2|0:0,0:0:0:0:
417,366,52360,1,4,0:0:0:0:
480,304,52560,5,2,0:0:0:0:
30,236,52960,5,0,0:0:0:0:
480,168,53360,5,2,0:0:0:0:
30,100,53760,5,0,0:0:0:0:
480,32,54160,6,0,L|481:32,1,1.125
475,74,57160,1,4,0:3:0:0:
475,74,57360,1,8,0:3:0:0:
402,127,57560,6,0,P|326:71|365:174,1,270,2|0,0:0|2:0,0:0:0:0:
354,180,57960,6,0,P|364:244|344:284,1,90,0|0,0:0|2:0,0:0:0:0:
249,349,58360,1,8,0:0:0:0:
178,233,58560,2,0,L|82:224,1,90,2|0,0:0|2:0,0:0:0:0:
12,112,58960,2,0,L|107:103,1,90,2|0,0:0|2:0,0:0:0:0:
229,145,59360,5,2,0:0:0:0:
229,145,59560,2,0,P|239:101|227:58,1,90,2|0,0:0|2:0,0:0:0:0:
101,103,59960,1,8,0:0:0:0:
146,180,60160,1,0,0:0:0:0:
229,145,60360,2,0,B|248:136|263:133|278:136|291:152|311:156|334:159|358:145,1,135,4|0,0:2|2:0,0:0:0:0:
367,134,60760,6,0,B|395:408|395:408|368:373|352:354|335:340|291:327,1,405.000015449525,2|0,0:0|2:0,0:0:0:0:
251,183,61160,2,0,B|213:172|196:158|180:139|152:103|152:103|181:378,1,405.000015449525,0|0,0:0|2:0,0:0:0:0:
106,330,61560,5,8,0:0:0:0:
11,234,61760,2,0,P|1:190|13:147,1,90,2|0,0:0|2:0,0:0:0:0:
147,133,62160,2,0,P|157:177|145:220,1,90,2|0,0:0|2:0,0:0:0:0:
77,101,62560,6,0,P|67:57|79:14,1,90,2|0,0:0|2:0,0:0:0:0:
78,14,62760,2,0,P|66:57|77:100,1,90.4499957215121,2|0,0:0|2:0,0:0:0:0:
147,133,63160,1,8,0:0:0:0:
236,124,63360,1,0,0:0:0:0:
147,133,63560,2,0,B|76:141|76:141|90:160,1,90,4|0,0:2|2:0,0:0:0:0:
154,217,63960,6,0,B|169:247|171:261|166:282|172:313|158:328|150:346|150:346|162:330|166:308|173:282|168:262|170:246|150:209,1,270,2|0,0:0|2:0,0:0:0:0:
150,212,64360,6,0,L|261:200,1,90,0|0,0:0|2:0,0:0:0:0:
342,289,64760,1,8,0:0:0:0:
418,177,64960,2,0,P|428:133|416:90,1,90,2|2,0:0|0:0,0:0:0:0:
287,49,65160,2,0,P|277:93|289:136,1,90,0|0,2:0|2:0,0:0:0:0:
416,90,65760,6,0,L|290:136,1,135,2|0,0:0|2:0,0:0:0:0:
287,49,65960,2,0,L|438:195,1,182.250000695229,2|0,0:0|2:0,0:0:0:0:
427,220,66360,1,8,0:0:0:0:
373,292,66560,1,0,0:0:0:0:
283,281,66760,2,0,B|239:276|239:276|207:309|207:309|155:303,1,135,4|0,0:2|2:0,0:0:0:0:
149,303,67160,5,2,2:0:0:0:
98,228,67360,1,0,0:0:0:0:
98,228,67560,2,0,B|86:116|86:116|118:113|149:109|153:141|156:173|159:205|191:202|223:198|223:198|211:87,1,405.000015449525,0|0,0:0|2:0,0:0:0:0:
179,27,67960,5,8,0:0:0:0:
307,69,68160,2,0,L|406:58,1,90,2|0,0:0|2:0,0:0:0:0:
481,164,68560,2,0,L|381:153,1,90,2|0,0:0|2:0,0:0:0:0:
307,259,68960,6,0,L|406:248,1,90,2|0,0:0|2:0,0:0:0:0:
307,259,69160,1,2,0:0:0:0:
307,259,69560,1,8,0:0:0:0:
396,249,69760,1,0,0:0:0:0:
360,331,69960,2,0,B|325:359|325:359|280:360,1,90,4|0,0:2|2:0,0:0:0:0:
151,311,70360,6,0,P|126:261|172:149,1,180,0|0,2:0|3:0,0:0:0:0:
74,281,70560,6,0,P|77:225|173:151,1,180,0|0,2:0|3:0,0:0:0:0:
22,217,70760,6,0,P|52:170|172:154,1,180,0|8,2:0|0:0,0:0:0:0:
294,197,71360,6,0,P|338:207|381:195,1,90,2|0,0:0|2:0,0:0:0:0:
312,78,71760,2,0,P|268:68|225:80,1,90,2|0,0:0|2:0,0:0:0:0:
294,197,72160,5,2,0:0:0:0:
294,197,72360,2,0,L|284:286,1,90,2|0,0:0|2:0,0:0:0:0:
154,325,72760,1,8,0:0:0:0:
163,235,72960,1,0,0:0:0:0:
247,266,73160,2,0,B|284:286|284:286|311:267|329:258|358:256|379:262,1,135,4|0,0:2|2:0,0:0:0:0:
381,268,73560,6,0,B|395:131|395:131|405:41|414:15|434:10|445:4|465:-7|494:0|521:18|526:42|528:67|512:114|500:129,1,405.000015449525,2|0,0:0|2:0,0:0:0:0:
462,142,73960,2,0,L|327:126,1,135.000005149842,0|0,0:0|2:0,0:0:0:0:
262,63,74360,5,8,0:0:0:0:
180,170,74560,2,0,P|170:214|182:257,1,90,2|0,0:0|2:0,0:0:0:0:
180,170,74960,2,0,P|191:213|181:256,1,90,2|0,0:0|2:0,0:0:0:0:
181,256,75360,6,0,P|169:213|180:170,1,90,2|0,0:0|2:0,0:0:0:0:
179,169,75560,2,0,P|191:213|181:257,1,90.4499957215121,2|0,0:0|2:0,0:0:0:0:
143,339,75960,1,8,0:0:0:0:
232,330,76160,1,0,0:0:0:0:
181,256,76360,2,0,P|169:213|180:170,1,90,4|0,0:2|2:0,0:0:0:0:
250,115,76760,6,0,P|195:53|180:170,1,270,2|0,0:0|2:0,0:0:0:0:
182,173,77160,6,0,L|74:184,1,90,0|0,0:0|2:0,0:0:0:0:
24,300,77560,1,8,0:0:0:0:
153,262,77760,2,0,P|158:260|163:261,1,9,2|0,0:0|2:0,0:0:0:0:
262,353,78160,2,0,P|256:354|251:353,1,9,2|0,0:0|2:0,0:0:0:0:
280,221,78560,6,0,L|295:77,1,135.000005149842,2|0,0:0|2:0,0:0:0:0:
280,221,78760,2,0,B|294:85|294:85|280:219,1,270,2|0,0:0|2:0,0:0:0:0:
252,252,79160,1,8,0:0:0:0:
162,241,79360,1,0,0:0:0:0:
188,155,79560,2,0,P|218:110|298:87,1,135,4|0,0:2|2:0,0:0:0:0:
306,90,79960,5,2,2:0:0:0:
362,160,80160,1,0,0:0:0:0:
362,160,80360,2,0,B|261:149|261:149|252:232|252:232|316:239|316:239|252:232|252:232|240:352,1,405.000015449525,0|0,0:0|2:0,0:0:0:0:
291,372,80760,5,8,0:0:0:0:
316,240,80960,2,0,L|220:229,1,90,2|0,0:0|2:0,0:0:0:0:
340,158,81360,2,0,L|429:167,1,90,2|0,0:0|2:0,0:0:0:0:
334,73,81760,5,2,0:0:0:0:
334,73,81960,2,0,L|238:62,1,90,2|0,0:0|2:0,0:0:0:0:
149,123,82360,6,0,L|151:123,1,2.25,8|0,0:0|3:0,0:0:0:0:
216,184,82560,2,0,L|214:184,1,2.25,0|0,0:0|3:0,0:0:0:0:
146,245,82760,2,0,L|148:245,1,2.25,4|0,0:3|3:0,0:0:0:0:
216,306,82960,2,0,L|214:306,1,2.25,8|0,0:3|3:0,0:0:0:0:
146,367,83160,5,2,0:0:0:0:
89,226,95960,6,0,B|110:238|131:246|160:249|196:239|214:226|229:204|237:179|237:179|265:175|295:177|321:198|333:220|338:258,1,315,2|0,0:0|3:0,0:0:0:0:
337,248,97360,2,0,P|380:182|166:67,1,405,2|0,0:0|3:0,0:0:0:0:
172,61,99160,6,0,B|152:72|129:79|104:76|79:67|62:52|54:28|36:27|20:26|1:30|-13:34|-26:42|-39:65|-39:65|-27:90|-9:107|16:117|44:123,1,315,2|0,0:0|3:0,0:0:0:0:
19,116,100560,2,0,B|61:129|80:162|79:199|75:222|61:248|28:263|28:263|15:351,1,270,2|0,0:0|3:0,0:0:0:0:
16,342,101760,2,0,P|66:324|151:345,1,135,2|0,0:0|3:0,0:0:0:0:
144,340,102360,6,0,B|129:206|129:206|253:260|253:260|216:287,1,315,2|0,0:0|3:0,0:0:0:0:
216,286,103760,2,0,P|232:194|446:282,1,405,2|0,0:0|3:0,0:0:0:0:
448,265,105560,6,0,B|423:277|392:278|366:275|331:257|331:257|319:290|320:318|335:359|335:359|299:348|270:348|230:366,1,315,2|0,0:0|3:0,0:0:0:0:
247,358,106960,2,0,B|163:322|163:322|86:371|86:371|93:280|93:280|23:222|23:222|112:201|112:201|145:116|145:116|193:195|193:195|284:199|284:199|224:269,1,810,2|0,0:0|3:0,0:0:0:0:
476,36,108760,6,0,L|476:360,1,315,2|0,0:0|0:0,0:0:0:0:
374,72,108960,1,0,0:0:0:0:
401,177,109160,2,0,L|390:276,1,90,4|0,0:0|0:0,0:0:0:0:
303,242,109460,1,0,0:0:0:0:
297,233,109560,2,0,P|285:190|296:147,1,90,8|0,1:2|2:0,0:0:0:0:
374,72,109960,1,4,0:0:0:0:
384,217,110160,6,0,B|368:254|346:263|325:272|299:271|274:260|259:247|259:247|229:260,1,180,2|0,0:0|0:0,0:0:0:0:
135,210,110760,1,4,0:0:0:0:
135,210,110960,1,2,0:0:0:0:
158,104,111160,1,8,1:2:0:0:
232,258,111360,6,0,B|237:302|237:302|215:345|215:345|225:326|225:326|215:345|215:345|225:326|225:326|215:345|215:345|225:326|225:326|215:345|215:345|225:326|225:326|215:345|215:345,2,270.000010299683,0|4|0,0:0|0:0|0:0,0:0:0:0:
106,187,111960,6,0,B|83:225|83:225|88:270,1,90,2|0,0:0|0:0,0:0:0:0:
232,258,112360,1,4,0:0:0:0:
220,150,112560,1,0,0:0:0:0:
218,139,112660,1,0,0:0:0:0:
217,129,112760,2,0,L|226:37,1,90,8|0,1:2|0:0,0:0:0:0:
331,59,113160,1,4,0:0:0:0:
220,150,113360,6,0,B|198:155|173:155|143:145|129:140|115:132|115:132|99:148|91:173|101:212,1,180,2|0,0:0|0:0,0:0:0:0:
132,301,113960,1,4,0:0:0:0:
132,301,114160,1,2,0:0:0:0:
257,230,114360,2,0,L|360:219,1,90,8|0,1:2|0:0,0:0:0:0:
220,150,114760,2,0,L|116:161,1,90,4|0,0:0|0:0,0:0:0:0:
130,159,114960,1,0,0:0:0:0:
36,351,115160,6,0,L|36:36,1,315,2|0,0:0|0:0,0:0:0:0:
132,301,115360,1,0,0:0:0:0:
228,351,115560,2,0,P|271:363|314:352,1,90,4|0,0:0|2:0,0:0:0:0:
374,285,115860,1,0,0:0:0:0:
377,275,115960,2,0,L|366:172,1,90,8|0,1:2|0:0,0:0:0:0:
291,109,116360,1,4,0:0:0:0:
236,242,116560,6,0,B|228:266|225:299|235:340|248:359|266:375|266:375|278:335|305:321,1,180,2|0,0:0|0:0,0:0:0:0:
374,285,117160,1,4,0:0:0:0:
374,285,117360,1,2,0:0:0:0:
353,178,117560,1,8,1:2:0:0:
276,343,117760,6,0,B|217:366|169:337|146:304|134:262|135:219|155:182|194:167|222:173|261:193|262:229|255:251|242:264,2,360,0|4|0,0:0|0:0|0:0,0:0:0:0:
361,226,118360,6,0,P|365:181|347:141,1,90,2|0,0:0|2:0,0:0:0:0:
250,251,118760,1,4,0:0:0:0:
308,319,118960,1,0,0:0:0:0:
331,319,119060,1,0,0:0:0:0:
352,311,119160,2,0,P|367:269|360:225,1,90,8|0,1:2|2:0,0:0:0:0:
320,124,119560,1,4,0:0:0:0:
183,170,119760,6,0,B|160:187|154:211|154:211|140:83,1,180,2|0,0:0|0:0,0:0:0:0:
238,37,120360,1,4,0:0:0:0:
238,37,120560,1,2,0:0:0:0:
183,170,120760,2,0,L|183:298,1,90,8|4,1:2|0:0,0:0:0:0:
278,200,120960,2,0,L|278:292,1,90.4499957215121
183,260,121360,1,0,0:0:0:0:
408,36,121560,6,0,L|408:360,1,315,2|0,0:0|0:0,0:0:0:0:
323,103,121760,1,0,0:0:0:0:
238,37,121960,2,0,P|194:28|151:42,1,90,4|0,0:0|2:0,0:0:0:0:
112,124,122260,1,0,0:0:0:0:
111,136,122360,2,0,L|121:239,1,90,8|0,1:2|0:0,0:0:0:0:
200,297,122760,1,4,0:0:0:0:
267,169,122960,6,0,B|269:149|269:149|267:169|267:169|273:125|271:112|250:80|227:72|226:48|252:2,1,180,2|0,0:0|0:0,0:0:0:0:
199,139,123560,1,4,0:0:0:0:
199,139,123760,1,2,0:0:0:0:
306,43,123960,1,8,1:2:0:0:
335,183,124160,1,0,0:0:0:0:
199,139,124360,2,0,L|202:135,1,4.5,4|0,0:0|0:0,0:0:0:0:
306,43,124560,1,0,0:0:0:0:
199,139,124760,6,0,P|186:182|196:226,1,90,2|0,0:0|2:0,0:0:0:0:
335,183,125160,1,4,0:0:0:0:
277,276,125360,1,0,0:0:0:0:
281,320,125460,1,0,0:0:0:0:
286,365,125560,2,0,L|277:275,1,90,8|0,1:2|0:0,0:0:0:0:
335,183,125960,1,4,0:0:0:0:
195,225,126160,6,0,P|187:288|286:318,1,180,2|0,0:0|0:0,0:0:0:0:
293,212,126760,1,4,0:0:0:0:
293,212,126960,1,2,0:0:0:0:
195,106,127160,2,0,P|182:62|192:18,1,90,8|0,1:2|2:0,0:0:0:0:
104,36,127560,2,0,P|116:79|106:123,1,90,4|0,0:0|2:0,0:0:0:0:
116,78,127660,1,0,0:0:0:0:
104,351,127960,6,0,L|104:36,1,315,2|0,0:0|0:0,0:0:0:0:
211,337,128160,1,0,0:0:0:0:
318,323,128360,2,0,P|331:279|321:235,1,90,4|0,0:0|2:0,0:0:0:0:
233,220,128660,1,0,0:0:0:0:
225,211,128760,2,0,L|215:121,1,90,8|0,1:2|0:0,0:0:0:0:
321,104,129160,1,4,0:0:0:0:
225,211,129360,6,0,B|234:300|234:300|222:187,1,180,2|0,0:0|0:0,0:0:0:0:
314,271,129960,1,4,0:0:0:0:
314,271,130160,1,2,0:0:0:0:
302,126,130360,2,0,B|293:86|293:86|298:166|298:166|285:87|285:87|290:167|290:167|282:128,3,315,8|0|4|0,1:2|0:0|0:0|0:0,0:0:0:0:
104,36,131160,5,2,0:0:0:0:
408,351,131560,5,0,0:0:0:0:
36,36,131960,5,8,1:2:0:0:
36,36,132160,1,0,0:0:0:0:
476,350,132560,6,0,B|476:349|476:349|477:349|477:349|477:350|477:350|476:350|476:350|476:349|476:349|477:349|477:349|477:350|477:350|476:350|476:350|476:349|476:349|477:349|477:349|477:350|477:350|476:350|476:350|476:349|476:349|477:349|477:349|477:350|477:350|476:350|476:350,1,9,0|0,0:0|3:0,0:0:0:0:
453,310,133960,1,4,0:3:0:0:
453,310,134160,1,8,0:3:0:0:
373,268,134360,6,0,B|356:222|356:202|364:185|379:162|400:158|409:163|423:176|430:192|429:218|424:237|394:256|335:247|324:157,1,270,2|0,0:0|2:0,0:0:0:0:
333,194,134760,5,0,0:0:0:0:
266,133,134960,1,0,0:0:0:0:
393,89,135160,1,8,0:0:0:0:
373,268,135360,1,2,0:0:0:0:
373,268,135560,1,0,2:0:0:0:
200,218,135760,2,0,L|108:227,1,90,2|0,0:0|2:0,0:0:0:0:
207,320,136160,5,2,0:0:0:0:
207,320,136360,2,0,L|296:310,1,90,2|0,0:0|2:0,0:0:0:0:
398,222,136760,2,0,P|404:177|387:135,1,90,8|0,0:0|2:0,0:0:0:0:
308,92,137160,2,0,B|289:83|274:80|259:83|246:99|226:103|203:106|179:92,1,135,4|0,0:2|2:0,0:0:0:0:
137,70,137560,6,0,L|81:210,1,135,2|0,0:0|2:0,0:0:0:0:
137,195,137760,2,0,L|86:69,1,135,0|0,0:0|2:0,0:0:0:0:
86,69,138160,2,0,L|137:195,1,135,0|0,0:0|2:0,0:0:0:0:
86,195,138360,2,0,L|137:70,1,135,8|0,0:0|2:0,0:0:0:0:
221,90,138560,6,0,P|285:100|325:80,1,90,2|0,0:0|2:0,0:0:0:0:
404,185,138960,2,0,P|340:175|300:195,1,90,2|0,0:0|2:0,0:0:0:0:
217,273,139360,6,0,P|260:284|303:274,1,90,2|2,0:0|0:0,0:0:0:0:
217,273,139960,1,8,0:0:0:0:
303,274,140360,2,0,P|259:262|217:273,1,90.4499957215121,4|0,0:2|2:0,0:0:0:0:
190,309,140760,5,2,0:0:0:0:
303,274,140960,2,0,L|394:283,1,90,0|0,0:0|2:0,0:0:0:0:
303,274,141360,1,0,0:0:0:0:
190,309,141560,2,0,L|98:299,1,90,8|0,0:0|2:0,0:0:0:0:
303,274,141760,2,0,P|314:231|304:188,1,90,2|0,0:0|2:0,0:0:0:0:
190,222,142160,2,0,P|179:265|189:308,1,90,2|0,0:0|2:0,0:0:0:0:
303,187,142560,5,2,0:0:0:0:
303,187,142760,2,0,L|303:186|303:186|303:187|303:187|303:186|303:186|303:187|303:187|303:186|303:186|303:187|303:187|303:186|303:186|303:187|303:187|303:186|303:186|303:187|303:187|303:186|303:186|303:187|303:187|303:186|303:186|303:187|303:187|303:186|303:186|303:187|303:187|303:186|303:186|303:187|303:187|303:186|303:186|303:187|303:187|303:186|303:186|303:187|303:187|303:186|303:186|303:187|303:187|303:186|303:186|303:187|303:187|303:186|303:186|303:187|303:187|303:186|303:186|303:187|303:187|303:186|303:186|303:187|303:187|303:186|303:186|303:187|303:187|303:186|303:186|303:187|303:187|303:186|303:186|303:187|303:187|303:186|303:186|303:187|303:187|303:186|303:186|303:187|303:187|303:186|303:186|303:187|303:187|303:186|303:186|303:187|303:187|303:186|303:186|303:187|303:187|303:186|303:186|303:187|303:187|303:186|303:186|303:187|303:187|303:186|303:186|303:187|303:187|303:186|303:186|303:187|303:187|303:186|303:186|303:187|303:187|303:186|303:186|303:187|303:187|303:186|303:186|303:187|303:187|303:186|303:186|303:187|303:187|303:186|303:186|303:187|303:187|303:186|303:186|303:187|303:187|303:186|303:186|303:187|303:187|303:186|303:186|303:187|303:187|303:186|303:186|303:187|303:187|303:186|303:186|303:187|303:187|303:186|303:186|303:187|303:187|303:186|303:186|303:187|303:187|303:186|303:186|303:187|303:187|303:186|303:186|303:187|303:187|303:186|303:186|303:187|303:187|303:186|303:186|303:187|303:187|303:186|303:186|303:187|303:187|303:186|303:186|303:187|303:187|303:186|303:186|303:187|303:187|303:186|303:186|303:187|303:187|303:186|303:186|303:187|303:187|303:186|303:186|303:187|303:187|303:186|303:186|303:187|303:187|303:186|303:186|303:187|303:187|303:186|303:186|303:187|303:187|303:186|303:186|303:187|303:187|303:186|303:186|303:187|303:187|303:186|303:186|303:187|303:187|303:186|303:186|303:187|303:187|303:186|303:186|303:187|303:187|303:186|303:186|303:187|303:187|303:186|303:186|303:187|303:187|303:186|303:186|303:187|303:187|303:186|303:186|303:187|303:187|303:186|303:186|303:187|303:187|303:186|303:186|303:187|303:187|303:186|303:186|303:187|303:187|303:186|303:186|303:187|303:187|303:186|303:186|303:187|303:187|303:186|303:186|303:187|303:187|303:186|303:186|303:187|303:187|303:186|303:186|303:187|303:187|303:186|303:186|303:187|303:187|303:186|303:186|303:187|303:187|303:186|303:186|303:187|303:187|303:186|303:186|303:187|303:187|303:186|303:186|303:187|303:187|303:186|303:186|303:187|303:187|303:186|303:186|303:187|303:187|303:186|303:186|303:187|303:187|303:186|303:186|303:187|303:187|303:186|303:186|303:187|303:187|303:186|303:186|303:187|303:187|303:186|303:186|303:187|303:187|303:186|303:186|303:187|303:187|303:186|303:186|303:187|303:187|303:186|303:186|303:187|303:187|303:186|303:186|303:187|303:187|303:186|303:186|303:187|303:187|303:186|303:186|303:187|303:187|303:186|303:186|303:187|303:187|303:186|303:186|303:187|303:187|303:186|303:186|303:187|303:187|303:186|303:186|303:187|303:187|303:186|303:186|303:187|303:187|303:186|303:186|303:187|303:187|303:186|303:186|303:187|303:187|303:186|303:186|303:187|303:187|303:186|303:186|303:187|303:187|303:186|303:186|303:187|303:187|303:186|303:186|303:187|303:187|303:186|303:186|303:187|303:187|303:186|303:186|303:187|303:187|303:186|303:186|303:187|303:187|303:186|303:186|303:187|303:187|303:186|303:186|303:187|303:187|303:186|303:186|303:187|303:187|303:186|303:186|303:187|303:187|303:186|303:186|303:187|303:187|303:186|303:186|303:187|303:187|303:186|303:186|303:187|303:187|303:186|303:186|303:187|303:187|303:186|303:186|303:187|303:187|303:186|303:186|303:187|303:187|303:186|303:186|303:187|303:187|303:186|303:186|303:187|303:187|303:186|303:186|303:187|303:187|303:186|303:186|303:187|303:187|303:186|303:186|303:187|303:187|303:186|303:186|303:187|303:187|303:186|303:186|303:187|303:187|303:186|303:186|303:187|303:187|303:186|303:186|303:187|303:187|303:186|303:186|303:187|303:187|303:186|303:186|303:187|303:187|303:186|303:186|303:187|303:187|303:186|303:186|303:187|303:187|303:186|303:186|303:187|303:187|303:186|303:186|303:187|303:187|303:186|303:186|303:187|303:187|303:186|303:186|303:187|303:187|303:186|303:186|303:187|303:187|303:186|303:186|303:187|303:187|303:186|303:186|303:187|303:187|303:186|303:186|303:187|303:187|303:186|303:186|303:187|303:187|303:186|303:186|303:187|303:187|303:186|303:186|303:187|303:187|303:186|303:186|303:187|303:187|303:186|303:186|303:187|303:187|303:186|303:186|303:187|303:187|303:186|303:186|303:187|303:187|303:186|303:186|303:187|303:187|303:186|303:186|303:187|303:187|303:186|303:186|303:187|303:187|303:186|303:186|303:187|303:187|303:186|303:186|303:187|303:187|303:186|303:186|303:187|303:187|303:186|303:186|303:187|303:187|303:186|303:186|303:187|303:187|303:186|303:186|303:187|303:187|303:186|303:186|303:187|303:187|303:186|303:186|303:187|303:187|303:186|303:186|303:187|303:187|303:186|303:186|303:187|303:187|303:186|303:186|303:187|303:187|303:186|303:186|303:187|303:187|303:186|303:186|303:187|303:187|303:186|303:186|303:187|303:187|303:186|303:186|303:187|303:187|303:186|303:186|303:187|303:187|303:186|303:186|303:187|303:187|303:186|303:186|303:187|303:187|303:186|303:186|303:187|303:187|303:186|303:186|303:187|303:187|303:186|303:186|303:187|303:187|303:186|303:186|303:187|303:187|303:186|303:186|303:187|303:187|303:186|303:186|303:187|303:187|303:186|303:186|303:187|303:187|303:186|303:186|303:187|303:187|303:186|303:186|303:187|303:187|303:186|303:186|303:187|303:187|303:186|303:186|303:187|303:187|303:186|303:186|303:187|303:187|303:186|303:186|303:187|303:187|303:186|303:186|303:187|303:187|303:186|303:186|303:187|303:187|303:186|303:186|303:187|303:187|303:186|303:186|303:187|303:187|303:186|303:186|303:187|303:187|292:84,1,450,2|0,0:0|2:0,0:0:0:0:
163,136,143160,1,8,0:0:0:0:
190,222,143360,1,0,0:0:0:0:
267,175,143560,2,0,B|292:157|292:157|298:169|298:169|319:168|319:168|304:187,1,90,4|0,0:2|2:0,0:0:0:0:
416,264,143960,6,0,P|385:146|267:175,1,270,2|0,0:0|2:0,0:0:0:0:
267,174,144160,2,0,P|297:292|416:263,1,270,0|0,0:0|2:0,0:0:0:0:
267,174,144560,2,0,P|148:145|117:263,1,270,0|0,0:0|2:0,0:0:0:0:
116,262,144760,2,0,P|233:292|266:174,1,270,8|0,0:0|2:0,0:0:0:0:
205,112,144960,6,0,P|194:69|204:26,1,90,2|0,0:0|2:0,0:0:0:0:
319,96,145360,2,0,P|330:139|320:182,1,90,2|0,0:0|2:0,0:0:0:0:
270,278,145760,6,0,P|290:268|305:252,1,45,2|0,0:0|2:0,0:0:0:0:
305,252,145960,2,0,P|203:126|322:205,1,450,2|0,0:0|2:0,0:0:0:0:
326,220,146360,1,8,0:0:0:0:
270,278,146560,1,0,0:0:0:0:
239,201,146760,2,0,B|232:129|232:129|253:139,1,90,4|0,0:2|2:0,0:0:0:0:
415,234,147160,6,0,L|239:201,1,180,0|0,2:0|3:0,0:0:0:0:
121,337,147360,6,0,L|238:200,1,180,0|0,2:0|3:0,0:0:0:0:
179,30,147560,6,0,L|239:201,1,180,0|8,2:0|0:0,0:0:0:0:
340,111,148160,6,0,L|435:100,1,90,2|0,0:0|2:0,0:0:0:0:
454,234,148560,2,0,L|358:244,1,90,2|0,0:0|2:0,0:0:0:0:
238,199,148960,6,0,L|178:29,1,180,2|0,0:0|2:0,0:0:0:0:
238,199,149160,2,0,L|121:336,1,180,2|0,2:0|2:0,0:0:0:0:
238,199,149560,2,0,L|414:232,1,180,8|0,0:0|3:0,0:0:0:0:
414,232,149960,6,0,B|441:216|441:216|425:188|398:204|398:204|382:176|409:160|409:160|393:132|366:148|366:148|350:121|377:105|377:105|361:77|334:93|334:93|318:65|345:49|345:49|329:22|302:38,1,364.864864864865,0|0,0:0|2:0,0:0:0:0:
282,27,150360,5,2,0:0:0:0:
150,58,150560,2,0,L|282:27,1,135,0|0,0:0|2:0,0:0:0:0:
242,156,150960,1,0,0:0:0:0:
150,58,151160,2,0,L|242:156,1,135,8|2,0:0|0:0,0:0:0:0:
110,138,151560,2,0,L|48:72,1,90,0|2,2:0|0:0,0:0:0:0:
149,57,151960,2,0,L|110:138,1,90,0|2,2:0|0:0,0:0:0:0:
150,250,152360,6,0,P|193:261|236:251,1,90,2|8,0:0|0:0,0:0:0:0:
238,109,152560,2,0,P|206:140|194:182,1,90,0|0,2:0|2:0,0:0:0:0:
316,255,152960,2,0,P|304:212|273:180,1,90,0|0,2:0|2:0,0:0:0:0:
150,250,153560,6,0,B|15:264|15:264|150:250,1,270.000010299683,2|0,0:0|2:0,0:0:0:0:
15,264,153760,2,0,B|150:250|150:250|15:264,1,270.000010299683,0|0,0:0|2:0,0:0:0:0:
59,168,154160,2,0,L|194:182,1,135.000005149842,0|0,0:0|2:0,0:0:0:0:
193,182,154360,2,0,L|37:165,1,135.000005149842,8|0,0:0|2:0,0:0:0:0:
104,100,154560,6,0,L|199:89,1,90,2|0,0:0|2:0,0:0:0:0:
282,191,154960,2,0,L|186:180,1,90,2|0,0:0|2:0,0:0:0:0:
104,282,155360,5,2,0:0:0:0:
104,282,155560,2,0,L|193:271,1,90,2|0,0:0|2:0,0:0:0:0:
282,373,155960,2,0,L|186:362,1,90,8|0,0:0|2:0,0:0:0:0:
104,282,156360,2,0,B|155:275|155:275|146:276|146:276|181:272|181:272|156:275|156:275|188:271|188:271|172:273|172:273|192:270|192:270|282:373|282:373|180:361,1,416.409647207552,0|0,0:0|2:0,0:0:0:0:
166,355,156760,5,2,0:0:0:0:
193,270,156960,2,0,P|200:226|186:184,1,90,0|2,0:0|0:0,0:0:0:0:
52,111,157360,1,0,0:0:0:0:
25,196,157560,2,0,P|18:240|32:282,1,90,8|2,0:0|0:0,0:0:0:0:
109,233,157960,1,0,2:0:0:0:
185,183,158360,6,0,L|275:183,1,90,0|0,0:0|3:0,0:0:0:0:
275,183,158560,2,0,L|275:273,1,90,2|0,0:0|3:0,0:0:0:0:
275,273,158760,2,0,L|185:273,1,90,2|0,0:0|3:0,0:0:0:0:
185,273,158960,2,0,L|185:183,1,90,0|0,0:0|3:0,0:0:0:0:
185,183,159160,2,0,B|275:183|275:183|275:273|275:273|185:273|185:273|185:183,1,360,8|0,0:0|3:0,0:0:0:0:
275,183,159360,2,0,B|275:273|275:273|185:273|185:273|185:183|185:183|275:183,1,360,0|0,0:0|3:0,0:0:0:0:
275,273,159560,2,0,B|185:273|185:273|185:183|185:183|275:183|275:183|275:273,1,360,0|0,0:0|3:0,0:0:0:0:
185,273,159760,2,0,B|185:183|185:183|275:183|275:183|275:273|275:273|185:273,1,360,0|0,0:0|3:0,0:0:0:0:
185,183,159960,6,0,L|275:183,1,90,2|0,0:0|0:0,0:0:0:0:
342,98,160360,2,0,L|252:98,1,90,4|0,0:0|0:0,0:0:0:0:
185,183,160760,1,8,1:2:0:0:
250,268,160960,2,0,P|257:311|243:354,1,90,2|4,0:0|0:0,0:0:0:0:
185,183,161360,6,0,P|203:119|308:122,1,180,2|0,0:0|0:0,0:0:0:0:
384,187,161960,2,0,P|424:206|468:205,1,90,4|0,0:0|0:0,0:0:0:0:
384,46,162360,1,8,1:2:0:0:
302,116,162560,1,0,0:0:0:0:
347,288,162760,1,4,0:0:0:0:
384,187,162960,1,0,0:0:0:0:
212,242,163160,6,0,L|112:231,1,90,2|0,0:0|0:0,0:0:0:0:
202,159,163560,2,0,L|291:168,1,90,4|0,0:0|0:0,0:0:0:0:
354,256,163960,1,8,1:2:0:0:
202,159,164160,5,2,0:0:0:0:
263,70,164360,1,4,0:0:0:0:
270,249,164560,2,0,B|271:274|267:307|248:344|231:360|210:371|210:371|195:310,1,180,2|0,0:0|0:0,0:0:0:0:
182,229,165160,2,0,L|171:129,1,90,4|0,0:0|0:0,0:0:0:0:
208,76,165560,1,8,1:2:0:0:
280,74,165960,1,4,0:0:0:0:
317,135,166360,6,0,P|328:177|318:220,1,90,2|0,0:0|0:0,0:0:0:0:
218,178,166760,2,0,P|206:135|216:92,1,90,4|0,0:0|0:0,0:0:0:0:
317,135,167160,1,8,1:2:0:0:
218,178,167360,2,0,L|114:188,1,90,2|4,0:0|0:0,0:0:0:0:
260,311,167760,6,0,L|442:291,1,180,2|0,0:0|0:0,0:0:0:0:
500,202,168360,2,0,L|490:98,1,90,4|0,0:0|0:0,0:0:0:0:
317,65,168760,1,8,1:2:0:0:
305,171,168960,1,0,0:0:0:0:
130,218,169160,1,4,0:0:0:0:
118,112,169360,1,0,0:0:0:0:
233,249,169560,6,0,P|244:291|234:334,1,90,2|0,0:0|0:0,0:0:0:0:
130,304,169960,2,0,P|119:262|129:219,1,90,4|0,0:0|0:0,0:0:0:0:
233,249,170360,1,8,1:2:0:0:
231,69,170560,5,2,0:0:0:0:
185,166,170760,1,4,0:0:0:0:
359,211,170960,2,0,B|392:215|427:213|457:196|475:165|475:165|486:190|495:217,1,180,2|0,0:0|0:0,0:0:0:0:
433,340,171560,5,4,0:0:0:0:
363,322,171960,1,8,1:2:0:0:
413,270,172360,1,4,0:0:0:0:
433,340,172760,6,0,B|364:340|364:340|351:314|324:302|300:305|277:314|268:334,1,180,2|0,0:0|3:0,0:0:0:0:
271,328,175960,1,2,0:0:0:0:
304,237,179160,6,0,B|191:211|191:211|271:126|271:126|284:168,1,270,2|0,0:0|3:0,0:0:0:0:
282,162,182360,1,2,0:0:0:0:
135,141,185560,6,0,B|127:109|87:93|43:113|8:165|87:227|99:241|202:261|228:175|209:116|195:100,1,360,2|0,0:0|3:0,0:0:0:0:
197,103,188760,1,2,0:0:0:0:
428,84,191960,6,0,B|431:106|416:154|375:184|352:187|352:187|430:243|430:243|408:247|366:276|351:325|355:347,1,360,2|0,0:0|3:0,0:0:0:0:
354,336,195160,2,0,L|353:336,1,1.125,0|0,0:0|3:0,0:0:0:0:
