osu file format v14

[General]
AudioFilename: gachi.mp3
AudioLeadIn: 0
PreviewTime: 18392
Countdown: 0
SampleSet: Normal
StackLeniency: 0.7
Mode: 3
LetterboxInBreaks: 0
SpecialStyle: 0
WidescreenStoryboard: 0

[Editor]
DistanceSpacing: 0.8
BeatDivisor: 16
GridSize: 32
TimelineZoom: 1

[Metadata]
Title:GACHI DOCTOR
TitleUnicode:♂ GACHI ♂ DOCTOR ♂
Artist:NymN
ArtistUnicode:NymN
Creator:riktoi
Version:Hard
Source:
Tags:loud megaphone
BeatmapID:1905267
BeatmapSetID:912016

[Difficulty]
HPDrainRate:8
CircleSize:4
OverallDifficulty:9
ApproachRate:5
SliderMultiplier:1.4
SliderTickRate:1

[Events]
//Background and Video events
0,0,"bg.png",0,0
//Break Periods
//Storyboard Layer 0 (Background)
//Storyboard Layer 1 (Fail)
//Storyboard Layer 2 (Pass)
//Storyboard Layer 3 (Foreground)
//Storyboard Sound Samples

[TimingPoints]
2538,441.176471,4,1,0,45,1,0

[HitObjects]
320,192,2538,128,0,2758:0:0:0:0:
192,192,2538,128,0,2758:0:0:0:0:
448,192,2979,128,0,3199:0:0:0:0:
192,192,2979,128,0,3199:0:0:0:0:
448,192,3420,1,0,0:0:0:0:
64,192,3420,1,0,0:0:0:0:
192,192,3640,1,0,0:0:0:0:
320,192,3861,128,0,4082:0:0:0:0:
192,192,3861,128,0,3971:0:0:0:0:
448,192,4302,128,0,4413:0:0:0:0:
64,192,4302,128,0,4413:0:0:0:0:
320,192,4743,128,0,4854:0:0:0:0:
64,192,4743,128,0,4854:0:0:0:0:
448,192,5185,1,0,0:0:0:0:
320,192,5185,1,0,0:0:0:0:
192,192,5295,1,0,0:0:0:0:
64,192,5295,1,0,0:0:0:0:
448,192,5405,1,0,0:0:0:0:
320,192,5405,1,0,0:0:0:0:
192,192,5515,1,0,0:0:0:0:
64,192,5515,1,0,0:0:0:0:
320,192,5626,128,0,5736:0:0:0:0:
192,192,5846,128,0,5957:0:0:0:0:
320,192,6067,128,0,6288:0:0:0:0:
192,192,6067,128,0,6288:0:0:0:0:
448,192,6508,128,0,6729:0:0:0:0:
192,192,6508,128,0,6729:0:0:0:0:
448,192,6949,1,0,0:0:0:0:
64,192,6949,1,0,0:0:0:0:
192,192,7170,1,0,0:0:0:0:
64,192,7170,1,0,0:0:0:0:
192,192,7390,1,0,0:0:0:0:
64,192,7390,1,0,0:0:0:0:
448,192,7611,1,0,0:0:0:0:
320,192,7611,1,0,0:0:0:0:
448,192,7832,1,0,0:0:0:0:
192,192,7832,1,0,0:0:0:0:
192,192,8052,1,0,0:0:0:0:
64,192,8052,1,0,0:0:0:0:
448,192,8163,1,0,0:0:0:0:
320,192,8163,1,0,0:0:0:0:
192,192,8273,1,0,0:0:0:0:
64,192,8273,1,0,0:0:0:0:
448,192,8383,1,0,0:0:0:0:
320,192,8383,1,0,0:0:0:0:
192,192,8493,128,0,8604:0:0:0:0:
64,192,8493,128,0,8604:0:0:0:0:
192,192,8714,128,0,9045:0:0:0:0:
64,192,8714,128,0,9045:0:0:0:0:
448,192,9155,128,0,9376:0:0:0:0:
320,192,9155,128,0,9265:0:0:0:0:
192,192,9376,128,0,9486:0:0:0:0:
448,192,9596,1,0,0:0:0:0:
64,192,9596,1,0,0:0:0:0:
448,192,9817,1,0,0:0:0:0:
320,192,9817,1,0,0:0:0:0:
192,192,10038,1,0,0:0:0:0:
64,192,10038,1,0,0:0:0:0:
448,192,10258,1,0,0:0:0:0:
320,192,10258,1,0,0:0:0:0:
320,192,10479,1,0,0:0:0:0:
192,192,10479,1,0,0:0:0:0:
448,192,10699,1,0,0:0:0:0:
320,192,10699,1,0,0:0:0:0:
192,192,10920,1,0,0:0:0:0:
64,192,10920,1,0,0:0:0:0:
448,192,11140,1,0,0:0:0:0:
320,192,11140,1,0,0:0:0:0:
448,192,11361,1,0,0:0:0:0:
192,192,11361,1,0,0:0:0:0:
448,192,11582,1,0,0:0:0:0:
320,192,11582,1,0,0:0:0:0:
320,192,11802,1,0,0:0:0:0:
64,192,11802,1,0,0:0:0:0:
448,192,12023,1,0,0:0:0:0:
320,192,12023,1,0,0:0:0:0:
192,192,12243,1,0,0:0:0:0:
64,192,12243,1,0,0:0:0:0:
448,192,12464,1,0,0:0:0:0:
320,192,12464,1,0,0:0:0:0:
448,192,12685,1,0,0:0:0:0:
320,192,12685,1,0,0:0:0:0:
192,192,12685,1,0,0:0:0:0:
448,192,12905,1,0,0:0:0:0:
320,192,12905,1,0,0:0:0:0:
448,192,13126,1,0,0:0:0:0:
64,192,13126,1,0,0:0:0:0:
448,192,13346,1,0,0:0:0:0:
320,192,13346,1,0,0:0:0:0:
192,192,13567,1,0,0:0:0:0:
64,192,13567,1,0,0:0:0:0:
448,192,13788,1,0,0:0:0:0:
320,192,13788,1,0,0:0:0:0:
320,192,14008,1,0,0:0:0:0:
192,192,14008,1,0,0:0:0:0:
448,192,14229,1,0,0:0:0:0:
320,192,14229,1,0,0:0:0:0:
192,192,14449,1,0,0:0:0:0:
64,192,14449,1,0,0:0:0:0:
448,192,14670,1,0,0:0:0:0:
320,192,14670,1,0,0:0:0:0:
448,192,14890,1,0,0:0:0:0:
192,192,14890,1,0,0:0:0:0:
448,192,15111,1,0,0:0:0:0:
320,192,15111,1,0,0:0:0:0:
192,192,15221,1,0,0:0:0:0:
64,192,15332,1,0,0:0:0:0:
192,192,15442,1,0,0:0:0:0:
448,192,15552,1,0,0:0:0:0:
320,192,15552,1,0,0:0:0:0:
192,192,15773,1,0,0:0:0:0:
64,192,15773,1,0,0:0:0:0:
448,192,15993,1,0,0:0:0:0:
320,192,15993,1,0,0:0:0:0:
448,192,16214,1,0,0:0:0:0:
320,192,16214,1,0,0:0:0:0:
192,192,16214,1,0,0:0:0:0:
448,192,16435,1,0,0:0:0:0:
320,192,16435,1,0,0:0:0:0:
192,192,16655,128,0,16876:0:0:0:0:
64,192,16655,128,0,16876:0:0:0:0:
192,192,17096,128,0,17317:0:0:0:0:
64,192,17096,128,0,17317:0:0:0:0:
320,192,17427,1,0,0:0:0:0:
192,192,17538,128,0,17648:0:0:0:0:
64,192,17538,128,0,17648:0:0:0:0:
448,192,17758,128,0,17868:0:0:0:0:
320,192,17758,128,0,17868:0:0:0:0:
320,192,17979,128,0,18089:0:0:0:0:
448,192,17979,128,0,18089:0:0:0:0:
64,192,17979,128,0,18199:0:0:0:0:
192,192,17979,128,0,18199:0:0:0:0:
320,192,18420,1,0,0:0:0:0:
192,192,18420,128,0,18640:0:0:0:0:
64,192,18420,128,0,18640:0:0:0:0:
448,192,18640,1,0,0:0:0:0:
320,192,18640,1,0,0:0:0:0:
448,192,18861,128,0,19082:0:0:0:0:
192,192,18861,128,0,19082:0:0:0:0:
64,192,18861,1,0,0:0:0:0:
320,192,19082,1,0,0:0:0:0:
64,192,19082,1,0,0:0:0:0:
448,192,19302,1,0,0:0:0:0:
64,192,19302,1,0,0:0:0:0:
192,192,19523,1,0,0:0:0:0:
64,192,19523,1,0,0:0:0:0:
448,192,19743,1,0,0:0:0:0:
320,192,19743,128,0,19964:0:0:0:0:
192,192,19743,128,0,19854:0:0:0:0:
448,192,19964,1,0,0:0:0:0:
64,192,19964,1,0,0:0:0:0:
448,192,20185,128,0,20295:0:0:0:0:
192,192,20185,1,0,0:0:0:0:
64,192,20185,128,0,20295:0:0:0:0:
448,192,20405,1,0,0:0:0:0:
320,192,20405,1,0,0:0:0:0:
320,192,20626,128,0,20736:0:0:0:0:
192,192,20626,1,0,0:0:0:0:
64,192,20626,128,0,20736:0:0:0:0:
192,192,20846,1,0,0:0:0:0:
64,192,20846,1,0,0:0:0:0:
448,192,21067,1,0,0:0:0:0:
320,192,21067,1,0,0:0:0:0:
448,192,21177,1,0,0:0:0:0:
320,192,21177,1,0,0:0:0:0:
192,192,21288,1,0,0:0:0:0:
64,192,21288,1,0,0:0:0:0:
192,192,21398,1,0,0:0:0:0:
64,192,21398,1,0,0:0:0:0:
448,192,21508,1,0,0:0:0:0:
320,192,21508,128,0,21618:0:0:0:0:
192,192,21729,128,0,21839:0:0:0:0:
320,192,21949,1,0,0:0:0:0:
192,192,21949,128,0,22170:0:0:0:0:
64,192,21949,128,0,22170:0:0:0:0:
448,192,22170,1,0,0:0:0:0:
320,192,22170,1,0,0:0:0:0:
448,192,22390,128,0,22611:0:0:0:0:
192,192,22390,128,0,22611:0:0:0:0:
64,192,22390,1,0,0:0:0:0:
320,192,22611,1,0,0:0:0:0:
64,192,22611,1,0,0:0:0:0:
448,192,22832,1,0,0:0:0:0:
320,192,22832,1,0,0:0:0:0:
64,192,22832,1,0,0:0:0:0:
192,192,23052,1,0,0:0:0:0:
64,192,23052,1,0,0:0:0:0:
320,192,23273,1,0,0:0:0:0:
192,192,23273,1,0,0:0:0:0:
64,192,23273,1,0,0:0:0:0:
448,192,23493,1,0,0:0:0:0:
320,192,23493,1,0,0:0:0:0:
64,192,23493,1,0,0:0:0:0:
448,192,23714,1,0,0:0:0:0:
320,192,23714,1,0,0:0:0:0:
192,192,23714,1,0,0:0:0:0:
192,192,23935,1,0,0:0:0:0:
64,192,23935,1,0,0:0:0:0:
448,192,24045,1,0,0:0:0:0:
320,192,24045,1,0,0:0:0:0:
192,192,24155,1,0,0:0:0:0:
64,192,24155,1,0,0:0:0:0:
448,192,24265,1,0,0:0:0:0:
320,192,24265,1,0,0:0:0:0:
192,192,24376,128,0,24486:0:0:0:0:
64,192,24376,128,0,24486:0:0:0:0:
192,192,24596,128,0,24927:0:0:0:0:
64,192,24596,128,0,24927:0:0:0:0:
448,192,24817,1,0,0:0:0:0:
320,192,24817,1,0,0:0:0:0:
448,192,25038,128,0,25258:0:0:0:0:
192,192,25038,128,0,25148:0:0:0:0:
320,192,25258,128,0,25368:0:0:0:0:
64,192,25258,1,0,0:0:0:0:
320,192,25479,1,0,0:0:0:0:
192,192,25479,128,0,25699:0:0:0:0:
64,192,25479,128,0,25699:0:0:0:0:
448,192,25699,1,0,0:0:0:0:
320,192,25699,1,0,0:0:0:0:
448,192,25920,128,0,26140:0:0:0:0:
192,192,25920,128,0,26140:0:0:0:0:
64,192,25920,1,0,0:0:0:0:
320,192,26140,1,0,0:0:0:0:
64,192,26140,1,0,0:0:0:0:
448,192,26361,1,0,0:0:0:0:
64,192,26361,1,0,0:0:0:0:
192,192,26582,1,0,0:0:0:0:
64,192,26582,1,0,0:0:0:0:
448,192,26802,1,0,0:0:0:0:
320,192,26802,128,0,27023:0:0:0:0:
192,192,26802,128,0,26913:0:0:0:0:
448,192,27023,1,0,0:0:0:0:
64,192,27023,1,0,0:0:0:0:
448,192,27243,128,0,27354:0:0:0:0:
192,192,27243,1,0,0:0:0:0:
64,192,27243,128,0,27354:0:0:0:0:
448,192,27464,1,0,0:0:0:0:
320,192,27464,1,0,0:0:0:0:
320,192,27685,128,0,27795:0:0:0:0:
192,192,27685,1,0,0:0:0:0:
64,192,27685,128,0,27795:0:0:0:0:
192,192,27905,1,0,0:0:0:0:
64,192,27905,1,0,0:0:0:0:
448,192,28126,1,0,0:0:0:0:
320,192,28126,1,0,0:0:0:0:
448,192,28236,1,0,0:0:0:0:
320,192,28236,1,0,0:0:0:0:
192,192,28346,1,0,0:0:0:0:
64,192,28346,1,0,0:0:0:0:
192,192,28457,1,0,0:0:0:0:
64,192,28457,1,0,0:0:0:0:
448,192,28567,1,0,0:0:0:0:
320,192,28567,128,0,28677:0:0:0:0:
192,192,28788,128,0,28898:0:0:0:0:
320,192,29008,1,0,0:0:0:0:
192,192,29008,128,0,29229:0:0:0:0:
64,192,29008,128,0,29229:0:0:0:0:
448,192,29229,1,0,0:0:0:0:
320,192,29229,1,0,0:0:0:0:
448,192,29449,128,0,29670:0:0:0:0:
192,192,29449,128,0,29670:0:0:0:0:
64,192,29449,1,0,0:0:0:0:
320,192,29670,1,0,0:0:0:0:
64,192,29670,1,0,0:0:0:0:
448,192,29890,1,0,0:0:0:0:
320,192,29890,1,0,0:0:0:0:
64,192,29890,1,0,0:0:0:0:
192,192,30111,1,0,0:0:0:0:
64,192,30111,1,0,0:0:0:0:
320,192,30332,1,0,0:0:0:0:
192,192,30332,1,0,0:0:0:0:
64,192,30332,1,0,0:0:0:0:
448,192,30552,1,0,0:0:0:0:
320,192,30552,1,0,0:0:0:0:
64,192,30552,1,0,0:0:0:0:
448,192,30773,1,0,0:0:0:0:
320,192,30773,1,0,0:0:0:0:
192,192,30773,1,0,0:0:0:0:
192,192,30993,1,0,0:0:0:0:
64,192,30993,1,0,0:0:0:0:
448,192,31104,1,0,0:0:0:0:
320,192,31104,1,0,0:0:0:0:
192,192,31214,1,0,0:0:0:0:
64,192,31214,1,0,0:0:0:0:
448,192,31324,1,0,0:0:0:0:
320,192,31324,1,0,0:0:0:0:
192,192,31435,128,0,31545:0:0:0:0:
64,192,31435,128,0,31545:0:0:0:0:
192,192,31655,128,0,31986:0:0:0:0:
64,192,31655,128,0,31986:0:0:0:0:
448,192,31876,1,0,0:0:0:0:
320,192,31876,1,0,0:0:0:0:
448,192,32096,128,0,32317:0:0:0:0:
192,192,32096,128,0,32207:0:0:0:0:
320,192,32317,128,0,32427:0:0:0:0:
64,192,32317,1,0,0:0:0:0:
192,192,32538,1,0,0:0:0:0:
192,192,32979,1,0,0:0:0:0:
320,192,33420,1,0,0:0:0:0:
192,192,33420,1,0,0:0:0:0:
448,192,33640,1,0,0:0:0:0:
320,192,33861,1,0,0:0:0:0:
448,192,34082,1,0,0:0:0:0:
320,192,34302,1,0,0:0:0:0:
192,192,34302,1,0,0:0:0:0:
64,192,34302,1,0,0:0:0:0:
192,192,34523,1,0,0:0:0:0:
448,192,34743,1,0,0:0:0:0:
320,192,35074,1,0,0:0:0:0:
192,192,35185,1,0,0:0:0:0:
320,192,35405,1,0,0:0:0:0:
448,192,35626,1,0,0:0:0:0:
64,192,35626,1,0,0:0:0:0:
320,192,35736,1,0,0:0:0:0:
192,192,35846,1,0,0:0:0:0:
320,192,36067,1,0,0:0:0:0:
192,192,36067,1,0,0:0:0:0:
448,192,36288,1,0,0:0:0:0:
64,192,36288,1,0,0:0:0:0:
192,192,36398,1,0,0:0:0:0:
320,192,36508,1,0,0:0:0:0:
64,192,36508,1,0,0:0:0:0:
192,192,36949,1,0,0:0:0:0:
64,192,36949,1,0,0:0:0:0:
448,192,37170,1,0,0:0:0:0:
192,192,37170,1,0,0:0:0:0:
320,192,37390,1,0,0:0:0:0:
64,192,37390,1,0,0:0:0:0:
448,192,37611,1,0,0:0:0:0:
192,192,37611,1,0,0:0:0:0:
320,192,37832,1,0,0:0:0:0:
448,192,37832,1,0,0:0:0:0:
64,192,37832,1,0,0:0:0:0:
192,192,37832,1,0,0:0:0:0:
192,192,38052,1,0,0:0:0:0:
448,192,38273,1,0,0:0:0:0:
192,192,38714,1,0,0:0:0:0:
64,192,38714,1,0,0:0:0:0:
448,192,38824,1,0,0:0:0:0:
320,192,38935,1,0,0:0:0:0:
448,192,39155,1,0,0:0:0:0:
192,192,39155,1,0,0:0:0:0:
64,192,39486,1,0,0:0:0:0:
448,192,39707,1,0,0:0:0:0:
320,192,39707,1,0,0:0:0:0:
192,192,39817,1,0,0:0:0:0:
64,192,39817,1,0,0:0:0:0:
320,192,40038,1,0,0:0:0:0:
64,192,40038,1,0,0:0:0:0:
448,192,40258,1,0,0:0:0:0:
320,192,40258,1,0,0:0:0:0:
192,192,40258,1,0,0:0:0:0:
448,192,40479,1,0,0:0:0:0:
192,192,40479,1,0,0:0:0:0:
64,192,40479,1,0,0:0:0:0:
448,192,40699,1,0,0:0:0:0:
320,192,40699,1,0,0:0:0:0:
192,192,40920,1,0,0:0:0:0:
64,192,40920,1,0,0:0:0:0:
448,192,41140,1,0,0:0:0:0:
320,192,41140,1,0,0:0:0:0:
320,192,41361,1,0,0:0:0:0:
448,192,41361,1,0,0:0:0:0:
64,192,41361,1,0,0:0:0:0:
192,192,41361,1,0,0:0:0:0:
64,192,41582,1,0,0:0:0:0:
448,192,41802,1,0,0:0:0:0:
320,192,42133,1,0,0:0:0:0:
192,192,42243,1,0,0:0:0:0:
64,192,42243,1,0,0:0:0:0:
448,192,42409,1,0,0:0:0:0:
320,192,42574,1,0,0:0:0:0:
192,192,42574,1,0,0:0:0:0:
64,192,42832,1,0,0:0:0:0:
320,192,43126,1,0,0:0:0:0:
192,192,43126,1,0,0:0:0:0:
448,192,43346,1,0,0:0:0:0:
64,192,43346,1,0,0:0:0:0:
320,192,43567,1,0,0:0:0:0:
64,192,43567,1,0,0:0:0:0:
448,192,43788,1,0,0:0:0:0:
192,192,43788,1,0,0:0:0:0:
448,192,44008,1,0,0:0:0:0:
320,192,44008,1,0,0:0:0:0:
64,192,44008,1,0,0:0:0:0:
192,192,44229,1,0,0:0:0:0:
320,192,44449,1,0,0:0:0:0:
64,192,44449,1,0,0:0:0:0:
448,192,44670,1,0,0:0:0:0:
192,192,44670,1,0,0:0:0:0:
320,192,44890,1,0,0:0:0:0:
192,192,44890,128,0,45111:0:0:0:0:
64,192,44890,128,0,45111:0:0:0:0:
448,192,45111,1,0,0:0:0:0:
320,192,45111,1,0,0:0:0:0:
448,192,45332,128,0,45552:0:0:0:0:
192,192,45332,128,0,45552:0:0:0:0:
64,192,45332,1,0,0:0:0:0:
320,192,45552,1,0,0:0:0:0:
64,192,45552,1,0,0:0:0:0:
448,192,45773,1,0,0:0:0:0:
64,192,45773,1,0,0:0:0:0:
192,192,45993,1,0,0:0:0:0:
64,192,45993,1,0,0:0:0:0:
448,192,46214,1,0,0:0:0:0:
320,192,46214,128,0,46435:0:0:0:0:
192,192,46214,128,0,46324:0:0:0:0:
448,192,46435,1,0,0:0:0:0:
64,192,46435,1,0,0:0:0:0:
448,192,46655,128,0,46765:0:0:0:0:
192,192,46655,1,0,0:0:0:0:
64,192,46655,128,0,46765:0:0:0:0:
448,192,46876,1,0,0:0:0:0:
320,192,46876,1,0,0:0:0:0:
320,192,47096,128,0,47207:0:0:0:0:
192,192,47096,1,0,0:0:0:0:
64,192,47096,128,0,47207:0:0:0:0:
192,192,47317,1,0,0:0:0:0:
64,192,47317,1,0,0:0:0:0:
448,192,47538,1,0,0:0:0:0:
320,192,47538,1,0,0:0:0:0:
448,192,47648,1,0,0:0:0:0:
320,192,47648,1,0,0:0:0:0:
192,192,47758,1,0,0:0:0:0:
64,192,47758,1,0,0:0:0:0:
192,192,47868,1,0,0:0:0:0:
64,192,47868,1,0,0:0:0:0:
448,192,47979,1,0,0:0:0:0:
320,192,47979,128,0,48089:0:0:0:0:
192,192,48199,128,0,48310:0:0:0:0:
320,192,48420,1,0,0:0:0:0:
192,192,48420,128,0,48640:0:0:0:0:
64,192,48420,128,0,48640:0:0:0:0:
448,192,48640,1,0,0:0:0:0:
320,192,48640,1,0,0:0:0:0:
448,192,48861,128,0,49082:0:0:0:0:
192,192,48861,128,0,49082:0:0:0:0:
64,192,48861,1,0,0:0:0:0:
320,192,49082,1,0,0:0:0:0:
64,192,49082,1,0,0:0:0:0:
448,192,49302,1,0,0:0:0:0:
320,192,49302,1,0,0:0:0:0:
64,192,49302,1,0,0:0:0:0:
192,192,49523,1,0,0:0:0:0:
64,192,49523,1,0,0:0:0:0:
320,192,49743,1,0,0:0:0:0:
192,192,49743,1,0,0:0:0:0:
64,192,49743,1,0,0:0:0:0:
448,192,49964,1,0,0:0:0:0:
320,192,49964,1,0,0:0:0:0:
64,192,49964,1,0,0:0:0:0:
448,192,50185,1,0,0:0:0:0:
320,192,50185,1,0,0:0:0:0:
192,192,50185,1,0,0:0:0:0:
192,192,50405,1,0,0:0:0:0:
64,192,50405,1,0,0:0:0:0:
448,192,50515,1,0,0:0:0:0:
320,192,50515,1,0,0:0:0:0:
192,192,50626,1,0,0:0:0:0:
64,192,50626,1,0,0:0:0:0:
448,192,50736,1,0,0:0:0:0:
320,192,50736,1,0,0:0:0:0:
192,192,50846,128,0,50957:0:0:0:0:
64,192,50846,128,0,50957:0:0:0:0:
192,192,51067,128,0,51398:0:0:0:0:
64,192,51067,128,0,51398:0:0:0:0:
448,192,51288,1,0,0:0:0:0:
320,192,51288,1,0,0:0:0:0:
448,192,51508,128,0,51729:0:0:0:0:
192,192,51508,128,0,51618:0:0:0:0:
320,192,51729,128,0,51839:0:0:0:0:
64,192,51729,1,0,0:0:0:0:
320,192,51949,1,0,0:0:0:0:
192,192,51949,128,0,52170:0:0:0:0:
64,192,51949,128,0,52170:0:0:0:0:
448,192,52170,1,0,0:0:0:0:
320,192,52170,1,0,0:0:0:0:
448,192,52390,128,0,52611:0:0:0:0:
192,192,52390,128,0,52611:0:0:0:0:
64,192,52390,1,0,0:0:0:0:
320,192,52611,1,0,0:0:0:0:
64,192,52611,1,0,0:0:0:0:
448,192,52832,1,0,0:0:0:0:
64,192,52832,1,0,0:0:0:0:
192,192,53052,1,0,0:0:0:0:
64,192,53052,1,0,0:0:0:0:
448,192,53273,1,0,0:0:0:0:
320,192,53273,128,0,53493:0:0:0:0:
192,192,53273,128,0,53383:0:0:0:0:
448,192,53493,1,0,0:0:0:0:
64,192,53493,1,0,0:0:0:0:
448,192,53714,128,0,53824:0:0:0:0:
192,192,53714,1,0,0:0:0:0:
64,192,53714,128,0,53824:0:0:0:0:
448,192,53935,1,0,0:0:0:0:
320,192,53935,1,0,0:0:0:0:
320,192,54155,128,0,54265:0:0:0:0:
192,192,54155,1,0,0:0:0:0:
64,192,54155,128,0,54265:0:0:0:0:
192,192,54376,1,0,0:0:0:0:
64,192,54376,1,0,0:0:0:0:
448,192,54596,1,0,0:0:0:0:
320,192,54596,1,0,0:0:0:0:
192,192,54679,1,0,0:0:0:0:
64,192,54679,1,0,0:0:0:0:
448,192,54762,1,0,0:0:0:0:
320,192,54762,1,0,0:0:0:0:
192,192,54817,1,0,0:0:0:0:
64,192,54817,1,0,0:0:0:0:
448,192,54872,1,0,0:0:0:0:
320,192,54872,1,0,0:0:0:0:
448,192,55038,1,0,0:0:0:0:
320,192,55038,128,0,55148:0:0:0:0:
192,192,55258,128,0,55368:0:0:0:0:
320,192,55479,1,0,0:0:0:0:
192,192,55479,128,0,55699:0:0:0:0:
64,192,55479,128,0,55699:0:0:0:0:
448,192,55699,1,0,0:0:0:0:
320,192,55699,1,0,0:0:0:0:
448,192,55920,128,0,56140:0:0:0:0:
192,192,55920,128,0,56140:0:0:0:0:
64,192,55920,1,0,0:0:0:0:
320,192,56140,1,0,0:0:0:0:
64,192,56140,1,0,0:0:0:0:
448,192,56361,1,0,0:0:0:0:
320,192,56361,1,0,0:0:0:0:
64,192,56361,1,0,0:0:0:0:
192,192,56582,1,0,0:0:0:0:
64,192,56582,1,0,0:0:0:0:
320,192,56802,1,0,0:0:0:0:
192,192,56802,1,0,0:0:0:0:
64,192,56802,1,0,0:0:0:0:
448,192,57023,1,0,0:0:0:0:
320,192,57023,1,0,0:0:0:0:
64,192,57023,1,0,0:0:0:0:
448,192,57243,1,0,0:0:0:0:
320,192,57243,1,0,0:0:0:0:
192,192,57243,1,0,0:0:0:0:
448,192,57409,1,0,0:0:0:0:
320,192,57409,1,0,0:0:0:0:
192,192,57464,1,0,0:0:0:0:
64,192,57464,1,0,0:0:0:0:
448,192,57519,1,0,0:0:0:0:
320,192,57519,1,0,0:0:0:0:
192,192,57629,1,0,0:0:0:0:
64,192,57629,1,0,0:0:0:0:
448,192,57712,1,0,0:0:0:0:
320,192,57712,1,0,0:0:0:0:
192,192,57905,1,0,0:0:0:0:
64,192,57905,1,0,0:0:0:0:
192,192,58126,128,0,58457:0:0:0:0:
64,192,58126,128,0,58457:0:0:0:0:
448,192,58346,1,0,0:0:0:0:
320,192,58346,1,0,0:0:0:0:
448,192,58567,128,0,58788:0:0:0:0:
192,192,58567,128,0,58677:0:0:0:0:
320,192,58788,128,0,58898:0:0:0:0:
64,192,58788,1,0,0:0:0:0:
192,192,59008,1,0,0:0:0:0:
192,192,59118,1,0,0:0:0:0:
192,192,59229,1,0,0:0:0:0:
448,192,59449,1,0,0:0:0:0:
320,192,59449,1,0,0:0:0:0:
64,192,59449,1,0,0:0:0:0:
192,192,59670,1,0,0:0:0:0:
64,192,59670,1,0,0:0:0:0:
448,192,59890,1,0,0:0:0:0:
320,192,59890,1,0,0:0:0:0:
320,192,60111,1,0,0:0:0:0:
192,192,60111,1,0,0:0:0:0:
320,192,60332,1,0,0:0:0:0:
192,192,60332,1,0,0:0:0:0:
64,192,60332,1,0,0:0:0:0:
448,192,60552,1,0,0:0:0:0:
320,192,60552,1,0,0:0:0:0:
64,192,60552,1,0,0:0:0:0:
192,192,60773,1,0,0:0:0:0:
192,192,60883,1,0,0:0:0:0:
448,192,60993,1,0,0:0:0:0:
192,192,60993,1,0,0:0:0:0:
448,192,61214,1,0,0:0:0:0:
320,192,61214,1,0,0:0:0:0:
64,192,61214,1,0,0:0:0:0:
192,192,61435,1,0,0:0:0:0:
64,192,61435,1,0,0:0:0:0:
448,192,61655,1,0,0:0:0:0:
320,192,61655,1,0,0:0:0:0:
448,192,61876,1,0,0:0:0:0:
320,192,61876,1,0,0:0:0:0:
320,192,62096,1,0,0:0:0:0:
192,192,62096,1,0,0:0:0:0:
64,192,62096,1,0,0:0:0:0:
448,192,62317,1,0,0:0:0:0:
192,192,62317,1,0,0:0:0:0:
448,192,62538,1,0,0:0:0:0:
320,192,62538,1,0,0:0:0:0:
192,192,62538,1,0,0:0:0:0:
192,192,62648,1,0,0:0:0:0:
192,192,62758,1,0,0:0:0:0:
448,192,62979,1,0,0:0:0:0:
320,192,62979,1,0,0:0:0:0:
64,192,62979,1,0,0:0:0:0:
192,192,63199,1,0,0:0:0:0:
64,192,63199,1,0,0:0:0:0:
448,192,63420,1,0,0:0:0:0:
64,192,63420,1,0,0:0:0:0:
448,192,63640,1,0,0:0:0:0:
320,192,63640,1,0,0:0:0:0:
320,192,63861,1,0,0:0:0:0:
192,192,63861,1,0,0:0:0:0:
64,192,63861,1,0,0:0:0:0:
448,192,64082,1,0,0:0:0:0:
320,192,64082,1,0,0:0:0:0:
64,192,64082,1,0,0:0:0:0:
320,192,64302,1,0,0:0:0:0:
192,192,64302,1,0,0:0:0:0:
320,192,64413,1,0,0:0:0:0:
192,192,64413,1,0,0:0:0:0:
192,192,64523,1,0,0:0:0:0:
64,192,64523,1,0,0:0:0:0:
448,192,64743,1,0,0:0:0:0:
320,192,64743,1,0,0:0:0:0:
64,192,64743,1,0,0:0:0:0:
192,192,64964,1,0,0:0:0:0:
64,192,64964,1,0,0:0:0:0:
448,192,65185,1,0,0:0:0:0:
320,192,65185,1,0,0:0:0:0:
192,192,65405,1,0,0:0:0:0:
64,192,65405,1,0,0:0:0:0:
448,192,65626,1,0,0:0:0:0:
320,192,65626,1,0,0:0:0:0:
64,192,65626,1,0,0:0:0:0:
448,192,65846,1,0,0:0:0:0:
320,192,65846,1,0,0:0:0:0:
192,192,65846,1,0,0:0:0:0:
320,192,66067,1,0,0:0:0:0:
192,192,66067,1,0,0:0:0:0:
64,192,66067,1,0,0:0:0:0:
192,192,66288,1,0,0:0:0:0:
64,192,66288,1,0,0:0:0:0:
448,192,66508,1,0,0:0:0:0:
320,192,66508,1,0,0:0:0:0:
192,192,66729,1,0,0:0:0:0:
64,192,66729,1,0,0:0:0:0:
448,192,66949,1,0,0:0:0:0:
192,192,66949,1,0,0:0:0:0:
320,192,67060,1,0,0:0:0:0:
192,192,67170,1,0,0:0:0:0:
64,192,67170,1,0,0:0:0:0:
448,192,67390,1,0,0:0:0:0:
64,192,67390,1,0,0:0:0:0:
320,192,67611,1,0,0:0:0:0:
192,192,67611,1,0,0:0:0:0:
320,192,67832,1,0,0:0:0:0:
192,192,67832,1,0,0:0:0:0:
448,192,68052,1,0,0:0:0:0:
64,192,68052,1,0,0:0:0:0:
320,192,68273,1,0,0:0:0:0:
64,192,68273,1,0,0:0:0:0:
448,192,68493,1,0,0:0:0:0:
192,192,68493,1,0,0:0:0:0:
320,192,68714,1,0,0:0:0:0:
64,192,68714,1,0,0:0:0:0:
448,192,68935,1,0,0:0:0:0:
320,192,68935,1,0,0:0:0:0:
192,192,68935,1,0,0:0:0:0:
320,192,69155,1,0,0:0:0:0:
192,192,69155,1,0,0:0:0:0:
64,192,69155,1,0,0:0:0:0:
448,192,69376,1,0,0:0:0:0:
320,192,69376,1,0,0:0:0:0:
192,192,69376,1,0,0:0:0:0:
320,192,69596,1,0,0:0:0:0:
448,192,69596,1,0,0:0:0:0:
64,192,69596,1,0,0:0:0:0:
192,192,69596,1,0,0:0:0:0:
192,192,69817,1,0,0:0:0:0:
64,192,69817,1,0,0:0:0:0:
448,192,70038,1,0,0:0:0:0:
320,192,70038,1,0,0:0:0:0:
448,192,70258,1,0,0:0:0:0:
192,192,70258,1,0,0:0:0:0:
192,192,70479,1,0,0:0:0:0:
64,192,70479,1,0,0:0:0:0:
320,192,70699,1,0,0:0:0:0:
64,192,70699,1,0,0:0:0:0:
448,192,70920,1,0,0:0:0:0:
192,192,70920,1,0,0:0:0:0:
448,192,71140,1,0,0:0:0:0:
320,192,71140,1,0,0:0:0:0:
320,192,71361,1,0,0:0:0:0:
192,192,71361,1,0,0:0:0:0:
64,192,71471,1,0,0:0:0:0:
320,192,71582,1,0,0:0:0:0:
192,192,71582,1,0,0:0:0:0:
448,192,71692,1,0,0:0:0:0:
320,192,71802,1,0,0:0:0:0:
64,192,71802,1,0,0:0:0:0:
448,192,72023,1,0,0:0:0:0:
320,192,72023,1,0,0:0:0:0:
448,192,72243,1,0,0:0:0:0:
192,192,72243,1,0,0:0:0:0:
448,192,72464,1,0,0:0:0:0:
320,192,72464,1,0,0:0:0:0:
192,192,72464,1,0,0:0:0:0:
320,192,72685,1,0,0:0:0:0:
192,192,72685,1,0,0:0:0:0:
64,192,72685,1,0,0:0:0:0:
448,192,72905,1,0,0:0:0:0:
320,192,72905,1,0,0:0:0:0:
192,192,72905,1,0,0:0:0:0:
320,192,73126,1,0,0:0:0:0:
448,192,73126,1,0,0:0:0:0:
64,192,73126,1,0,0:0:0:0:
192,192,73126,1,0,0:0:0:0:
192,192,73346,1,0,0:0:0:0:
64,192,73346,1,0,0:0:0:0:
448,192,73567,1,0,0:0:0:0:
320,192,73567,1,0,0:0:0:0:
192,192,73788,1,0,0:0:0:0:
64,192,73788,1,0,0:0:0:0:
192,192,74008,1,0,0:0:0:0:
64,192,74008,1,0,0:0:0:0:
448,192,74118,1,0,0:0:0:0:
320,192,74229,1,0,0:0:0:0:
64,192,74229,1,0,0:0:0:0:
448,192,74449,1,0,0:0:0:0:
320,192,74449,1,0,0:0:0:0:
448,192,74670,1,0,0:0:0:0:
320,192,74670,1,0,0:0:0:0:
192,192,74670,1,0,0:0:0:0:
320,192,74890,1,0,0:0:0:0:
192,192,74890,1,0,0:0:0:0:
64,192,74890,1,0,0:0:0:0:
448,192,75111,1,0,0:0:0:0:
320,192,75111,1,0,0:0:0:0:
64,192,75111,1,0,0:0:0:0:
320,192,75332,1,0,0:0:0:0:
192,192,75332,1,0,0:0:0:0:
64,192,75332,1,0,0:0:0:0:
448,192,75552,1,0,0:0:0:0:
320,192,75552,1,0,0:0:0:0:
192,192,75552,1,0,0:0:0:0:
448,192,75773,1,0,0:0:0:0:
320,192,75773,1,0,0:0:0:0:
64,192,75773,1,0,0:0:0:0:
192,192,75883,1,0,0:0:0:0:
448,192,75993,1,0,0:0:0:0:
320,192,75993,1,0,0:0:0:0:
192,192,76214,1,0,0:0:0:0:
64,192,76214,1,0,0:0:0:0:
320,192,76655,1,0,0:0:0:0:
192,192,76655,128,0,76876:0:0:0:0:
64,192,76655,128,0,76876:0:0:0:0:
448,192,76876,1,0,0:0:0:0:
320,192,76876,1,0,0:0:0:0:
448,192,77096,128,0,77317:0:0:0:0:
192,192,77096,128,0,77317:0:0:0:0:
64,192,77096,1,0,0:0:0:0:
320,192,77317,1,0,0:0:0:0:
64,192,77317,1,0,0:0:0:0:
448,192,77538,1,0,0:0:0:0:
64,192,77538,1,0,0:0:0:0:
192,192,77758,1,0,0:0:0:0:
64,192,77758,1,0,0:0:0:0:
448,192,77979,1,0,0:0:0:0:
320,192,77979,128,0,78199:0:0:0:0:
192,192,77979,128,0,78089:0:0:0:0:
448,192,78199,1,0,0:0:0:0:
64,192,78199,1,0,0:0:0:0:
448,192,78420,128,0,78530:0:0:0:0:
192,192,78420,1,0,0:0:0:0:
64,192,78420,128,0,78530:0:0:0:0:
448,192,78640,1,0,0:0:0:0:
320,192,78640,1,0,0:0:0:0:
320,192,78861,128,0,78971:0:0:0:0:
192,192,78861,1,0,0:0:0:0:
64,192,78861,128,0,78971:0:0:0:0:
192,192,79082,1,0,0:0:0:0:
64,192,79082,1,0,0:0:0:0:
448,192,79302,1,0,0:0:0:0:
320,192,79302,1,0,0:0:0:0:
448,192,79413,1,0,0:0:0:0:
320,192,79413,1,0,0:0:0:0:
192,192,79523,1,0,0:0:0:0:
64,192,79523,1,0,0:0:0:0:
192,192,79633,1,0,0:0:0:0:
64,192,79633,1,0,0:0:0:0:
448,192,79743,1,0,0:0:0:0:
320,192,79743,128,0,79854:0:0:0:0:
192,192,79964,128,0,80074:0:0:0:0:
320,192,80185,1,0,0:0:0:0:
192,192,80185,128,0,80405:0:0:0:0:
64,192,80185,128,0,80405:0:0:0:0:
448,192,80405,1,0,0:0:0:0:
320,192,80405,1,0,0:0:0:0:
448,192,80626,128,0,80846:0:0:0:0:
192,192,80626,128,0,80846:0:0:0:0:
64,192,80626,1,0,0:0:0:0:
320,192,80846,1,0,0:0:0:0:
64,192,80846,1,0,0:0:0:0:
448,192,81067,1,0,0:0:0:0:
320,192,81067,1,0,0:0:0:0:
64,192,81067,1,0,0:0:0:0:
192,192,81288,1,0,0:0:0:0:
64,192,81288,1,0,0:0:0:0:
320,192,81508,1,0,0:0:0:0:
192,192,81508,1,0,0:0:0:0:
64,192,81508,1,0,0:0:0:0:
448,192,81729,1,0,0:0:0:0:
320,192,81729,1,0,0:0:0:0:
64,192,81729,1,0,0:0:0:0:
448,192,81949,1,0,0:0:0:0:
320,192,81949,1,0,0:0:0:0:
192,192,81949,1,0,0:0:0:0:
192,192,82170,1,0,0:0:0:0:
64,192,82170,1,0,0:0:0:0:
448,192,82280,1,0,0:0:0:0:
320,192,82280,1,0,0:0:0:0:
192,192,82390,1,0,0:0:0:0:
64,192,82390,1,0,0:0:0:0:
448,192,82501,1,0,0:0:0:0:
320,192,82501,1,0,0:0:0:0:
192,192,82611,128,0,82721:0:0:0:0:
64,192,82611,128,0,82721:0:0:0:0:
192,192,82832,128,0,83163:0:0:0:0:
64,192,82832,128,0,83163:0:0:0:0:
448,192,83052,1,0,0:0:0:0:
320,192,83052,1,0,0:0:0:0:
448,192,83273,128,0,83493:0:0:0:0:
192,192,83273,128,0,83383:0:0:0:0:
320,192,83493,128,0,83604:0:0:0:0:
64,192,83493,1,0,0:0:0:0:
320,192,83714,1,0,0:0:0:0:
192,192,83714,128,0,83935:0:0:0:0:
64,192,83714,128,0,83935:0:0:0:0:
448,192,83935,1,0,0:0:0:0:
320,192,83935,1,0,0:0:0:0:
448,192,84155,128,0,84376:0:0:0:0:
192,192,84155,128,0,84376:0:0:0:0:
64,192,84155,1,0,0:0:0:0:
320,192,84376,1,0,0:0:0:0:
64,192,84376,1,0,0:0:0:0:
448,192,84596,1,0,0:0:0:0:
64,192,84596,1,0,0:0:0:0:
192,192,84817,1,0,0:0:0:0:
64,192,84817,1,0,0:0:0:0:
448,192,85038,1,0,0:0:0:0:
320,192,85038,128,0,85258:0:0:0:0:
192,192,85038,128,0,85148:0:0:0:0:
448,192,85258,1,0,0:0:0:0:
64,192,85258,1,0,0:0:0:0:
448,192,85479,128,0,85589:0:0:0:0:
192,192,85479,1,0,0:0:0:0:
64,192,85479,128,0,85589:0:0:0:0:
448,192,85699,1,0,0:0:0:0:
320,192,85699,1,0,0:0:0:0:
320,192,85920,128,0,86030:0:0:0:0:
192,192,85920,1,0,0:0:0:0:
64,192,85920,128,0,86030:0:0:0:0:
192,192,86140,1,0,0:0:0:0:
64,192,86140,1,0,0:0:0:0:
448,192,86333,1,0,0:0:0:0:
320,192,86333,1,0,0:0:0:0:
192,192,86444,1,0,0:0:0:0:
64,192,86444,1,0,0:0:0:0:
448,192,86526,1,0,0:0:0:0:
320,192,86526,1,0,0:0:0:0:
192,192,86637,1,0,0:0:0:0:
64,192,86637,1,0,0:0:0:0:
448,192,86802,1,0,0:0:0:0:
320,192,86802,128,0,86913:0:0:0:0:
192,192,87023,128,0,87133:0:0:0:0:
320,192,87243,1,0,0:0:0:0:
192,192,87243,128,0,87464:0:0:0:0:
64,192,87243,128,0,87464:0:0:0:0:
448,192,87464,1,0,0:0:0:0:
320,192,87464,1,0,0:0:0:0:
448,192,87685,128,0,87905:0:0:0:0:
192,192,87685,128,0,87905:0:0:0:0:
64,192,87685,1,0,0:0:0:0:
320,192,87905,1,0,0:0:0:0:
64,192,87905,1,0,0:0:0:0:
448,192,88126,1,0,0:0:0:0:
320,192,88126,1,0,0:0:0:0:
64,192,88126,1,0,0:0:0:0:
192,192,88346,1,0,0:0:0:0:
64,192,88346,1,0,0:0:0:0:
320,192,88567,1,0,0:0:0:0:
192,192,88567,1,0,0:0:0:0:
64,192,88567,1,0,0:0:0:0:
448,192,88788,1,0,0:0:0:0:
320,192,88788,1,0,0:0:0:0:
64,192,88788,1,0,0:0:0:0:
448,192,89008,1,0,0:0:0:0:
320,192,89008,1,0,0:0:0:0:
192,192,89008,1,0,0:0:0:0:
192,192,89229,1,0,0:0:0:0:
64,192,89229,1,0,0:0:0:0:
448,192,89311,1,0,0:0:0:0:
320,192,89311,1,0,0:0:0:0:
192,192,89394,1,0,0:0:0:0:
64,192,89394,1,0,0:0:0:0:
448,192,89477,1,0,0:0:0:0:
320,192,89477,1,0,0:0:0:0:
192,192,89670,1,0,0:0:0:0:
64,192,89670,1,0,0:0:0:0:
192,192,89890,128,0,90221:0:0:0:0:
64,192,89890,128,0,90221:0:0:0:0:
448,192,90111,1,0,0:0:0:0:
320,192,90111,1,0,0:0:0:0:
448,192,90332,128,0,90552:0:0:0:0:
192,192,90332,128,0,90442:0:0:0:0:
320,192,90552,128,0,90663:0:0:0:0:
64,192,90552,1,0,0:0:0:0:
448,192,90773,1,0,0:0:0:0:
192,192,90773,1,0,0:0:0:0:
64,192,90773,1,0,0:0:0:0:
192,192,90883,1,0,0:0:0:0:
192,192,90993,1,0,0:0:0:0:
448,192,91214,1,0,0:0:0:0:
320,192,91214,1,0,0:0:0:0:
64,192,91214,1,0,0:0:0:0:
320,192,91435,1,0,0:0:0:0:
192,192,91435,1,0,0:0:0:0:
64,192,91435,1,0,0:0:0:0:
448,192,91655,1,0,0:0:0:0:
320,192,91655,1,0,0:0:0:0:
192,192,91655,1,0,0:0:0:0:
448,192,91876,1,0,0:0:0:0:
320,192,91876,1,0,0:0:0:0:
192,192,91876,1,0,0:0:0:0:
320,192,92096,1,0,0:0:0:0:
192,192,92096,1,0,0:0:0:0:
64,192,92096,1,0,0:0:0:0:
448,192,92317,1,0,0:0:0:0:
320,192,92317,1,0,0:0:0:0:
64,192,92317,1,0,0:0:0:0:
448,192,92538,1,0,0:0:0:0:
192,192,92538,1,0,0:0:0:0:
64,192,92538,1,0,0:0:0:0:
192,192,92648,1,0,0:0:0:0:
448,192,92758,1,0,0:0:0:0:
192,192,92758,1,0,0:0:0:0:
448,192,92979,1,0,0:0:0:0:
320,192,92979,1,0,0:0:0:0:
64,192,92979,1,0,0:0:0:0:
320,192,93199,1,0,0:0:0:0:
192,192,93199,1,0,0:0:0:0:
64,192,93199,1,0,0:0:0:0:
448,192,93420,1,0,0:0:0:0:
320,192,93420,1,0,0:0:0:0:
192,192,93420,1,0,0:0:0:0:
448,192,93640,1,0,0:0:0:0:
320,192,93640,1,0,0:0:0:0:
64,192,93640,1,0,0:0:0:0:
320,192,93861,1,0,0:0:0:0:
192,192,93861,1,0,0:0:0:0:
64,192,93861,1,0,0:0:0:0:
448,192,94082,1,0,0:0:0:0:
192,192,94082,1,0,0:0:0:0:
448,192,94302,1,0,0:0:0:0:
320,192,94302,1,0,0:0:0:0:
192,192,94302,1,0,0:0:0:0:
192,192,94413,1,0,0:0:0:0:
192,192,94523,1,0,0:0:0:0:
448,192,94743,1,0,0:0:0:0:
320,192,94743,1,0,0:0:0:0:
64,192,94743,1,0,0:0:0:0:
320,192,94964,1,0,0:0:0:0:
192,192,94964,1,0,0:0:0:0:
64,192,94964,1,0,0:0:0:0:
448,192,95185,1,0,0:0:0:0:
320,192,95185,1,0,0:0:0:0:
64,192,95185,1,0,0:0:0:0:
192,192,95295,1,0,0:0:0:0:
448,192,95405,1,0,0:0:0:0:
320,192,95405,1,0,0:0:0:0:
64,192,95405,1,0,0:0:0:0:
320,192,95626,1,0,0:0:0:0:
192,192,95626,1,0,0:0:0:0:
64,192,95626,1,0,0:0:0:0:
448,192,95846,1,0,0:0:0:0:
320,192,95846,1,0,0:0:0:0:
64,192,95846,1,0,0:0:0:0:
192,192,96067,1,0,0:0:0:0:
192,192,96177,1,0,0:0:0:0:
448,192,96288,1,0,0:0:0:0:
192,192,96288,1,0,0:0:0:0:
64,192,96288,1,0,0:0:0:0:
448,192,96508,1,0,0:0:0:0:
320,192,96508,1,0,0:0:0:0:
64,192,96508,1,0,0:0:0:0:
320,192,96729,1,0,0:0:0:0:
192,192,96729,1,0,0:0:0:0:
64,192,96729,1,0,0:0:0:0:
448,192,96949,1,0,0:0:0:0:
320,192,96949,1,0,0:0:0:0:
192,192,96949,1,0,0:0:0:0:
192,192,97170,1,0,0:0:0:0:
64,192,97170,1,0,0:0:0:0:
448,192,97280,1,0,0:0:0:0:
320,192,97280,1,0,0:0:0:0:
192,192,97390,1,0,0:0:0:0:
64,192,97390,1,0,0:0:0:0:
320,192,97501,1,0,0:0:0:0:
448,192,97611,1,0,0:0:0:0:
192,192,97611,1,0,0:0:0:0:
64,192,97611,1,0,0:0:0:0:
320,192,97832,1,0,0:0:0:0:
192,192,97832,1,0,0:0:0:0:
64,192,97832,1,0,0:0:0:0:
192,192,97942,1,0,0:0:0:0:
192,192,98052,1,0,0:0:0:0:
448,192,98273,1,0,0:0:0:0:
320,192,98273,1,0,0:0:0:0:
64,192,98273,1,0,0:0:0:0:
320,192,98493,1,0,0:0:0:0:
192,192,98493,1,0,0:0:0:0:
64,192,98493,1,0,0:0:0:0:
448,192,98714,1,0,0:0:0:0:
320,192,98714,1,0,0:0:0:0:
192,192,98714,1,0,0:0:0:0:
448,192,98935,1,0,0:0:0:0:
320,192,98935,1,0,0:0:0:0:
192,192,98935,1,0,0:0:0:0:
320,192,99155,1,0,0:0:0:0:
192,192,99155,1,0,0:0:0:0:
64,192,99155,1,0,0:0:0:0:
448,192,99376,1,0,0:0:0:0:
320,192,99376,1,0,0:0:0:0:
64,192,99376,1,0,0:0:0:0:
448,192,99596,1,0,0:0:0:0:
192,192,99596,1,0,0:0:0:0:
64,192,99596,1,0,0:0:0:0:
192,192,99707,1,0,0:0:0:0:
448,192,99817,1,0,0:0:0:0:
192,192,99817,1,0,0:0:0:0:
448,192,100038,1,0,0:0:0:0:
320,192,100038,1,0,0:0:0:0:
64,192,100038,1,0,0:0:0:0:
320,192,100258,1,0,0:0:0:0:
192,192,100258,1,0,0:0:0:0:
64,192,100258,1,0,0:0:0:0:
448,192,100479,1,0,0:0:0:0:
320,192,100479,1,0,0:0:0:0:
192,192,100479,1,0,0:0:0:0:
448,192,100699,1,0,0:0:0:0:
320,192,100699,1,0,0:0:0:0:
64,192,100699,1,0,0:0:0:0:
320,192,100920,1,0,0:0:0:0:
192,192,100920,1,0,0:0:0:0:
64,192,100920,1,0,0:0:0:0:
448,192,101140,1,0,0:0:0:0:
192,192,101140,1,0,0:0:0:0:
448,192,101361,1,0,0:0:0:0:
320,192,101361,1,0,0:0:0:0:
192,192,101361,1,0,0:0:0:0:
192,192,101471,1,0,0:0:0:0:
192,192,101582,1,0,0:0:0:0:
448,192,101802,1,0,0:0:0:0:
320,192,101802,1,0,0:0:0:0:
64,192,101802,1,0,0:0:0:0:
320,192,102023,1,0,0:0:0:0:
192,192,102023,1,0,0:0:0:0:
64,192,102023,1,0,0:0:0:0:
448,192,102243,1,0,0:0:0:0:
320,192,102243,1,0,0:0:0:0:
64,192,102243,1,0,0:0:0:0:
448,192,102464,1,0,0:0:0:0:
192,192,102464,1,0,0:0:0:0:
64,192,102464,1,0,0:0:0:0:
320,192,102685,1,0,0:0:0:0:
192,192,102685,1,0,0:0:0:0:
64,192,102685,1,0,0:0:0:0:
448,192,102905,1,0,0:0:0:0:
320,192,102905,1,0,0:0:0:0:
64,192,102905,1,0,0:0:0:0:
320,192,103126,1,0,0:0:0:0:
192,192,103126,1,0,0:0:0:0:
320,192,103236,1,0,0:0:0:0:
192,192,103236,1,0,0:0:0:0:
448,192,103346,1,0,0:0:0:0:
192,192,103346,1,0,0:0:0:0:
64,192,103346,1,0,0:0:0:0:
448,192,103567,1,0,0:0:0:0:
320,192,103567,1,0,0:0:0:0:
64,192,103567,1,0,0:0:0:0:
320,192,103788,1,0,0:0:0:0:
192,192,103788,1,0,0:0:0:0:
64,192,103788,1,0,0:0:0:0:
448,192,104008,1,0,0:0:0:0:
320,192,104008,1,0,0:0:0:0:
192,192,104008,1,0,0:0:0:0:
192,192,104229,1,0,0:0:0:0:
64,192,104229,1,0,0:0:0:0:
320,192,104449,1,0,0:0:0:0:
192,192,104449,1,0,0:0:0:0:
64,192,104449,1,0,0:0:0:0:
448,192,104670,1,0,0:0:0:0:
320,192,104670,1,0,0:0:0:0:
192,192,104890,1,0,0:0:0:0:
64,192,104890,1,0,0:0:0:0:
448,192,105111,1,0,0:0:0:0:
320,192,105111,1,0,0:0:0:0:
192,192,105332,1,0,0:0:0:0:
64,192,105332,1,0,0:0:0:0:
448,192,105552,1,0,0:0:0:0:
320,192,105552,1,0,0:0:0:0:
192,192,105773,1,0,0:0:0:0:
64,192,105773,1,0,0:0:0:0:
448,192,105993,1,0,0:0:0:0:
192,192,105993,1,0,0:0:0:0:
192,192,106214,1,0,0:0:0:0:
64,192,106214,1,0,0:0:0:0:
320,192,106324,1,0,0:0:0:0:
448,192,106435,1,0,0:0:0:0:
64,192,106435,1,0,0:0:0:0:
192,192,106545,1,0,0:0:0:0:
448,192,106655,1,0,0:0:0:0:
320,192,106655,1,0,0:0:0:0:
192,192,106876,1,0,0:0:0:0:
64,192,106876,1,0,0:0:0:0:
448,192,107096,1,0,0:0:0:0:
320,192,107096,1,0,0:0:0:0:
320,192,107317,1,0,0:0:0:0:
192,192,107317,1,0,0:0:0:0:
448,192,107538,1,0,0:0:0:0:
320,192,107538,1,0,0:0:0:0:
448,192,107758,1,0,0:0:0:0:
64,192,107758,1,0,0:0:0:0:
448,192,107979,1,0,0:0:0:0:
320,192,107979,1,0,0:0:0:0:
192,192,108089,1,0,0:0:0:0:
64,192,108089,1,0,0:0:0:0:
448,192,108199,1,0,0:0:0:0:
320,192,108199,1,0,0:0:0:0:
192,192,108310,1,0,0:0:0:0:
448,192,108420,1,0,0:0:0:0:
64,192,108420,1,0,0:0:0:0:
320,192,108640,1,0,0:0:0:0:
192,192,108640,1,0,0:0:0:0:
448,192,108861,1,0,0:0:0:0:
64,192,108861,1,0,0:0:0:0:
320,192,109082,1,0,0:0:0:0:
192,192,109082,1,0,0:0:0:0:
448,192,109302,1,0,0:0:0:0:
64,192,109302,1,0,0:0:0:0:
448,192,109523,1,0,0:0:0:0:
192,192,109523,1,0,0:0:0:0:
448,192,109743,1,0,0:0:0:0:
64,192,109743,1,0,0:0:0:0:
192,192,109854,1,0,0:0:0:0:
448,192,109964,1,0,0:0:0:0:
320,192,109964,1,0,0:0:0:0:
64,192,110074,1,0,0:0:0:0:
320,192,110185,1,0,0:0:0:0:
192,192,110185,1,0,0:0:0:0:
448,192,110405,1,0,0:0:0:0:
64,192,110405,1,0,0:0:0:0:
320,192,110626,1,0,0:0:0:0:
192,192,110626,1,0,0:0:0:0:
320,192,110846,1,0,0:0:0:0:
192,192,110846,1,0,0:0:0:0:
320,192,111067,1,0,0:0:0:0:
192,192,111067,1,0,0:0:0:0:
448,192,111177,1,0,0:0:0:0:
320,192,111288,1,0,0:0:0:0:
64,192,111288,1,0,0:0:0:0:
448,192,111508,1,0,0:0:0:0:
192,192,111508,1,0,0:0:0:0:
64,192,111508,1,0,0:0:0:0:
320,192,111618,1,0,0:0:0:0:
192,192,111729,1,0,0:0:0:0:
448,192,111839,1,0,0:0:0:0:
320,192,111949,1,0,0:0:0:0:
192,192,111949,1,0,0:0:0:0:
64,192,111949,1,0,0:0:0:0:
448,192,112170,1,0,0:0:0:0:
320,192,112170,1,0,0:0:0:0:
192,192,112390,1,0,0:0:0:0:
64,192,112390,1,0,0:0:0:0:
448,192,112611,1,0,0:0:0:0:
320,192,112611,1,0,0:0:0:0:
192,192,112832,1,0,0:0:0:0:
64,192,112832,1,0,0:0:0:0:
448,192,113052,1,0,0:0:0:0:
192,192,113052,1,0,0:0:0:0:
192,192,113273,1,0,0:0:0:0:
64,192,113273,1,0,0:0:0:0:
320,192,113383,1,0,0:0:0:0:
448,192,113493,1,0,0:0:0:0:
64,192,113493,1,0,0:0:0:0:
192,192,113604,1,0,0:0:0:0:
448,192,113714,1,0,0:0:0:0:
320,192,113714,1,0,0:0:0:0:
192,192,113935,1,0,0:0:0:0:
64,192,113935,1,0,0:0:0:0:
448,192,114155,1,0,0:0:0:0:
320,192,114155,1,0,0:0:0:0:
320,192,114376,1,0,0:0:0:0:
192,192,114376,1,0,0:0:0:0:
448,192,114596,1,0,0:0:0:0:
320,192,114596,1,0,0:0:0:0:
448,192,114817,1,0,0:0:0:0:
64,192,114817,1,0,0:0:0:0:
448,192,115038,1,0,0:0:0:0:
320,192,115038,1,0,0:0:0:0:
192,192,115148,1,0,0:0:0:0:
64,192,115148,1,0,0:0:0:0:
448,192,115258,1,0,0:0:0:0:
320,192,115258,1,0,0:0:0:0:
192,192,115368,1,0,0:0:0:0:
448,192,115479,1,0,0:0:0:0:
64,192,115479,1,0,0:0:0:0:
320,192,115699,1,0,0:0:0:0:
64,192,115699,1,0,0:0:0:0:
448,192,115920,1,0,0:0:0:0:
64,192,115920,1,0,0:0:0:0:
448,192,116140,1,0,0:0:0:0:
192,192,116140,1,0,0:0:0:0:
448,192,116361,1,0,0:0:0:0:
64,192,116361,1,0,0:0:0:0:
320,192,116582,1,0,0:0:0:0:
192,192,116582,1,0,0:0:0:0:
448,192,116802,1,0,0:0:0:0:
64,192,116802,1,0,0:0:0:0:
192,192,116913,1,0,0:0:0:0:
448,192,117023,1,0,0:0:0:0:
320,192,117023,1,0,0:0:0:0:
64,192,117133,1,0,0:0:0:0:
448,192,117188,1,0,0:0:0:0:
320,192,117243,1,0,0:0:0:0:
192,192,117243,1,0,0:0:0:0:
192,192,117685,1,0,0:0:0:0:
64,192,117685,1,0,0:0:0:0:
192,192,117960,1,0,0:0:0:0:
448,192,118015,1,0,0:0:0:0:
320,192,118126,1,0,0:0:0:0:
320,192,118346,1,0,0:0:0:0:
192,192,118457,1,0,0:0:0:0:
448,192,118567,1,0,0:0:0:0:
64,192,118567,1,0,0:0:0:0:
192,192,118788,1,0,0:0:0:0:
320,192,119008,1,0,0:0:0:0:
192,192,119008,1,0,0:0:0:0:
448,192,119449,1,0,0:0:0:0:
192,192,119449,1,0,0:0:0:0:
320,192,119670,1,0,0:0:0:0:
448,192,119890,1,0,0:0:0:0:
64,192,119890,1,0,0:0:0:0:
192,192,120111,1,0,0:0:0:0:
320,192,120332,1,0,0:0:0:0:
192,192,120332,1,0,0:0:0:0:
448,192,120773,1,0,0:0:0:0:
64,192,120773,1,0,0:0:0:0:
192,192,120883,1,0,0:0:0:0:
448,192,120993,1,0,0:0:0:0:
320,192,121214,1,0,0:0:0:0:
64,192,121214,1,0,0:0:0:0:
448,192,121655,1,0,0:0:0:0:
320,192,121655,1,0,0:0:0:0:
320,192,121876,1,0,0:0:0:0:
320,192,122096,1,0,0:0:0:0:
192,192,122096,1,0,0:0:0:0:
320,192,122538,1,0,0:0:0:0:
192,192,122538,1,0,0:0:0:0:
64,192,122758,1,0,0:0:0:0:
448,192,122979,1,0,0:0:0:0:
192,192,122979,1,0,0:0:0:0:
320,192,123199,1,0,0:0:0:0:
448,192,123420,1,0,0:0:0:0:
64,192,123420,1,0,0:0:0:0:
64,192,123640,1,0,0:0:0:0:
192,192,123861,1,0,0:0:0:0:
64,192,123861,1,0,0:0:0:0:
448,192,124302,1,0,0:0:0:0:
192,192,124302,1,0,0:0:0:0:
320,192,124523,1,0,0:0:0:0:
448,192,124633,1,0,0:0:0:0:
320,192,124964,1,0,0:0:0:0:
64,192,124964,1,0,0:0:0:0:
192,192,125185,1,0,0:0:0:0:
64,192,125185,1,0,0:0:0:0:
448,192,125405,1,0,0:0:0:0:
320,192,125405,1,0,0:0:0:0:
448,192,125626,1,0,0:0:0:0:
192,192,125626,1,0,0:0:0:0:
320,192,125736,1,0,0:0:0:0:
192,192,125846,1,0,0:0:0:0:
320,192,126067,1,0,0:0:0:0:
192,192,126067,1,0,0:0:0:0:
320,192,126288,1,0,0:0:0:0:
448,192,126508,1,0,0:0:0:0:
192,192,126508,1,0,0:0:0:0:
320,192,126729,1,0,0:0:0:0:
192,192,126729,1,0,0:0:0:0:
448,192,126949,1,0,0:0:0:0:
64,192,126949,1,0,0:0:0:0:
192,192,127170,1,0,0:0:0:0:
320,192,127390,1,0,0:0:0:0:
192,192,127390,1,0,0:0:0:0:
448,192,127832,1,0,0:0:0:0:
64,192,127832,1,0,0:0:0:0:
320,192,128052,1,0,0:0:0:0:
192,192,128052,1,0,0:0:0:0:
448,192,128163,1,0,0:0:0:0:
64,192,128273,1,0,0:0:0:0:
448,192,128493,1,0,0:0:0:0:
320,192,128493,1,0,0:0:0:0:
448,192,128714,1,0,0:0:0:0:
320,192,128714,1,0,0:0:0:0:
448,192,128935,1,0,0:0:0:0:
320,192,129155,1,0,0:0:0:0:
64,192,129265,1,0,0:0:0:0:
192,192,129376,1,0,0:0:0:0:
320,192,129596,1,0,0:0:0:0:
192,192,129596,1,0,0:0:0:0:
64,192,129817,1,0,0:0:0:0:
448,192,130038,1,0,0:0:0:0:
192,192,130038,1,0,0:0:0:0:
320,192,130258,1,0,0:0:0:0:
192,192,130258,1,0,0:0:0:0:
448,192,130479,1,0,0:0:0:0:
64,192,130479,1,0,0:0:0:0:
192,192,130699,1,0,0:0:0:0:
64,192,130699,1,0,0:0:0:0:
192,192,130920,1,0,0:0:0:0:
64,192,130920,1,0,0:0:0:0:
320,192,131140,1,0,0:0:0:0:
192,192,131140,1,0,0:0:0:0:
448,192,131361,1,0,0:0:0:0:
192,192,131361,1,0,0:0:0:0:
448,192,131775,1,0,0:0:0:0:
320,192,131775,1,0,0:0:0:0:
192,192,131913,1,0,0:0:0:0:
64,192,131913,1,0,0:0:0:0:
320,192,132243,128,0,132685:0:0:0:0:
192,192,132243,1,0,0:0:0:0:
64,192,132243,1,0,0:0:0:0:
448,192,132685,128,0,132905:0:0:0:0:
192,192,132685,128,0,132905:0:0:0:0:
320,192,133126,1,0,0:0:0:0:
448,192,133126,1,0,0:0:0:0:
64,192,133126,128,0,133346:0:0:0:0:
192,192,133126,128,0,133346:0:0:0:0:
448,192,133346,1,0,0:0:0:0:
320,192,133346,1,0,0:0:0:0:
448,192,133567,128,0,133788:0:0:0:0:
192,192,133567,128,0,133788:0:0:0:0:
64,192,133567,1,0,0:0:0:0:
320,192,133788,1,0,0:0:0:0:
64,192,133788,1,0,0:0:0:0:
448,192,134008,1,0,0:0:0:0:
64,192,134008,1,0,0:0:0:0:
192,192,134229,1,0,0:0:0:0:
64,192,134229,1,0,0:0:0:0:
448,192,134449,1,0,0:0:0:0:
320,192,134449,128,0,134670:0:0:0:0:
192,192,134449,128,0,134560:0:0:0:0:
448,192,134670,1,0,0:0:0:0:
64,192,134670,1,0,0:0:0:0:
448,192,134890,128,0,135001:0:0:0:0:
192,192,134890,1,0,0:0:0:0:
64,192,134890,128,0,135001:0:0:0:0:
448,192,135111,1,0,0:0:0:0:
320,192,135111,1,0,0:0:0:0:
320,192,135332,128,0,135442:0:0:0:0:
192,192,135332,1,0,0:0:0:0:
64,192,135332,128,0,135442:0:0:0:0:
192,192,135552,1,0,0:0:0:0:
64,192,135552,1,0,0:0:0:0:
448,192,135773,1,0,0:0:0:0:
320,192,135773,1,0,0:0:0:0:
448,192,135883,1,0,0:0:0:0:
320,192,135883,1,0,0:0:0:0:
192,192,135993,1,0,0:0:0:0:
64,192,135993,1,0,0:0:0:0:
192,192,136104,1,0,0:0:0:0:
64,192,136104,1,0,0:0:0:0:
448,192,136214,1,0,0:0:0:0:
320,192,136214,128,0,136324:0:0:0:0:
192,192,136435,128,0,136545:0:0:0:0:
320,192,136655,1,0,0:0:0:0:
192,192,136655,128,0,136876:0:0:0:0:
64,192,136655,128,0,136876:0:0:0:0:
448,192,136876,1,0,0:0:0:0:
320,192,136876,1,0,0:0:0:0:
448,192,137096,128,0,137317:0:0:0:0:
192,192,137096,128,0,137317:0:0:0:0:
64,192,137096,1,0,0:0:0:0:
320,192,137317,1,0,0:0:0:0:
64,192,137317,1,0,0:0:0:0:
448,192,137538,1,0,0:0:0:0:
320,192,137538,1,0,0:0:0:0:
64,192,137538,1,0,0:0:0:0:
192,192,137758,1,0,0:0:0:0:
64,192,137758,1,0,0:0:0:0:
320,192,137979,1,0,0:0:0:0:
192,192,137979,1,0,0:0:0:0:
64,192,137979,1,0,0:0:0:0:
448,192,138199,1,0,0:0:0:0:
320,192,138199,1,0,0:0:0:0:
64,192,138199,1,0,0:0:0:0:
448,192,138420,1,0,0:0:0:0:
320,192,138420,1,0,0:0:0:0:
192,192,138420,1,0,0:0:0:0:
192,192,138640,1,0,0:0:0:0:
64,192,138640,1,0,0:0:0:0:
448,192,138751,1,0,0:0:0:0:
320,192,138751,1,0,0:0:0:0:
192,192,138861,1,0,0:0:0:0:
64,192,138861,1,0,0:0:0:0:
448,192,138971,1,0,0:0:0:0:
320,192,138971,1,0,0:0:0:0:
192,192,139082,128,0,139192:0:0:0:0:
64,192,139082,128,0,139192:0:0:0:0:
192,192,139302,128,0,139633:0:0:0:0:
64,192,139302,128,0,139633:0:0:0:0:
448,192,139523,1,0,0:0:0:0:
320,192,139523,1,0,0:0:0:0:
448,192,139743,128,0,139964:0:0:0:0:
192,192,139743,128,0,139854:0:0:0:0:
320,192,139964,128,0,140074:0:0:0:0:
64,192,139964,1,0,0:0:0:0:
320,192,140185,1,0,0:0:0:0:
192,192,140185,128,0,140405:0:0:0:0:
64,192,140185,128,0,140405:0:0:0:0:
448,192,140405,1,0,0:0:0:0:
320,192,140405,1,0,0:0:0:0:
448,192,140626,128,0,140846:0:0:0:0:
192,192,140626,128,0,140846:0:0:0:0:
64,192,140626,1,0,0:0:0:0:
320,192,140846,1,0,0:0:0:0:
64,192,140846,1,0,0:0:0:0:
448,192,141067,1,0,0:0:0:0:
64,192,141067,1,0,0:0:0:0:
192,192,141288,1,0,0:0:0:0:
64,192,141288,1,0,0:0:0:0:
448,192,141508,1,0,0:0:0:0:
320,192,141508,128,0,141729:0:0:0:0:
192,192,141508,128,0,141618:0:0:0:0:
448,192,141729,1,0,0:0:0:0:
64,192,141729,1,0,0:0:0:0:
448,192,141949,128,0,142060:0:0:0:0:
192,192,141949,1,0,0:0:0:0:
64,192,141949,128,0,142060:0:0:0:0:
448,192,142170,1,0,0:0:0:0:
320,192,142170,1,0,0:0:0:0:
320,192,142390,128,0,142501:0:0:0:0:
192,192,142390,1,0,0:0:0:0:
64,192,142390,128,0,142501:0:0:0:0:
192,192,142611,1,0,0:0:0:0:
64,192,142611,1,0,0:0:0:0:
448,192,142832,1,0,0:0:0:0:
320,192,142832,1,0,0:0:0:0:
192,192,142914,1,0,0:0:0:0:
64,192,142914,1,0,0:0:0:0:
448,192,142997,1,0,0:0:0:0:
320,192,142997,1,0,0:0:0:0:
192,192,143052,1,0,0:0:0:0:
64,192,143052,1,0,0:0:0:0:
448,192,143107,1,0,0:0:0:0:
320,192,143107,1,0,0:0:0:0:
448,192,143273,1,0,0:0:0:0:
320,192,143273,128,0,143383:0:0:0:0:
192,192,143493,128,0,143604:0:0:0:0:
320,192,143714,1,0,0:0:0:0:
192,192,143714,128,0,143935:0:0:0:0:
64,192,143714,128,0,143935:0:0:0:0:
448,192,143935,1,0,0:0:0:0:
320,192,143935,1,0,0:0:0:0:
448,192,144155,128,0,144376:0:0:0:0:
192,192,144155,128,0,144376:0:0:0:0:
64,192,144155,1,0,0:0:0:0:
320,192,144376,1,0,0:0:0:0:
64,192,144376,1,0,0:0:0:0:
448,192,144596,1,0,0:0:0:0:
320,192,144596,1,0,0:0:0:0:
64,192,144596,1,0,0:0:0:0:
192,192,144817,1,0,0:0:0:0:
64,192,144817,1,0,0:0:0:0:
320,192,145038,1,0,0:0:0:0:
192,192,145038,1,0,0:0:0:0:
64,192,145038,1,0,0:0:0:0:
448,192,145258,1,0,0:0:0:0:
320,192,145258,1,0,0:0:0:0:
64,192,145258,1,0,0:0:0:0:
448,192,145479,1,0,0:0:0:0:
320,192,145479,1,0,0:0:0:0:
192,192,145479,1,0,0:0:0:0:
448,192,145663,1,0,0:0:0:0:
320,192,145663,1,0,0:0:0:0:
192,192,145699,1,0,0:0:0:0:
64,192,145699,1,0,0:0:0:0:
448,192,145782,1,0,0:0:0:0:
320,192,145782,1,0,0:0:0:0:
192,192,145892,1,0,0:0:0:0:
64,192,145892,1,0,0:0:0:0:
448,192,145975,1,0,0:0:0:0:
320,192,145975,1,0,0:0:0:0:
192,192,146140,1,0,0:0:0:0:
64,192,146140,1,0,0:0:0:0:
320,192,146361,1,0,0:0:0:0:
192,192,146361,128,0,146692:0:0:0:0:
64,192,146361,128,0,146692:0:0:0:0:
448,192,146802,128,0,147023:0:0:0:0:
192,192,146802,128,0,146913:0:0:0:0:
320,192,147023,128,0,147133:0:0:0:0:
448,192,147243,1,0,0:0:0:0:
192,192,147243,1,0,0:0:0:0:
64,192,147243,1,0,0:0:0:0:
320,192,147354,1,0,0:0:0:0:
448,192,147464,1,0,0:0:0:0:
192,192,147464,1,0,0:0:0:0:
448,192,147685,1,0,0:0:0:0:
64,192,147685,1,0,0:0:0:0:
192,192,147905,1,0,0:0:0:0:
64,192,147905,1,0,0:0:0:0:
448,192,148126,1,0,0:0:0:0:
320,192,148126,1,0,0:0:0:0:
192,192,148236,1,0,0:0:0:0:
448,192,148346,1,0,0:0:0:0:
320,192,148346,1,0,0:0:0:0:
192,192,148457,1,0,0:0:0:0:
448,192,148567,1,0,0:0:0:0:
64,192,148567,1,0,0:0:0:0:
320,192,148788,1,0,0:0:0:0:
64,192,148788,1,0,0:0:0:0:
448,192,149008,1,0,0:0:0:0:
192,192,149008,1,0,0:0:0:0:
320,192,149118,1,0,0:0:0:0:
448,192,149229,1,0,0:0:0:0:
192,192,149229,1,0,0:0:0:0:
320,192,149449,1,0,0:0:0:0:
64,192,149449,1,0,0:0:0:0:
192,192,149670,1,0,0:0:0:0:
64,192,149670,1,0,0:0:0:0:
448,192,149890,1,0,0:0:0:0:
320,192,149890,1,0,0:0:0:0:
192,192,150001,1,0,0:0:0:0:
64,192,150001,1,0,0:0:0:0:
448,192,150111,1,0,0:0:0:0:
320,192,150111,1,0,0:0:0:0:
192,192,150332,1,0,0:0:0:0:
64,192,150332,1,0,0:0:0:0:
448,192,150552,1,0,0:0:0:0:
192,192,150552,1,0,0:0:0:0:
448,192,150773,1,0,0:0:0:0:
320,192,150773,1,0,0:0:0:0:
192,192,150883,1,0,0:0:0:0:
320,192,150993,1,0,0:0:0:0:
64,192,150993,1,0,0:0:0:0:
448,192,151214,1,0,0:0:0:0:
320,192,151214,1,0,0:0:0:0:
192,192,151324,1,0,0:0:0:0:
320,192,151435,1,0,0:0:0:0:
64,192,151435,1,0,0:0:0:0:
448,192,151545,1,0,0:0:0:0:
192,192,151655,1,0,0:0:0:0:
64,192,151655,1,0,0:0:0:0:
448,192,151765,1,0,0:0:0:0:
320,192,151765,1,0,0:0:0:0:
448,192,151986,1,0,0:0:0:0:
320,192,151986,1,0,0:0:0:0:
192,192,152096,1,0,0:0:0:0:
64,192,152096,1,0,0:0:0:0:
448,192,152317,1,0,0:0:0:0:
64,192,152317,1,0,0:0:0:0:
192,192,152538,1,0,0:0:0:0:
64,192,152538,1,0,0:0:0:0:
320,192,152648,1,0,0:0:0:0:
448,192,152758,1,0,0:0:0:0:
192,192,152758,1,0,0:0:0:0:
448,192,152979,1,0,0:0:0:0:
64,192,152979,1,0,0:0:0:0:
320,192,153089,1,0,0:0:0:0:
192,192,153199,1,0,0:0:0:0:
64,192,153199,1,0,0:0:0:0:
320,192,153310,1,0,0:0:0:0:
448,192,153420,1,0,0:0:0:0:
192,192,153420,1,0,0:0:0:0:
320,192,153640,1,0,0:0:0:0:
192,192,153640,1,0,0:0:0:0:
64,192,153640,1,0,0:0:0:0:
448,192,153861,1,0,0:0:0:0:
192,192,153861,1,0,0:0:0:0:
64,192,153861,1,0,0:0:0:0:
448,192,154082,1,0,0:0:0:0:
192,192,154082,1,0,0:0:0:0:
64,192,154082,1,0,0:0:0:0:
192,192,154302,1,0,0:0:0:0:
64,192,154302,1,0,0:0:0:0:
320,192,154413,1,0,0:0:0:0:
448,192,154523,1,0,0:0:0:0:
192,192,154523,1,0,0:0:0:0:
448,192,154743,1,0,0:0:0:0:
64,192,154743,1,0,0:0:0:0:
192,192,154964,1,0,0:0:0:0:
64,192,154964,1,0,0:0:0:0:
448,192,155185,1,0,0:0:0:0:
320,192,155185,1,0,0:0:0:0:
192,192,155295,1,0,0:0:0:0:
448,192,155405,1,0,0:0:0:0:
320,192,155405,1,0,0:0:0:0:
192,192,155515,1,0,0:0:0:0:
448,192,155626,1,0,0:0:0:0:
64,192,155626,1,0,0:0:0:0:
320,192,155846,1,0,0:0:0:0:
64,192,155846,1,0,0:0:0:0:
448,192,156067,1,0,0:0:0:0:
192,192,156067,1,0,0:0:0:0:
320,192,156177,1,0,0:0:0:0:
448,192,156288,1,0,0:0:0:0:
192,192,156288,1,0,0:0:0:0:
320,192,156508,1,0,0:0:0:0:
64,192,156508,1,0,0:0:0:0:
192,192,156729,1,0,0:0:0:0:
64,192,156729,1,0,0:0:0:0:
448,192,156949,1,0,0:0:0:0:
320,192,156949,1,0,0:0:0:0:
448,192,157170,1,0,0:0:0:0:
192,192,157170,1,0,0:0:0:0:
320,192,157390,1,0,0:0:0:0:
64,192,157390,1,0,0:0:0:0:
448,192,157611,1,0,0:0:0:0:
192,192,157611,1,0,0:0:0:0:
448,192,157832,1,0,0:0:0:0:
320,192,157832,1,0,0:0:0:0:
192,192,157942,1,0,0:0:0:0:
320,192,158052,1,0,0:0:0:0:
64,192,158052,1,0,0:0:0:0:
448,192,158273,1,0,0:0:0:0:
320,192,158273,1,0,0:0:0:0:
192,192,158383,1,0,0:0:0:0:
320,192,158493,1,0,0:0:0:0:
64,192,158493,1,0,0:0:0:0:
448,192,158604,1,0,0:0:0:0:
192,192,158714,1,0,0:0:0:0:
64,192,158714,1,0,0:0:0:0:
320,192,158824,1,0,0:0:0:0:
448,192,158935,1,0,0:0:0:0:
192,192,158935,1,0,0:0:0:0:
192,192,159155,1,0,0:0:0:0:
64,192,159155,1,0,0:0:0:0:
320,192,159265,1,0,0:0:0:0:
448,192,159376,1,0,0:0:0:0:
64,192,159376,1,0,0:0:0:0:
320,192,159486,1,0,0:0:0:0:
192,192,159596,1,0,0:0:0:0:
64,192,159596,1,0,0:0:0:0:
320,192,159707,1,0,0:0:0:0:
448,192,159817,1,0,0:0:0:0:
192,192,159817,1,0,0:0:0:0:
448,192,160038,1,0,0:0:0:0:
64,192,160038,1,0,0:0:0:0:
320,192,160148,1,0,0:0:0:0:
192,192,160258,1,0,0:0:0:0:
64,192,160258,1,0,0:0:0:0:
448,192,160479,1,0,0:0:0:0:
192,192,160479,1,0,0:0:0:0:
320,192,160589,1,0,0:0:0:0:
64,192,160589,1,0,0:0:0:0:
448,192,160810,1,0,0:0:0:0:
320,192,160810,1,0,0:0:0:0:
192,192,160920,1,0,0:0:0:0:
64,192,160920,1,0,0:0:0:0:
448,192,161140,1,0,0:0:0:0:
320,192,161140,1,0,0:0:0:0:
448,192,161361,1,0,0:0:0:0:
64,192,161361,1,0,0:0:0:0:
