osu file format v14

[General]
AudioFilename: audio.mp3
AudioLeadIn: 0
PreviewTime: 25539
Countdown: 0
SampleSet: Soft
StackLeniency: 0.7
Mode: 2
LetterboxInBreaks: 0
WidescreenStoryboard: 0

[Editor]
DistanceSpacing: 1.2
BeatDivisor: 4
GridSize: 4
TimelineZoom: 1.8

[Metadata]
Title:Sentimental Journey
TitleUnicode:Sentimental Journey
Artist:Nyix
ArtistUnicode:Nyix
Creator:Ollapeu
Version:Memories
Source:
Tags:JeirYagtama -wwwww Fii Kaitlyn Pop Dance Trap Future Bass Dubstep Progressive JPop EDM Kawaii House
BeatmapID:1557645
BeatmapSetID:738127

[Difficulty]
HPDrainRate:6
CircleSize:4
OverallDifficulty:8.8
ApproachRate:8.8
SliderMultiplier:1.8
SliderTickRate:2

[Events]
//Background and Video events
0,0,"bg.jpg",0,0
//Break Periods
//Storyboard Layer 0 (Background)
//Storyboard Layer 1 (Fail)
//Storyboard Layer 2 (Pass)
//Storyboard Layer 3 (Foreground)
//Storyboard Sound Samples

[TimingPoints]
1539.77045344311,375,4,2,1,80,1,0
12039,-100,4,2,2,80,0,0
13539,-100,4,2,1,80,0,0
22539,-100,4,2,2,80,0,0
37164,-100,4,2,2,80,0,0
37539,-100,4,2,1,80,0,0
37727,-100,4,2,2,80,0,0
37914,-100,4,2,1,80,0,0
38102,-100,4,2,2,80,0,0
38289,-100,4,2,1,80,0,0
38477,-100,4,2,2,80,0,0
38664,-100,4,2,1,80,0,0
38852,-100,4,2,2,80,0,0
39039,-100,4,2,1,80,0,0
39227,-100,4,2,2,80,0,0
39414,-100,4,2,1,80,0,0
39602,-100,4,2,2,80,0,0
39789,-100,4,2,1,80,0,0
40727,-100,4,2,2,80,0,0
40914,-100,4,2,1,80,0,0
41102,-100,4,2,2,80,0,0
41289,-100,4,2,1,80,0,0
41477,-100,4,2,2,80,0,0
41664,-100,4,2,1,80,0,0
41852,-100,4,2,2,80,0,0
42039,-100,4,2,1,80,0,0
42227,-100,4,2,2,80,0,0
42414,-100,4,2,1,80,0,0
42789,-100,4,2,2,80,0,0
43539,-100,4,2,1,80,0,0
45789,-100,4,2,2,80,0,0
46539,-100,4,2,1,80,0,0
49539,-100,4,2,2,80,0,0
60039,-100,4,2,2,80,0,0
70539,-100,4,2,2,80,0,0
74289,-100,4,2,1,80,0,0
76539,-100,4,2,2,80,0,0
79539,-100,4,2,1,80,0,0
79914,-100,4,2,2,80,0,0
81039,-100,4,2,1,80,0,0
81414,-100,4,2,2,80,0,0
81977,-100,4,2,1,80,0,0
82914,-100,4,2,2,80,0,0
83477,-100,4,2,1,80,0,0
83664,-100,4,2,2,80,0,0
84039,-100,4,2,1,80,0,0
84414,-100,4,2,2,80,0,0
84977,-100,4,2,1,80,0,0
85164,-100,4,2,2,80,0,0
86102,-100,4,2,1,80,0,0
86477,-100,4,2,2,80,0,0
88539,-100,4,2,1,80,0,0
93789,-100,4,2,2,80,0,0
94539,-100,4,2,1,80,0,0
96789,-100,4,2,2,80,0,0
97539,-100,4,2,1,80,0,0
99039,-100,4,2,2,80,0,0
103914,-100,4,2,2,60,0,0
106164,-83.3333333333333,4,2,1,80,0,0
106539,-100,4,3,1,80,0,0
106914,-100,4,2,2,80,0,0
109164,-100,4,3,1,80,0,0
109914,-100,4,2,2,80,0,0
112164,-83.3333333333333,4,2,1,80,0,0
112539,-83.3333333333333,4,3,1,80,0,0
112727,-100,4,2,2,80,0,0
115164,-100,4,2,1,80,0,0
115539,-100,4,3,1,80,0,1
127539,-100,4,2,2,80,0,0
139164,-100,4,2,2,80,0,0
139539,-100,4,2,1,80,0,0
144789,-100,4,2,2,80,0,0
145539,-100,4,2,1,80,0,0
147789,-100,4,2,2,80,0,0
148539,-100,4,2,1,80,0,0
150039,-100,4,2,2,80,0,0
151539,-100,4,2,0,80,0,0
162039,-100,4,2,2,80,0,0
163539,-100,4,2,0,80,0,0
172539,-100,4,2,2,80,0,0
175539,-100,4,2,1,80,0,0
177039,-100,4,2,1,5,0,0

[Colours]
Combo1 : 0,117,58
Combo2 : 198,255,140
Combo3 : 177,177,177

[HitObjects]
88,260,1539,6,0,P|28:200|100:152,1,180,2|8,0:0|0:0,0:0:0:0:
233,260,2102,2,0,P|293:200|221:152,1,180,0|2,0:0|0:0,0:0:0:0:
84,149,2664,2,0,L|84:49,1,90,4|0,0:0|0:0,0:0:0:0:
332,64,3039,2,0,L|528:64,1,180,4|8,0:0|0:0,0:0:0:0:
396,64,3602,1,0,0:0:0:0:
272,64,3789,2,0,L|172:64,1,90,0|2,0:0|0:0,0:0:0:0:
320,64,4164,2,0,L|320:176,1,90,8|0,0:0|0:0,0:0:0:0:
40,152,4539,6,0,L|232:152,1,180,2|8,0:0|0:0,0:0:0:0:
96,152,5102,1,0,0:0:0:0:
220,152,5289,2,0,L|320:152,2,90,0|2|0,0:0|0:0|0:0,0:0:0:0:
88,152,5852,1,0,0:0:0:0:
332,48,6039,2,0,L|536:48,1,180,2|8,0:0|0:0,0:0:0:0:
364,48,6602,2,0,L|240:48,2,90,0|0|2,0:0|0:0|0:0,0:0:0:0:
212,148,7164,2,0,P|144:92|144:44,1,135,8|0,0:0|0:0,0:0:0:0:
392,52,7539,6,0,P|452:104|360:148,1,180,2|8,0:0|0:0,0:0:0:0:
280,164,8102,1,0,0:0:0:0:
168,164,8289,2,0,L|168:64,1,90,0|2,0:0|0:0,0:0:0:0:
324,60,8664,2,0,L|416:60,1,90,8|0,0:0|0:0,0:0:0:0:
152,24,9039,2,0,L|152:204,1,180,2|8,0:0|0:0,0:0:0:0:
356,24,9602,2,0,L|356:204,1,180,2|2,0:0|0:0,0:0:0:0:
196,180,10164,1,8,0:0:0:0:
316,180,10352,1,0,0:0:0:0:
68,180,10539,6,0,L|168:180,2,90,2|0|8,0:0|0:0|0:0,0:0:0:0:
260,224,11102,2,0,P|328:188|328:72,1,180,0|2,0:0|0:0,0:0:0:0:
176,92,11664,2,0,L|276:92,1,90,8|0,0:0|0:0,0:0:0:0:
112,52,12039,2,4,L|56:52,1,45
304,48,12227,2,0,P|360:88|296:164,1,180
252,164,12696,1,0,0:0:0:0:
440,164,12789,5,0,0:0:0:0:
444,108,12883,1,0,0:0:0:0:
448,52,12977,1,0,0:0:0:0:
288,48,13164,2,0,L|216:48,1,45
424,100,13352,2,0,L|488:100,1,45
236,48,13539,6,0,L|56:48,1,180,14|0,0:0|0:0,0:0:0:0:
213,147,14102,2,0,P|273:96|210:47,1,180,0|2,0:0|0:0,0:0:0:0:
76,48,14664,2,0,L|76:152,1,90,8|0,0:0|0:0,0:0:0:0:
424,116,15039,2,0,P|480:180|408:228,1,180,14|8,0:0|0:0,0:0:0:0:
320,232,15602,1,0,0:0:0:0:
177,231,15789,2,0,L|175:130,1,90,0|2,0:0|0:0,0:0:0:0:
373,199,16164,1,0,0:0:0:0:
376,89,16352,1,2,0:0:0:0:
80,232,16539,6,0,L|268:232,1,180,10|8,0:0|0:0,0:0:0:0:
152,232,17102,1,0,0:0:0:0:
296,232,17289,2,0,L|296:118,1,90,0|2,0:0|0:0,0:0:0:0:
433,235,17664,2,0,L|433:123,1,90,8|0,0:0|0:0,0:0:0:0:
127,172,18039,6,0,P|80:149|120:37,1,180,10|0,0:0|0:0,0:0:0:0:
222,40,18602,1,0,0:0:0:0:
81,163,18789,2,0,L|81:67,1,90,10|2,0:0|0:0,0:0:0:0:
260,52,19164,2,0,L|428:52,1,135,8|0,0:0|0:0,0:0:0:0:
149,172,19539,6,0,P|101:145|169:64,1,180,10|8,0:0|0:0,0:0:0:0:
303,174,20102,2,0,L|191:174,1,90,0|8,0:0|0:0,0:0:0:0:
416,172,20477,2,0,L|304:172,2,90,0|8|0,0:0|0:0|0:0,0:0:0:0:
168,88,21039,2,0,P|108:116|180:172,1,180,10|8,0:0|0:0,0:0:0:0:
336,88,21602,2,0,P|396:116|324:172,1,180,0|2,0:0|0:0,0:0:0:0:
200,178,22164,2,0,L|200:78,1,90,8|0,0:0|0:0,0:0:0:0:
460,64,22539,5,4,0:0:0:0:
344,64,22727,1,4,0:0:0:0:
476,64,22914,2,4,L|480:172,1,90
336,72,23289,1,4,0:0:0:0:
337,116,23382,1,4,0:0:0:0:
339,161,23476,1,4,0:0:0:0:
492,160,23664,2,4,L|384:160,1,90
132,280,24039,5,0,0:0:0:0:
89,266,24132,1,0,0:0:0:0:
56,236,24226,1,0,0:0:0:0:
38,195,24320,1,0,0:0:0:0:
38,151,24414,1,0,0:0:0:0:
56,110,24507,1,0,0:0:0:0:
90,81,24601,1,0,0:0:0:0:
133,68,24695,1,0,0:0:0:0:
291,68,24789,6,4,L|293:8,1,45
214,23,24977,2,4,L|169:23,1,45
373,74,25164,1,0,0:0:0:0:
417,112,25258,1,0,0:0:0:0:
417,152,25352,1,0,0:0:0:0:
373,74,25446,1,0,0:0:0:0:
144,176,25539,6,0,L|48:176,1,90,4|0,0:0|0:0,0:0:0:0:
8,176,25821,1,0,0:0:0:0:
54,176,25914,2,0,L|160:176,1,90,4|0,0:0|0:0,0:0:0:0:
288,180,26289,2,0,L|288:116,1,45,4|0,0:0|0:0,0:0:0:0:
104,72,26477,1,0,0:0:0:0:
52,72,26571,1,0,0:0:0:0:
0,72,26664,1,0,0:0:0:0:
168,68,26852,1,0,0:0:0:0:
348,64,27039,6,0,L|348:172,1,90,4|0,0:0|0:0,0:0:0:0:
224,156,27414,1,4,0:0:0:0:
360,152,27602,1,0,0:0:0:0:
408,152,27696,1,0,0:0:0:0:
456,152,27789,1,4,0:0:0:0:
264,152,27977,2,0,L|208:152,1,45
324,152,28164,1,4,0:0:0:0:
368,108,28258,1,0,0:0:0:0:
368,56,28352,1,0,0:0:0:0:
320,16,28446,1,0,0:0:0:0:
132,16,28539,6,0,L|240:16,1,90,4|0,0:0|0:0,0:0:0:0:
172,16,28821,1,0,0:0:0:0:
124,16,28914,1,4,0:0:0:0:
276,16,29102,1,0,0:0:0:0:
141,143,29289,1,4,0:0:0:0:
95,41,29382,1,0,0:0:0:0:
84,83,29476,1,0,0:0:0:0:
100,124,29570,1,0,0:0:0:0:
141,143,29664,1,4,0:0:0:0:
240,144,29852,1,0,0:0:0:0:
496,136,30039,6,0,L|492:232,1,90,4|0,0:0|0:0,0:0:0:0:
348,228,30414,2,4,L|452:228,1,90
380,228,30696,1,0,0:0:0:0:
176,224,30789,1,0,0:0:0:0:
120,224,30883,1,0,0:0:0:0:
176,224,30977,1,0,0:0:0:0:
288,220,31164,2,0,L|288:112,1,90,4|0,0:0|0:0,0:0:0:0:
20,112,31539,6,0,L|116:112,1,90,4|0,0:0|0:0,0:0:0:0:
244,176,31914,2,0,L|136:176,1,90,4|0,0:0|0:0,0:0:0:0:
200,176,32196,1,0,0:0:0:0:
244,176,32289,2,0,L|348:176,1,90,4|0,0:0|0:0,0:0:0:0:
168,108,32664,2,0,L|168:8,1,90,4|0,0:0|0:0,0:0:0:0:
312,16,33039,6,0,P|372:68|312:120,1,180,4|4,0:0|0:0,0:0:0:0:
180,120,33602,1,0,0:0:0:0:
128,120,33696,1,0,0:0:0:0:
180,120,33789,1,4,0:0:0:0:
236,120,33883,1,0,0:0:0:0:
180,120,33977,1,0,0:0:0:0:
68,120,34164,1,0,0:0:0:0:
248,120,34352,1,0,0:0:0:0:
0,192,34539,6,0,L|204:192,1,180,4|4,0:0|0:0,0:0:0:0:
80,192,35102,1,0,0:0:0:0:
216,192,35289,1,4,0:0:0:0:
255,172,35382,1,0,0:0:0:0:
272,128,35476,1,0,0:0:0:0:
257,90,35570,1,0,0:0:0:0:
218,68,35664,1,4,0:0:0:0:
104,72,35852,1,0,0:0:0:0:
268,72,36039,5,4,0:0:0:0:
128,72,36227,2,4,L|104:20,1,45
344,72,36414,1,4,0:0:0:0:
448,72,36602,2,0,L|472:20,1,45
240,72,36789,1,4,0:0:0:0:
196,108,36883,1,4,0:0:0:0:
196,152,36977,1,4,0:0:0:0:
240,192,37071,1,4,0:0:0:0:
416,192,37164,2,4,L|420:152,1,30,6|4,0:0|0:0,0:0:0:0:
296,132,37352,2,4,L|292:92,1,30,6|4,0:0|0:0,0:0:0:0:
492,52,37539,6,0,L|384:52,1,90,2|4,0:0|0:0,0:0:0:0:
256,124,37914,2,0,L|380:124,1,90,2|4,0:0|0:0,0:0:0:0:
144,212,38289,2,0,L|140:100,1,90,2|4,0:0|0:0,0:0:0:0:
188,124,38571,1,0,0:0:0:0:
344,192,38664,2,0,L|456:192,1,90,2|4,0:0|0:0,0:0:0:0:
264,136,39039,2,0,L|260:24,1,90,2|4,0:0|0:0,0:0:0:0:
428,136,39414,2,0,L|432:24,1,90,2|4,0:0|0:0,0:0:0:0:
246,147,39789,2,0,P|190:123|182:39,1,135,2|0,0:0|0:0,0:0:0:0:
222,29,40164,2,0,L|342:29,1,90,2|0,0:0|0:0,0:0:0:0:
52,152,40539,6,0,L|48:52,1,90,2|4,0:0|0:0,0:0:0:0:
220,184,40914,2,0,L|224:84,1,90,2|4,0:0|0:0,0:0:0:0:
84,88,41289,2,0,L|24:88,1,45,2|0,0:0|0:0,0:0:0:0:
232,88,41477,1,4,0:0:0:0:
280,88,41571,1,0,0:0:0:0:
328,88,41664,1,2,0:0:0:0:
180,88,41852,1,4,0:0:0:0:
428,92,42039,6,0,P|484:120|424:188,1,180,2|0,0:0|0:0,0:0:0:0:
344,188,42602,1,0,0:0:0:0:
92,192,42789,2,2,L|52:192,1,30
180,192,42977,2,2,L|216:192,1,30
92,128,43164,2,2,L|60:128,1,30
184,128,43352,2,2,L|228:128,1,30
24,24,43539,2,2,L|24:120,1,90
156,24,43914,1,2,0:0:0:0:
36,24,44102,1,2,0:0:0:0:
320,28,44289,6,2,L|428:28,1,90
444,28,44571,1,0,0:0:0:0:
474,68,44664,1,2,0:0:0:0:
486,112,44758,1,0,0:0:0:0:
474,144,44852,1,2,0:0:0:0:
444,180,44946,1,0,0:0:0:0:
408,180,45039,6,2,L|296:180,1,90
132,180,45414,2,2,L|20:180,1,90
232,132,45789,2,2,L|236:88,1,30
120,132,45977,2,2,L|116:88,1,30
240,132,46164,2,2,L|244:88,1,30
120,132,46352,2,2,L|116:88,1,30
420,72,46539,6,4,L|536:72,1,90
344,112,46914,2,4,L|344:4,1,90
92,72,47289,2,4,L|-24:72,1,90
168,112,47664,2,4,L|168:4,1,90
373,103,48039,1,4,0:0:0:0:
256,105,48227,1,4,0:0:0:0:
512,106,48414,1,4,0:0:0:0:
206,230,48602,1,4,0:0:0:0:
48,235,48789,5,4,0:0:0:0:
12,207,48882,1,4,0:0:0:0:
0,167,48976,1,4,0:0:0:0:
12,123,49070,1,4,0:0:0:0:
48,235,49164,1,4,0:0:0:0:
168,120,49352,1,12,0:0:0:0:
448,120,49539,6,0,L|448:16,1,90
304,32,49914,2,0,L|416:32,1,90,8|0,0:0|0:0,0:0:0:0:
240,32,50289,2,0,P|180:60|256:112,1,180,0|8,0:0|0:0,0:0:0:0:
368,120,50852,1,0,0:0:0:0:
232,120,51039,2,0,L|233:19,1,90
396,36,51414,2,0,P|440:72|392:120,1,135,12|0,0:0|0:0,0:0:0:0:
352,120,51789,1,0,0:0:0:0:
256,120,51977,2,0,L|200:120,1,45
24,120,52164,2,0,L|114:120,1,90,8|0,0:0|0:0,0:0:0:0:
280,48,52539,6,0,L|100:48,1,180,0|8,0:0|0:0,0:0:0:0:
240,48,53102,1,0,0:0:0:0:
92,48,53289,2,0,P|32:96|104:148,1,180,0|8,0:0|0:0,0:0:0:0:
180,152,53852,1,0,0:0:0:0:
476,32,54039,2,0,P|476:120|424:148,1,135
392,144,54414,1,8,0:0:0:0:
256,144,54602,1,0,0:0:0:0:
412,192,54789,2,0,L|416:96,1,90
368,84,55071,1,0,0:0:0:0:
200,56,55164,2,0,L|100:56,1,90,8|0,0:0|0:0,0:0:0:0:
292,56,55539,5,0,0:0:0:0:
344,56,55633,1,0,0:0:0:0:
292,56,55727,1,0,0:0:0:0:
48,56,55914,1,8,0:0:0:0:
200,56,56102,1,0,0:0:0:0:
60,56,56289,1,0,0:0:0:0:
56,104,56383,1,0,0:0:0:0:
52,152,56477,1,0,0:0:0:0:
328,148,56664,1,8,0:0:0:0:
184,144,56852,1,0,0:0:0:0:
436,44,57039,5,0,0:0:0:0:
440,92,57133,1,0,0:0:0:0:
444,140,57227,1,0,0:0:0:0:
264,144,57414,2,0,L|364:144,1,90,8|0,0:0|0:0,0:0:0:0:
404,144,57696,1,0,0:0:0:0:
200,168,57789,5,0,0:0:0:0:
160,136,57882,1,0,0:0:0:0:
148,96,57976,1,0,0:0:0:0:
164,44,58070,1,0,0:0:0:0:
204,24,58164,2,0,L|316:24,1,90,8|0,0:0|0:0,0:0:0:0:
448,32,58539,5,0,0:0:0:0:
400,32,58633,1,0,0:0:0:0:
352,32,58727,1,0,0:0:0:0:
476,32,58914,2,0,L|480:144,1,90,8|0,0:0|0:0,0:0:0:0:
112,28,59289,1,0,0:0:0:0:
160,28,59383,1,0,0:0:0:0:
208,28,59477,1,0,0:0:0:0:
80,28,59664,2,0,L|76:140,1,90,8|0,0:0|0:0,0:0:0:0:
344,212,60039,6,0,L|252:212,1,90
304,212,60321,1,0,0:0:0:0:
356,212,60414,2,0,L|266:212,1,90
216,212,60696,1,0,0:0:0:0:
368,188,60789,2,4,L|432:188,1,45
216,144,60977,2,4,L|136:144,1,45
380,144,61164,1,8,0:0:0:0:
504,144,61352,1,0,0:0:0:0:
228,44,61539,6,0,L|48:44,1,180,0|8,0:0|0:0,0:0:0:0:
160,44,62102,1,0,0:0:0:0:
308,44,62289,2,0,P|372:84|284:108,1,180,0|8,0:0|0:0,0:0:0:0:
184,128,62852,1,0,0:0:0:0:
444,132,63039,2,0,L|444:28,1,90
296,36,63414,2,0,L|408:36,1,90,8|0,0:0|0:0,0:0:0:0:
216,36,63789,1,0,0:0:0:0:
145,115,63977,1,0,0:0:0:0:
145,115,64164,1,8,0:0:0:0:
216,236,64352,1,0,0:0:0:0:
512,140,64539,6,0,L|324:140,1,180,0|8,0:0|0:0,0:0:0:0:
456,140,65102,1,0,0:0:0:0:
460,88,65196,1,0,0:0:0:0:
464,36,65289,1,0,0:0:0:0:
308,28,65477,1,0,0:0:0:0:
420,120,65664,2,0,L|427:31,1,90,8|0,0:0|0:0,0:0:0:0:
68,32,66039,6,0,L|172:32,1,90
304,108,66414,2,0,L|188:108,1,90,8|0,0:0|0:0,0:0:0:0:
160,108,66696,1,0,0:0:0:0:
416,40,66789,2,0,P|472:84|400:144,1,180,0|8,0:0|0:0,0:0:0:0:
306,147,67352,1,0,0:0:0:0:
52,108,67539,5,0,0:0:0:0:
20,152,67633,1,0,0:0:0:0:
52,196,67727,1,0,0:0:0:0:
399,103,67914,2,0,L|309:103,1,90,8|0,0:0|0:0,0:0:0:0:
460,108,68289,1,0,0:0:0:0:
496,152,68383,1,0,0:0:0:0:
460,196,68477,1,0,0:0:0:0:
108,103,68664,2,0,L|198:103,1,90,8|0,0:0|0:0,0:0:0:0:
105,136,69039,5,0,0:0:0:0:
57,136,69133,1,0,0:0:0:0:
9,136,69227,1,0,0:0:0:0:
324,44,69414,2,0,L|420:44,1,90,8|0,0:0|0:0,0:0:0:0:
284,123,69789,1,0,0:0:0:0:
332,123,69883,1,0,0:0:0:0:
380,123,69977,1,0,0:0:0:0:
120,45,70164,2,0,L|24:45,1,90,8|0,0:0|0:0,0:0:0:0:
226,96,70539,5,4,0:0:0:0:
351,95,70727,1,4,0:0:0:0:
199,95,70914,1,4,0:0:0:0:
365,96,71102,2,4,L|373:42,1,45
155,39,71289,2,4,L|54:39,1,90
241,135,71664,1,0,0:0:0:0:
112,135,71852,1,0,0:0:0:0:
285,48,72039,5,4,0:0:0:0:
328,75,72132,1,4,0:0:0:0:
345,116,72226,1,4,0:0:0:0:
328,159,72320,1,4,0:0:0:0:
285,48,72414,1,4,0:0:0:0:
189,185,72602,2,4,L|141:185,1,45
331,114,72789,5,4,0:0:0:0:
383,114,72883,1,4,0:0:0:0:
331,114,72977,1,4,0:0:0:0:
279,114,73071,1,4,0:0:0:0:
439,58,73164,2,4,L|483:58,1,45
331,58,73352,2,4,L|286:58,1,45
495,58,73539,1,4,0:0:0:0:
168,80,74289,5,8,0:0:0:0:
380,252,75039,6,0,P|468:160|368:108,1,270,8|0,0:0|0:0,0:0:0:0:
240,76,75789,1,8,0:0:0:0:
368,76,75977,1,0,0:0:0:0:
224,76,76164,1,8,0:0:0:0:
352,76,76352,1,0,0:0:0:0:
104,152,76539,6,0,P|44:108|124:56,1,180
256,52,77102,1,0,0:0:0:0:
256,52,77477,1,0,0:0:0:0:
96,52,77664,2,0,L|6:52,1,90,4|0,0:0|0:0,0:0:0:0:
272,228,78039,6,0,P|332:176|248:148,1,180,0|4,0:0|0:0,0:0:0:0:
172,136,78602,1,0,0:0:0:0:
328,48,78789,2,0,L|328:152,1,90
188,80,79164,2,0,L|284:80,1,90,4|0,0:0|0:0,0:0:0:0:
0,160,79539,6,0,L|204:160,1,180,2|4,0:0|0:0,0:0:0:0:
72,160,80102,1,0,0:0:0:0:
196,160,80289,2,0,L|296:160,2,90,0|0|4,0:0|0:0|0:0,0:0:0:0:
72,160,80852,1,0,0:0:0:0:
320,120,81039,6,0,L|504:120,1,180,4|4,0:0|0:0,0:0:0:0:
384,120,81602,1,0,0:0:0:0:
512,120,81789,2,0,L|512:16,1,90,0|2,0:0|0:0,0:0:0:0:
352,32,82164,2,0,L|212:32,1,135,8|0,0:0|0:0,0:0:0:0:
444,40,82539,6,0,P|508:72|420:100,1,180,2|4,0:0|0:0,0:0:0:0:
288,124,83102,1,0,0:0:0:0:
300,124,83477,1,2,0:0:0:0:
456,120,83664,2,0,L|456:24,1,90,4|0,0:0|0:0,0:0:0:0:
184,32,84039,2,0,L|4:32,1,180,2|4,0:0|0:0,0:0:0:0:
144,32,84602,1,0,0:0:0:0:
272,32,84977,1,2,0:0:0:0:
108,32,85164,2,0,L|108:136,1,90
356,36,85539,5,0,0:0:0:0:
360,120,85727,1,0,0:0:0:0:
364,208,85914,1,0,0:0:0:0:
56,208,86102,2,0,L|248:208,1,180,2|0,0:0|0:0,0:0:0:0:
108,208,86664,2,0,L|-12:208,1,90,4|0,0:0|0:0,0:0:0:0:
360,148,87039,6,4,L|460:148,1,90
392,148,87321,1,4,0:0:0:0:
152,152,87414,2,4,L|56:152,1,90
120,152,87696,1,4,0:0:0:0:
368,64,87789,5,4,0:0:0:0:
412,104,87883,1,4,0:0:0:0:
412,148,87977,1,4,0:0:0:0:
368,184,88071,1,4,0:0:0:0:
196,184,88164,2,2,L|192:140,1,30
316,184,88352,2,2,L|320:140,1,30
124,84,88539,6,0,L|20:84,1,90,2|0,0:0|0:0,0:0:0:0:
212,136,88914,2,0,L|320:136,1,90,2|0,0:0|0:0,0:0:0:0:
116,132,89289,2,0,L|112:232,1,90,2|0,0:0|0:0,0:0:0:0:
288,136,89664,2,0,L|292:236,1,90,2|0,0:0|0:0,0:0:0:0:
44,132,90039,1,2,0:0:0:0:
148,132,90227,1,0,0:0:0:0:
4,136,90414,2,0,L|0:40,1,90,2|0,0:0|0:0,0:0:0:0:
163,42,90789,2,0,L|298:42,1,135,2|0,0:0|0:0,0:0:0:0:
247,42,91164,2,0,L|153:42,1,90,2|0,0:0|0:0,0:0:0:0:
428,32,91539,6,2,P|488:72|408:120,1,180
324,132,92102,1,0,0:0:0:0:
208,128,92289,2,0,L|208:24,1,90,2|0,0:0|0:0,0:0:0:0:
352,52,92664,2,0,L|468:52,1,90,2|0,0:0|0:0,0:0:0:0:
192,48,93039,2,0,P|132:88|212:136,1,180,2|0,0:0|0:0,0:0:0:0:
320,144,93602,1,0,0:0:0:0:
48,192,93789,6,2,L|44:152,1,30
161,140,93977,2,2,L|156:92,1,30
32,116,94164,2,2,L|28:64,1,30
136,28,94352,1,2,0:0:0:0:
400,56,94539,6,0,L|288:56,1,90,2|0,0:0|0:0,0:0:0:0:
448,132,94914,2,0,L|344:132,1,90,2|0,0:0|0:0,0:0:0:0:
108,56,95289,2,0,L|220:56,1,90,2|0,0:0|0:0,0:0:0:0:
60,132,95664,2,0,L|164:132,1,90,2|0,0:0|0:0,0:0:0:0:
204,132,95946,1,0,0:0:0:0:
380,136,96039,2,0,L|384:36,1,90,2|0,0:0|0:0,0:0:0:0:
228,132,96414,2,0,L|224:32,1,90,2|0,0:0|0:0,0:0:0:0:
476,48,96789,6,2,L|476:92,1,30
376,100,96977,2,2,L|376:132,1,30
484,172,97164,2,2,L|484:212,1,30
376,252,97352,1,2,0:0:0:0:
112,284,97539,5,2,0:0:0:0:
71,264,97632,1,0,0:0:0:0:
41,230,97726,1,2,0:0:0:0:
25,189,97820,1,0,0:0:0:0:
25,144,97914,1,2,0:0:0:0:
42,102,98007,1,0,0:0:0:0:
72,70,98101,1,2,0:0:0:0:
113,50,98195,1,0,0:0:0:0:
364,288,98289,5,2,0:0:0:0:
404,268,98382,1,0,0:0:0:0:
434,234,98476,1,2,0:0:0:0:
450,193,98570,1,0,0:0:0:0:
450,148,98664,1,2,0:0:0:0:
433,106,98757,1,0,0:0:0:0:
403,74,98851,1,2,0:0:0:0:
362,54,98945,1,0,0:0:0:0:
176,52,99039,6,4,L|116:52,1,45
240,52,99227,2,4,L|240:104,1,45
64,144,99414,1,4,0:0:0:0:
24,72,99507,1,4,0:0:0:0:
24,72,99601,1,4,0:0:0:0:
63,45,99695,1,4,0:0:0:0:
224,48,99789,6,4,L|280:48,1,45
96,48,99977,2,4,L|96:96,1,45
264,104,100164,2,4,L|264:164,1,45
104,144,100352,2,4,L|48:144,1,45
272,32,100539,6,0,P|453:148|252:316,1,540
64,132,102039,6,4,L|228:132,2,135
320,128,102789,1,4,0:0:0:0:
356,128,102852,1,4,0:0:0:0:
392,128,102914,1,4,0:0:0:0:
428,96,102977,2,4,L|336:96,1,90
376,96,103227,1,4,0:0:0:0:
412,96,103289,1,4,0:0:0:0:
448,96,103352,1,4,0:0:0:0:
200,96,103539,1,2,0:0:0:0:
384,188,103914,6,6,L|388:144,1,30
272,188,104102,2,6,L|268:148,1,30
392,120,104289,2,6,L|396:80,1,30
264,120,104477,2,6,L|260:76,1,30
500,120,104664,1,6,0:0:0:0:
192,28,105039,6,6,L|188:68,1,30
320,72,105227,2,6,L|316:112,1,30
192,28,105414,2,6,L|188:68,1,30
320,72,105602,2,6,L|316:112,1,30
120,128,105789,2,0,L|16:128,1,90,2|2,0:0|0:0,0:0:0:0:
216,192,106164,2,0,P|272:156|272:60,1,161.999995056153,14|0,0:0|0:0,0:0:0:0:
80,196,106539,1,2,0:0:0:0:
348,192,106914,6,2,L|312:192,1,30
192,144,107102,2,2,L|244:144,1,30
328,100,107289,2,2,L|296:100,1,30
168,60,107477,2,2,L|204:60,1,30
392,60,107664,2,0,P|384:148|332:164,1,135,2|0,0:0|0:0,0:0:0:0:
168,168,108039,5,6,0:0:0:0:
308,164,108227,2,0,L|324:120,1,45,2|0,0:0|0:0,0:0:0:0:
136,124,108414,1,2,0:0:0:0:
16,128,108602,2,2,L|0:84,1,45
176,88,108789,1,2,0:0:0:0:
48,88,108977,1,2,0:0:0:0:
296,88,109164,5,2,0:0:0:0:
322,102,109226,1,0,0:0:0:0:
336,127,109289,1,0,0:0:0:0:
336,157,109351,1,0,0:0:0:0:
320,182,109414,1,0,0:0:0:0:
293,195,109476,1,0,0:0:0:0:
112,196,109539,5,2,0:0:0:0:
393,73,109914,2,2,L|437:73,1,30
313,129,110102,2,2,L|273:129,1,30
397,185,110289,2,2,L|441:185,1,30
317,225,110477,2,2,L|281:225,1,30
477,185,110664,1,2,0:0:0:0:
181,132,111039,6,2,L|181:84,1,30
321,76,111227,2,2,L|285:76,1,30
165,132,111414,2,2,L|165:80,1,30
301,76,111602,2,2,L|253:76,1,30
152,74,111789,6,0,L|148:34,5,30,2|0|0|2|0|0,0:0|0:0|0:0|0:0|0:0|0:0,0:0:0:0:
321,76,112164,6,0,P|321:156|245:200,1,161.999995056153,12|0,0:0|0:0,0:0:0:0:
76,196,112539,1,2,0:0:0:0:
192,200,112727,2,0,L|248:200,1,45
64,196,112914,5,2,0:0:0:0:
27,171,113007,1,0,0:0:0:0:
13,129,113101,1,2,0:0:0:0:
28,88,113195,1,0,0:0:0:0:
66,65,113289,1,2,0:0:0:0:
224,64,113477,2,0,L|264:64,1,30,2|0,0:0|0:0,0:0:0:0:
148,64,113664,2,0,L|148:116,1,45,2|0,0:0|0:0,0:0:0:0:
248,136,113852,2,0,L|248:184,1,45
80,160,114039,6,0,L|32:160,1,45,6|0,0:0|0:0,0:0:0:0:
200,200,114227,2,0,L|256:200,1,45,6|0,0:0|0:0,0:0:0:0:
84,212,114414,1,2,0:0:0:0:
45,190,114507,1,0,0:0:0:0:
31,148,114601,1,2,0:0:0:0:
48,107,114695,1,0,0:0:0:0:
87,88,114789,1,2,0:0:0:0:
352,88,114977,1,2,0:0:0:0:
204,140,115164,2,0,P|144:108|144:32,1,135,12|0,0:0|0:0,0:0:0:0:
400,40,115539,1,2,0:0:0:0:
244,40,115821,5,0,0:0:0:0:
416,40,115914,1,0,0:0:0:0:
452,76,116008,1,0,0:0:0:0:
452,120,116102,1,0,0:0:0:0:
416,152,116196,1,0,0:0:0:0:
260,152,116289,2,0,L|200:152,1,45
332,156,116477,2,0,L|332:104,1,45
140,60,116664,2,0,L|140:156,1,90
324,72,117039,5,0,0:0:0:0:
364,104,117133,1,0,0:0:0:0:
364,152,117227,1,0,0:0:0:0:
324,188,117321,1,0,0:0:0:0:
172,188,117414,2,0,L|112:188,1,45
320,128,117602,2,0,L|376:128,1,45
176,80,117789,5,0,0:0:0:0:
124,80,117883,1,0,0:0:0:0:
176,80,117977,1,0,0:0:0:0:
224,80,118071,1,0,0:0:0:0:
52,80,118164,2,0,L|48:176,1,90
304,168,118539,1,2,0:0:0:0:
172,168,118821,1,0,0:0:0:0:
392,168,118914,5,0,0:0:0:0:
396,116,119008,1,0,0:0:0:0:
400,64,119102,1,0,0:0:0:0:
404,12,119196,1,0,0:0:0:0:
216,244,119289,1,0,0:0:0:0:
212,192,119383,1,0,0:0:0:0:
208,140,119477,1,0,0:0:0:0:
204,88,119571,1,0,0:0:0:0:
376,84,119664,1,0,0:0:0:0:
248,84,119852,1,0,0:0:0:0:
388,88,120039,5,0,0:0:0:0:
427,131,120133,1,0,0:0:0:0:
427,131,120227,1,0,0:0:0:0:
388,216,120321,1,0,0:0:0:0:
204,88,120414,1,0,0:0:0:0:
160,132,120508,1,0,0:0:0:0:
160,132,120602,1,0,0:0:0:0:
204,216,120696,1,0,0:0:0:0:
376,180,120789,6,0,L|380:124,1,45
220,164,120977,2,0,L|224:108,1,45
388,68,121164,2,0,L|436:68,1,45
248,52,121352,2,0,L|192:52,1,45
368,68,121539,1,2,0:0:0:0:
260,64,121821,1,0,0:0:0:0:
452,72,121914,2,0,L|460:124,3,45
260,136,122289,2,0,L|252:188,3,45
424,128,122664,2,0,L|528:128,1,90
188,192,123039,5,0,0:0:0:0:
148,152,123133,1,0,0:0:0:0:
148,104,123227,1,0,0:0:0:0:
188,60,123321,1,0,0:0:0:0:
352,60,123414,2,0,L|404:60,1,45
275,60,123602,2,0,L|275:116,1,45
432,196,123789,5,0,0:0:0:0:
472,156,123883,1,0,0:0:0:0:
472,104,123977,1,0,0:0:0:0:
432,60,124071,1,0,0:0:0:0:
232,60,124164,1,0,0:0:0:0:
403,58,124352,1,0,0:0:0:0:
147,60,124539,1,2,0:0:0:0:
329,61,124821,1,0,0:0:0:0:
129,61,124914,6,0,L|77:61,1,45
237,133,125102,2,0,L|289:133,1,45
64,172,125289,1,0,0:0:0:0:
28,136,125383,1,0,0:0:0:0:
28,80,125477,1,0,0:0:0:0:
64,36,125571,1,0,0:0:0:0:
252,32,125664,2,0,L|352:32,1,90
156,32,126039,6,0,L|56:32,1,90
124,32,126321,1,0,0:0:0:0:
356,32,126414,2,0,L|456:32,1,90
388,32,126696,1,0,0:0:0:0:
192,32,126789,1,0,0:0:0:0:
336,32,126977,2,0,L|360:84,1,45
152,76,127164,1,0,0:0:0:0:
40,76,127352,2,0,L|20:124,1,45
340,120,127539,6,0,P|396:144|320:200,1,180
212,212,128102,1,0,0:0:0:0:
92,120,128289,2,0,P|32:152|108:200,1,180,4|0,0:0|0:0,0:0:0:0:
208,208,128852,1,0,0:0:0:0:
316,208,129039,2,0,L|500:208,1,180
340,208,129602,1,0,0:0:0:0:
448,208,129789,2,4,L|508:208,2,60
312,208,130164,2,4,L|252:208,2,60
512,208,130539,1,4,0:0:0:0:
200,144,130914,6,0,L|104:144,1,90
224,40,131289,1,4,0:0:0:0:
416,144,131664,2,0,L|512:144,1,90
392,36,132039,1,4,0:0:0:0:
188,112,132414,1,0,0:0:0:0:
296,112,132602,1,0,0:0:0:0:
156,112,132789,2,4,L|216:112,2,60
296,112,133164,2,4,L|236:112,2,60
64,112,133539,1,4,0:0:0:0:
312,124,133914,6,0,L|312:236,1,90
176,220,134289,2,0,P|112:172|184:132,1,180,4|0,0:0|0:0,0:0:0:0:
268,128,134852,1,0,0:0:0:0:
92,228,135039,2,0,L|92:40,1,180,4|0,0:0|0:0,0:0:0:0:
208,48,135602,1,0,0:0:0:0:
60,48,135789,5,4,0:0:0:0:
0,116,135914,1,4,0:0:0:0:
0,200,136039,1,4,0:0:0:0:
152,92,136164,1,4,0:0:0:0:
212,160,136289,1,4,0:0:0:0:
212,244,136414,1,4,0:0:0:0:
0,280,136539,1,4,0:0:0:0:
312,192,136914,5,0,0:0:0:0:
404,192,137102,1,0,0:0:0:0:
312,192,137289,1,4,0:0:0:0:
160,192,137664,2,4,L|160:92,1,90,0|0,0:0|0:0,0:0:0:0:
408,96,138039,2,0,P|464:128|408:200,1,180,4|0,0:0|0:0,0:0:0:0:
312,200,138602,1,0,0:0:0:0:
60,203,138789,5,4,0:0:0:0:
27,154,138882,1,4,0:0:0:0:
27,154,138976,1,4,0:0:0:0:
60,203,139071,1,0,0:0:0:0:
228,91,139164,2,2,L|240:61,1,30
124,92,139352,2,2,L|114:61,1,30
442,60,139539,6,0,L|446:156,1,90,2|0,0:0|0:0,0:0:0:0:
301,80,139914,2,0,L|297:176,1,90,2|0,0:0|0:0,0:0:0:0:
442,332,140289,1,2,0:0:0:0:
482,300,140382,1,0,0:0:0:0:
494,260,140476,1,0,0:0:0:0:
478,208,140570,1,0,0:0:0:0:
438,188,140664,2,0,L|326:188,1,90,2|0,0:0|0:0,0:0:0:0:
84,292,141039,5,2,0:0:0:0:
200,292,141227,1,0,0:0:0:0:
44,292,141414,2,0,L|40:200,1,90,2|0,0:0|0:0,0:0:0:0:
93,196,141696,1,0,0:0:0:0:
308,84,141789,1,2,0:0:0:0:
360,84,141883,1,0,0:0:0:0:
408,84,141977,1,0,0:0:0:0:
460,84,142071,1,0,0:0:0:0:
244,84,142164,2,0,L|112:84,1,90,2|0,0:0|0:0,0:0:0:0:
212,84,142446,1,0,0:0:0:0:
412,80,142539,5,2,0:0:0:0:
480,168,142727,1,0,0:0:0:0:
476,268,142914,1,2,0:0:0:0:
408,340,143102,5,0,0:0:0:0:
260,343,143289,2,0,L|215:343,1,45,2|0,0:0|0:0,0:0:0:0:
408,340,143477,1,0,0:0:0:0:
447,310,143570,1,0,0:0:0:0:
460,268,143664,1,2,0:0:0:0:
447,226,143758,1,0,0:0:0:0:
408,340,143852,1,0,0:0:0:0:
156,200,144039,6,0,L|276:200,1,90,2|0,0:0|0:0,0:0:0:0:
84,200,144414,2,0,L|84:96,1,90,2|0,0:0|0:0,0:0:0:0:
248,56,144789,2,2,L|204:56,1,30
120,92,144977,2,2,L|152:92,1,30
268,136,145164,2,2,L|228:136,1,30
128,136,145352,1,2,0:0:0:0:
424,80,145539,5,4,0:0:0:0:
316,80,145727,1,4,0:0:0:0:
208,80,145914,1,4,0:0:0:0:
336,80,146102,1,4,0:0:0:0:
48,80,146289,1,4,0:0:0:0:
176,128,146477,1,4,0:0:0:0:
180,80,146571,1,4,0:0:0:0:
184,32,146664,1,4,0:0:0:0:
56,32,146852,1,4,0:0:0:0:
320,88,147039,6,2,L|420:88,1,90
256,164,147414,2,2,L|368:164,1,90
168,88,147789,2,2,L|124:88,1,30
240,136,147977,2,2,L|276:136,1,30
164,184,148164,2,2,L|112:184,1,30
252,232,148352,2,2,L|296:232,1,30
92,232,148539,6,2,L|-16:232,1,90
208,172,148914,2,2,L|208:52,1,90
68,32,149289,1,2,0:0:0:0:
32,58,149382,1,0,0:0:0:0:
16,100,149476,1,2,0:0:0:0:
34,142,149570,1,0,0:0:0:0:
68,168,149664,1,2,0:0:0:0:
176,166,149852,2,0,L|228:166,1,45
392,168,150039,5,4,0:0:0:0:
428,136,150132,1,4,0:0:0:0:
428,92,150226,1,4,0:0:0:0:
389,65,150320,1,4,0:0:0:0:
232,64,150414,2,4,L|168:64,1,45
306,64,150602,2,4,L|306:112,1,45
123,144,150789,2,4,L|43:144,2,45
243,144,151164,1,4,0:0:0:0:
123,144,151352,1,4,0:0:0:0:
409,144,151539,6,0,L|309:144,1,90
149,218,151914,2,0,L|245:218,1,90,8|0,0:0|0:0,0:0:0:0:
400,220,152289,2,0,P|456:200|388:140,1,180,0|8,0:0|0:0,0:0:0:0:
292,128,152852,1,0,0:0:0:0:
44,124,153039,2,0,L|40:24,1,90
192,32,153414,2,0,L|380:32,1,180,8|0,0:0|0:0,0:0:0:0:
244,32,153977,2,0,L|140:32,2,90,0|8|0,0:0|0:0|0:0,0:0:0:0:
496,32,154539,6,0,L|496:144,1,90
360,124,154914,2,0,L|464:124,1,90,8|0,0:0|0:0,0:0:0:0:
296,124,155289,2,0,P|232:80|312:56,1,180,0|8,0:0|0:0,0:0:0:0:
416,32,155852,1,0,0:0:0:0:
264,124,156039,2,0,P|212:92|212:12,1,135
384,124,156414,2,0,P|436:92|436:12,1,135,8|0,0:0|0:0,0:0:0:0:
272,24,156789,2,0,L|152:24,1,90
316,24,157164,2,0,L|316:136,1,90,8|0,0:0|0:0,0:0:0:0:
68,112,157539,5,0,0:0:0:0:
64,60,157633,1,0,0:0:0:0:
68,12,157727,1,0,0:0:0:0:
326,66,157914,1,8,0:0:0:0:
190,67,158102,1,0,0:0:0:0:
388,144,158289,1,0,0:0:0:0:
392,92,158383,1,0,0:0:0:0:
388,44,158477,1,0,0:0:0:0:
114,151,158664,2,0,L|111:48,1,90,8|0,0:0|0:0,0:0:0:0:
265,81,159039,5,0,0:0:0:0:
313,81,159133,1,0,0:0:0:0:
361,81,159227,1,0,0:0:0:0:
68,28,159414,2,0,L|168:28,1,90,8|0,0:0|0:0,0:0:0:0:
208,28,159696,1,0,0:0:0:0:
52,32,159789,5,0,0:0:0:0:
16,57,159882,1,0,0:0:0:0:
3,99,159976,1,0,0:0:0:0:
20,140,160070,1,0,0:0:0:0:
58,162,160164,1,8,0:0:0:0:
152,160,160352,1,0,0:0:0:0:
452,56,160539,5,0,0:0:0:0:
456,104,160633,1,0,0:0:0:0:
460,152,160727,1,0,0:0:0:0:
184,148,160914,1,8,0:0:0:0:
328,144,161102,1,0,0:0:0:0:
60,56,161289,5,0,0:0:0:0:
56,104,161383,1,0,0:0:0:0:
52,152,161477,1,0,0:0:0:0:
308,165,161664,1,8,0:0:0:0:
460,161,161852,1,0,0:0:0:0:
164,164,162039,6,4,L|52:164,1,90
32,164,162321,1,4,0:0:0:0:
256,164,162414,1,4,0:0:0:0:
396,164,162602,2,4,L|408:112,1,45
204,60,162789,1,4,0:0:0:0:
164,88,162882,1,4,0:0:0:0:
164,128,162976,1,4,0:0:0:0:
204,165,163070,1,4,0:0:0:0:
392,168,163164,2,4,L|396:60,1,90
112,44,163539,6,0,L|12:44,1,90
176,112,163914,2,0,L|272:112,1,90,8|0,0:0|0:0,0:0:0:0:
20,112,164289,2,0,L|200:112,1,180,0|8,0:0|0:0,0:0:0:0:
92,112,164852,1,0,0:0:0:0:
340,112,165039,2,0,L|440:112,2,90,0|0|8,0:0|0:0|0:0,0:0:0:0:
220,112,165602,1,0,0:0:0:0:
482,108,165789,2,0,L|282:108,1,180,0|8,0:0|0:0,0:0:0:0:
439,108,166352,1,0,0:0:0:0:
192,228,166539,5,0,0:0:0:0:
120,164,166727,1,0,0:0:0:0:
120,72,166914,1,8,0:0:0:0:
192,4,167102,1,0,0:0:0:0:
304,0,167289,2,0,P|360:28|292:96,1,180,0|8,0:0|0:0,0:0:0:0:
151,100,167852,1,0,0:0:0:0:
403,99,168039,6,0,L|511:99,1,90
322,176,168414,2,0,L|434:176,1,90,8|0,0:0|0:0,0:0:0:0:
462,176,168696,1,0,0:0:0:0:
412,176,168789,2,0,L|223:177,1,180,0|8,0:0|0:0,0:0:0:0:
419,176,169352,1,0,0:0:0:0:
156,112,169539,5,0,0:0:0:0:
108,112,169633,1,0,0:0:0:0:
60,112,169727,1,0,0:0:0:0:
227,112,169914,2,0,L|126:112,1,90,8|0,0:0|0:0,0:0:0:0:
416,113,170289,1,0,0:0:0:0:
464,113,170383,1,0,0:0:0:0:
512,113,170477,1,0,0:0:0:0:
346,113,170664,2,0,L|440:113,1,90,8|0,0:0|0:0,0:0:0:0:
99,42,171039,5,0,0:0:0:0:
91,82,171133,1,0,0:0:0:0:
99,122,171227,1,0,0:0:0:0:
231,122,171414,1,8,0:0:0:0:
107,122,171602,1,0,0:0:0:0:
367,125,171789,1,0,0:0:0:0:
415,125,171883,1,0,0:0:0:0:
463,125,171977,1,0,0:0:0:0:
283,53,172164,2,0,L|391:53,1,90,8|0,0:0|0:0,0:0:0:0:
68,168,172539,5,4,0:0:0:0:
28,136,172632,1,0,0:0:0:0:
16,92,172726,1,4,0:0:0:0:
28,44,172820,1,0,0:0:0:0:
68,20,172914,2,0,L|180:20,1,90,4|0,0:0|0:0,0:0:0:0:
208,20,173196,1,0,0:0:0:0:
376,24,173289,2,0,L|440:24,1,45,4|0,0:0|0:0,0:0:0:0:
312,24,173477,2,0,L|312:76,1,45,4|0,0:0|0:0,0:0:0:0:
496,108,173664,2,0,L|380:108,1,90,4|0,0:0|0:0,0:0:0:0:
256,104,174039,5,4,0:0:0:0:
216,134,174132,1,4,0:0:0:0:
200,176,174226,1,4,0:0:0:0:
216,220,174320,1,4,0:0:0:0:
256,248,174414,1,4,0:0:0:0:
412,244,174602,2,4,L|412:188,1,45
228,124,174789,6,4,L|176:124,1,45
348,68,174977,2,4,L|412:68,1,45
220,36,175164,1,4,0:0:0:0:
172,76,175258,1,4,0:0:0:0:
172,124,175352,1,4,0:0:0:0:
220,168,175446,1,4,0:0:0:0:
440,168,175539,1,4,0:0:0:0:
92,168,176289,1,4,0:0:0:0:
256,192,177039,12,0,178539,0:0:0:0:
