osu file format v14

[General]
AudioFilename: audio.mp3
AudioLeadIn: 0
PreviewTime: 25539
Countdown: 0
SampleSet: Soft
StackLeniency: 0.7
Mode: 2
LetterboxInBreaks: 0
WidescreenStoryboard: 1

[Editor]
Bookmarks: 36789
DistanceSpacing: 1
BeatDivisor: 4
GridSize: 4
TimelineZoom: 1

[Metadata]
Title:Sentimental Journey
TitleUnicode:Sentimental Journey
Artist:Nyix
ArtistUnicode:Nyix
Creator:Ollapeu
Version:Cup
Source:
Tags:JeirYagtama -wwwww Fii Kaitlyn Pop Dance Trap Future Bass Dubstep Progressive JPop EDM Kawaii House
BeatmapID:1557644
BeatmapSetID:738127

[Difficulty]
HPDrainRate:3
CircleSize:2
OverallDifficulty:6
ApproachRate:6
SliderMultiplier:1.3
SliderTickRate:1

[Events]
//Background and Video events
0,0,"bg.jpg",0,0
//Break Periods
2,127739,138489
//Storyboard Layer 0 (Background)
//Storyboard Layer 1 (Fail)
//Storyboard Layer 2 (Pass)
//Storyboard Layer 3 (Foreground)
//Storyboard Sound Samples

[TimingPoints]
1539,375,4,2,1,80,1,0
12039,-100,4,2,2,80,0,0
13539,-100,4,2,1,80,0,0
22539,-100,4,2,2,80,0,0
37539,-100,4,2,1,80,0,0
37727,-100,4,2,2,80,0,0
37914,-100,4,2,1,80,0,0
38102,-100,4,2,2,80,0,0
38289,-100,4,2,1,80,0,0
38477,-100,4,2,2,80,0,0
38664,-100,4,2,1,80,0,0
38852,-100,4,2,2,80,0,0
39039,-100,4,2,1,80,0,0
39227,-100,4,2,2,80,0,0
39414,-100,4,2,1,80,0,0
39602,-100,4,2,2,80,0,0
39789,-100,4,2,1,80,0,0
40727,-100,4,2,2,80,0,0
40914,-100,4,2,1,80,0,0
41102,-100,4,2,2,80,0,0
41289,-100,4,2,1,80,0,0
41477,-100,4,2,2,80,0,0
41664,-100,4,2,1,80,0,0
41852,-100,4,2,2,80,0,0
42039,-100,4,2,1,80,0,0
42227,-100,4,2,2,80,0,0
42414,-100,4,2,1,80,0,0
42789,-100,4,2,2,80,0,0
43539,-100,4,2,1,80,0,0
45789,-100,4,2,2,80,0,0
46539,-100,4,2,1,80,0,0
49539,-100,4,2,2,80,0,0
74289,-100,4,2,1,80,0,0
76539,-100,4,2,2,80,0,0
79539,-100,4,2,1,80,0,0
79914,-100,4,2,2,80,0,0
81039,-100,4,2,1,80,0,0
81414,-100,4,2,2,80,0,0
81977,-100,4,2,1,80,0,0
82914,-100,4,2,2,80,0,0
83477,-100,4,2,1,80,0,0
83664,-100,4,2,2,80,0,0
84039,-100,4,2,1,80,0,0
84414,-100,4,2,2,80,0,0
84977,-100,4,2,1,80,0,0
85164,-100,4,2,2,80,0,0
86102,-100,4,2,1,80,0,0
86477,-100,4,2,2,80,0,0
88539,-100,4,2,1,80,0,0
93789,-100,4,2,2,80,0,0
94539,-100,4,2,1,80,0,0
96789,-100,4,2,2,80,0,0
97539,-100,4,2,1,80,0,0
99039,-100,4,2,2,80,0,0
103914,-100,4,2,2,60,0,0
106164,-83.3333333333333,4,2,1,80,0,0
106539,-100,4,3,1,80,0,0
106914,-100,4,2,2,80,0,0
109164,-100,4,3,1,80,0,0
109914,-100,4,2,2,80,0,0
112164,-83.3333333333333,4,2,1,80,0,0
112539,-83.3333333333333,4,3,1,80,0,0
112727,-100,4,2,2,80,0,0
115164,-100,4,2,1,80,0,0
115539,-100,4,3,1,80,0,1
127539,-100,4,2,2,80,0,0
139539,-100,4,2,1,80,0,0
144789,-100,4,2,2,80,0,0
145539,-100,4,2,1,80,0,0
147789,-100,4,2,2,80,0,0
148539,-100,4,2,1,80,0,0
150039,-100,4,2,2,80,0,0
151539,-100,4,2,0,80,0,0
162039,-100,4,2,2,80,0,0
163539,-100,4,2,0,80,0,0
172539,-100,4,2,2,80,0,0
175539,-100,4,2,1,80,0,0
177039,-100,4,2,1,5,0,0

[Colours]
Combo1 : 0,117,58
Combo2 : 198,255,140
Combo3 : 177,177,177

[HitObjects]
256,144,1539,5,2,0:0:0:0:
120,144,1914,2,0,L|112:48,1,65,8|0,0:0|0:0,0:0:0:0:
276,144,2477,2,0,L|284:48,1,65,2|4,0:0|0:0,0:0:0:0:
120,44,3039,2,0,P|64:68|156:200,1,260,4|0,0:0|0:0,0:0:0:0:
256,204,4164,1,8,0:0:0:0:
392,44,4539,6,0,P|448:68|356:200,1,260,2|0,0:0|0:0,0:0:0:0:
228,204,5664,1,8,0:0:0:0:
392,204,6039,2,0,L|396:64,1,130,2|8,0:0|0:0,0:0:0:0:
256,72,6789,1,0,0:0:0:0:
196,72,6977,1,2,0:0:0:0:
256,72,7164,1,8,0:0:0:0:
396,68,7539,6,0,P|436:88|384:200,1,195,2|0,0:0|0:0,0:0:0:0:
300,200,8289,1,0,0:0:0:0:
456,200,8664,1,8,0:0:0:0:
280,200,9039,2,0,L|76:200,2,195,2|2|8,0:0|0:0|0:0,0:0:0:0:
424,200,10539,6,0,P|452:172|408:88,1,130,2|8,0:0|0:0,0:0:0:0:
324,200,11102,2,0,P|296:172|340:88,1,130,0|2,0:0|0:0,0:0:0:0:
426,94,11664,1,8,0:0:0:0:
228,92,12039,2,0,L|144:92,2,65,4|4|0,0:0|0:0|0:0,0:0:0:0:
384,92,12789,2,0,P|384:168|324:196,1,130,4|0,0:0|0:0,0:0:0:0:
181,196,13539,1,14,0:0:0:0:
328,196,13914,6,0,L|396:196,1,65,0|0,0:0|0:0,0:0:0:0:
232,280,14477,2,0,L|156:280,1,65,2|8,0:0|0:0,0:0:0:0:
372,279,15039,2,0,P|428:255|360:111,1,260,14|0,0:0|0:0,0:0:0:0:
227,112,16164,1,8,0:0:0:0:
424,112,16539,6,0,P|424:192|380:224,1,130,10|8,0:0|0:0,0:0:0:0:
208,112,17289,2,0,P|208:192|252:224,1,130,0|8,0:0|0:0,0:0:0:0:
408,220,18039,1,10,0:0:0:0:
248,216,18414,1,8,0:0:0:0:
401,214,18789,2,0,L|417:130,1,65,0|2,0:0|0:0,0:0:0:0:
318,94,19164,1,8,0:0:0:0:
152,96,19539,6,0,L|0:96,2,130,10|8|8,0:0|0:0|0:0,0:0:0:0:
288,96,20664,1,8,0:0:0:0:
132,96,21039,2,0,P|92:132|148:180,1,130,10|8,0:0|0:0,0:0:0:0:
240,180,21602,2,0,L|376:180,1,130,0|2,0:0|0:0,0:0:0:0:
272,180,22164,1,8,0:0:0:0:
100,180,22539,5,4,0:0:0:0:
80,108,22727,1,4,0:0:0:0:
100,40,22914,1,4,0:0:0:0:
274,214,23289,1,4,0:0:0:0:
294,142,23477,1,4,0:0:0:0:
274,74,23664,1,4,0:0:0:0:
135,62,24039,5,4,0:0:0:0:
86,1,24226,1,4,0:0:0:0:
86,1,24414,1,4,0:0:0:0:
135,62,24601,1,4,0:0:0:0:
196,64,24789,6,0,P|240:72|172:156,1,195,4|4,0:0|0:0,0:0:0:0:
88,172,25539,5,4,0:0:0:0:
220,168,25914,1,4,0:0:0:0:
64,168,26289,2,0,L|60:32,1,130,4|4,0:0|0:0,0:0:0:0:
224,36,27039,2,0,L|84:36,1,130,4|4,0:0|0:0,0:0:0:0:
292,244,27789,2,0,P|352:228|352:92,1,195,4|0,0:0|0:0,0:0:0:0:
260,112,28539,6,0,P|268:196|332:212,1,130,4|4,0:0|0:0,0:0:0:0:
456,112,29289,2,0,P|448:196|384:212,1,130,4|4,0:0|0:0,0:0:0:0:
288,212,30039,1,4,0:0:0:0:
164,212,30414,1,4,0:0:0:0:
348,208,30789,2,0,L|420:208,2,65,0|0|4,0:0|0:0|0:0,0:0:0:0:
200,208,31539,5,4,0:0:0:0:
368,208,31914,1,4,0:0:0:0:
212,264,32289,1,4,0:0:0:0:
160,228,32476,1,0,0:0:0:0:
136,176,32664,1,4,0:0:0:0:
156,116,32851,1,0,0:0:0:0:
208,76,33039,1,4,0:0:0:0:
348,76,33414,1,4,0:0:0:0:
192,76,33789,5,4,0:0:0:0:
120,76,33977,1,0,0:0:0:0:
52,76,34164,1,4,0:0:0:0:
248,80,34539,2,0,P|296:100|228:192,1,195,4|0,0:0|0:0,0:0:0:0:
136,196,35289,1,4,0:0:0:0:
316,196,35664,1,4,0:0:0:0:
112,192,36039,6,0,L|104:116,1,65,4|4,0:0|0:0,0:0:0:0:
184,64,36414,1,4,0:0:0:0:
368,192,36789,2,0,L|376:116,1,65,4|4,0:0|0:0,0:0:0:0:
268,124,37164,2,0,L|260:48,1,65,6|6,0:0|0:0,0:0:0:0:
380,24,37539,6,0,L|516:24,1,130,2|2,0:0|0:0,0:0:0:0:
324,124,38289,2,0,L|188:124,1,130,2|2,0:0|0:0,0:0:0:0:
372,232,39039,2,0,P|404:176|348:124,1,130,2|2,0:0|0:0,0:0:0:0:
204,168,39789,2,0,P|172:112|228:60,1,130,2|2,0:0|0:0,0:0:0:0:
299,64,40352,1,0,0:0:0:0:
391,64,40539,6,0,L|399:224,1,130,2|2,0:0|0:0,0:0:0:0:
204,112,41289,2,0,L|196:272,1,130,2|2,0:0|0:0,0:0:0:0:
328,240,42039,1,2,0:0:0:0:
468,240,42414,1,0,0:0:0:0:
320,228,42789,2,0,L|272:168,3,65,2|2|2|2,0:0|0:0|0:0|0:0,0:0:0:0:
208,176,43539,6,0,L|68:176,1,130,2|2,0:0|0:0,0:0:0:0:
175,176,44102,1,2,0:0:0:0:
270,177,44289,2,0,L|410:177,1,130,2|2,0:0|0:0,0:0:0:0:
208,180,45039,6,0,B|136:144|136:144|136:80,1,130,2|2,0:0|0:0,0:0:0:0:
344,64,45789,1,2,0:0:0:0:
396,120,45977,1,2,0:0:0:0:
396,196,46164,1,2,0:0:0:0:
344,252,46352,1,2,0:0:0:0:
272,256,46539,2,0,P|224:244|192:100,1,195,4|4,0:0|0:0,0:0:0:0:
280,168,47289,2,0,P|328:156|360:12,1,195,4|4,0:0|0:0,0:0:0:0:
283,31,48039,6,0,L|148:30,1,130,4|0,0:0|0:0,0:0:0:0:
223,30,48601,1,0,0:0:0:0:
288,30,48789,2,0,L|431:30,1,130,4|0,0:0|0:0,0:0:0:0:
268,144,49539,6,0,L|400:144,2,130,0|8|0,0:0|0:0|0:0,0:0:0:0:
416,144,50664,1,8,0:0:0:0:
256,144,51039,1,0,0:0:0:0:
332,144,51227,1,0,0:0:0:0:
404,144,51414,1,12,0:0:0:0:
216,148,51789,2,0,P|188:180|236:252,1,130,0|8,0:0|0:0,0:0:0:0:
408,144,52539,6,0,P|436:176|388:248,1,130,0|8,0:0|0:0,0:0:0:0:
309,248,53102,1,0,0:0:0:0:
215,248,53289,2,0,L|75:248,1,130,0|8,0:0|0:0,0:0:0:0:
166,248,53852,1,0,0:0:0:0:
247,249,54039,5,0,0:0:0:0:
110,250,54414,1,8,0:0:0:0:
295,248,54789,1,0,0:0:0:0:
124,248,55164,2,0,L|116:164,1,65,8|0,0:0|0:0,0:0:0:0:
204,104,55539,6,0,L|360:104,1,130,0|8,0:0|0:0,0:0:0:0:
175,102,56289,1,0,0:0:0:0:
328,104,56664,1,8,0:0:0:0:
136,104,57039,2,0,L|128:264,1,130,0|8,0:0|0:0,0:0:0:0:
321,135,57789,2,0,L|329:295,1,130,0|8,0:0|0:0,0:0:0:0:
136,192,58539,5,0,0:0:0:0:
288,188,58914,1,8,0:0:0:0:
136,104,59289,1,0,0:0:0:0:
288,108,59664,1,8,0:0:0:0:
88,104,60039,6,0,L|4:104,2,65,0|0|0,0:0|0:0|0:0,0:0:0:0:
188,104,60602,2,0,P|244:116|172:180,1,195,0|12,0:0|0:0,0:0:0:0:
32,188,61539,6,0,L|28:52,1,130,0|8,0:0|0:0,0:0:0:0:
104,56,62102,1,0,0:0:0:0:
176,56,62289,1,0,0:0:0:0:
332,56,62664,1,8,0:0:0:0:
168,56,63039,2,0,L|36:56,1,130,0|8,0:0|0:0,0:0:0:0:
225,154,63789,2,0,L|357:154,1,130,0|8,0:0|0:0,0:0:0:0:
192,156,64539,5,0,0:0:0:0:
376,156,64914,2,0,L|448:156,2,65,8|0|0,0:0|0:0|0:0,0:0:0:0:
212,156,65664,1,8,0:0:0:0:
376,192,66039,2,0,B|432:140|432:140|432:76,1,130,0|8,0:0|0:0,0:0:0:0:
256,156,66789,2,0,B|200:104|200:104|200:40,1,130,0|8,0:0|0:0,0:0:0:0:
372,48,67539,5,0,0:0:0:0:
236,48,67914,1,8,0:0:0:0:
396,48,68289,1,0,0:0:0:0:
400,104,68477,1,0,0:0:0:0:
404,156,68664,1,8,0:0:0:0:
240,160,69039,6,0,L|384:160,1,130,0|8,0:0|0:0,0:0:0:0:
192,48,69789,1,0,0:0:0:0:
188,104,69977,1,0,0:0:0:0:
184,156,70164,1,8,0:0:0:0:
378,188,70539,6,0,L|302:188,1,65,4|4,0:0|0:0,0:0:0:0:
216,184,70914,2,0,P|176:136|228:104,1,130,4|4,0:0|0:0,0:0:0:0:
312,104,71477,1,4,0:0:0:0:
400,104,71664,1,4,0:0:0:0:
232,148,72039,6,0,L|88:148,1,130,4|4,0:0|0:0,0:0:0:0:
208,148,72602,2,0,P|280:148|204:240,1,260,4|4,0:0|0:0,0:0:0:0:
104,244,73539,1,4,0:0:0:0:
404,188,74289,1,8,0:0:0:0:
200,188,75039,1,8,0:0:0:0:
420,80,75789,2,0,L|420:164,1,65,8|0,0:0|0:0,0:0:0:0:
324,160,76164,2,0,L|324:240,1,65,8|0,0:0|0:0,0:0:0:0:
420,280,76539,5,0,0:0:0:0:
248,256,76914,2,0,L|244:176,1,65,4|0,0:0|0:0,0:0:0:0:
388,256,77477,2,0,L|392:176,1,65,0|4,0:0|0:0,0:0:0:0:
256,224,78039,2,0,P|204:208|272:72,1,260,0|0,0:0|0:0,0:0:0:0:
404,68,79164,1,4,0:0:0:0:
240,68,79539,2,0,B|86:66|86:66|192:68,1,260,2|0,0:0|0:0,0:0:0:0:
320,68,80664,1,4,0:0:0:0:
164,68,81039,6,0,L|160:212,1,130,4|4,0:0|0:0,0:0:0:0:
348,68,81789,2,0,L|352:212,1,130,0|8,0:0|0:0,0:0:0:0:
184,192,82539,1,2,0:0:0:0:
352,192,82914,1,4,0:0:0:0:
200,192,83289,1,0,0:0:0:0:
136,192,83476,1,0,0:0:0:0:
72,192,83664,1,0,0:0:0:0:
268,72,84039,2,0,L|468:72,2,195,2|0|4,0:0|0:0|0:0,0:0:0:0:
128,72,85539,1,0,0:0:0:0:
304,72,85914,1,0,0:0:0:0:
132,80,86289,6,0,P|92:108|144:156,1,130,0|4,0:0|0:0,0:0:0:0:
280,156,87039,2,0,L|360:156,2,65,4|4|4,0:0|0:0|0:0,0:0:0:0:
104,160,87789,2,0,L|56:108,3,65,4|4|2|2,0:0|0:0|0:0|0:0,0:0:0:0:
164,52,88539,6,0,L|312:52,1,130,2|2,0:0|0:0,0:0:0:0:
104,52,89289,2,0,P|64:84|108:136,1,130,2|2,0:0|0:0,0:0:0:0:
280,176,90039,1,2,0:0:0:0:
136,176,90414,1,2,0:0:0:0:
312,176,90789,2,0,B|376:152|376:152|376:84,1,130,2|2,0:0|0:0,0:0:0:0:
280,84,91352,1,0,0:0:0:0:
186,85,91539,6,0,L|34:85,1,130,2|2,0:0|0:0,0:0:0:0:
236,84,92289,1,2,0:0:0:0:
120,84,92664,1,2,0:0:0:0:
12,84,93039,1,2,0:0:0:0:
172,84,93414,1,0,0:0:0:0:
32,84,93789,2,0,L|32:160,1,65,2|2,0:0|0:0,0:0:0:0:
128,164,94164,2,0,L|128:248,1,65,2|2,0:0|0:0,0:0:0:0:
224,272,94539,6,0,L|380:272,2,130,2|2|2,0:0|0:0|0:0,0:0:0:0:
384,272,95664,1,2,0:0:0:0:
212,192,96039,2,0,L|368:192,1,130,2|2,0:0|0:0,0:0:0:0:
416,192,96602,1,0,0:0:0:0:
344,192,96789,2,0,L|268:192,1,65,2|2,0:0|0:0,0:0:0:0:
376,192,97164,2,0,L|448:192,1,65,2|2,0:0|0:0,0:0:0:0:
309,42,97539,2,0,P|257:54|325:186,1,260,2|2,0:0|0:0,0:0:0:0:
448,180,98664,1,2,0:0:0:0:
256,192,99039,12,0,100539,0:0:0:0:
237,64,102039,6,0,L|153:14,2,97.5,4|4|4,0:0|0:0|0:0,0:0:0:0:
337,49,102789,2,0,P|373:108|312:147,1,130,0|4,0:0|0:0,0:0:0:0:
168,142,103539,1,2,0:0:0:0:
360,64,103914,6,0,P|384:96|348:180,1,130,6|6,0:0|0:0,0:0:0:0:
284,176,104477,1,6,0:0:0:0:
212,176,104664,1,6,0:0:0:0:
396,176,105039,2,0,L|432:112,2,65,6|6|6,0:0|0:0|0:0,0:0:0:0:
304,176,105602,1,6,0:0:0:0:
212,176,105789,2,0,L|176:108,2,65,2|2|14,0:0|0:0|0:0,0:0:0:0:
424,172,106539,1,2,0:0:0:0:
268,176,106914,6,0,L|132:176,1,130,2|2,0:0|0:0,0:0:0:0:
204,176,107477,1,2,0:0:0:0:
268,176,107664,1,2,0:0:0:0:
440,180,108039,2,0,L|444:44,1,130,6|2,0:0|0:0,0:0:0:0:
256,176,108789,2,0,L|252:40,1,130,2|2,0:0|0:0,0:0:0:0:
440,44,109539,5,2,0:0:0:0:
272,40,109914,2,0,L|212:100,3,65,2|2|2|2,0:0|0:0|0:0|0:0,0:0:0:0:
320,84,110664,1,2,0:0:0:0:
140,240,111039,1,2,0:0:0:0:
92,196,111227,1,2,0:0:0:0:
80,136,111414,1,2,0:0:0:0:
96,72,111602,1,2,0:0:0:0:
144,32,111789,1,2,0:0:0:0:
292,36,112164,1,12,0:0:0:0:
112,32,112539,5,2,0:0:0:0:
284,112,112914,2,0,L|360:112,2,65,2|2|2,0:0|0:0|0:0,0:0:0:0:
128,112,113664,1,2,0:0:0:0:
320,196,114039,2,0,L|328:116,1,65,6|6,0:0|0:0,0:0:0:0:
220,148,114414,2,0,L|212:68,1,65,2|2,0:0|0:0,0:0:0:0:
316,32,114789,1,2,0:0:0:0:
144,32,115164,1,12,0:0:0:0:
296,108,115539,6,0,L|420:108,2,97.5,2|0|0,0:0|0:0|0:0,0:0:0:0:
224,108,116289,2,0,L|108:108,2,97.5,0|0|0,0:0|0:0|0:0,0:0:0:0:
340,108,117039,2,0,P|376:148|324:212,1,130,0|0,0:0|0:0,0:0:0:0:
184,204,117789,1,0,0:0:0:0:
348,244,118164,2,0,L|348:164,1,65,0|0,0:0|0:0,0:0:0:0:
240,144,118539,6,0,L|112:148,2,97.5,2|0|0,0:0|0:0|0:0,0:0:0:0:
360,144,119289,1,0,0:0:0:0:
244,144,119571,1,0,0:0:0:0:
360,144,119852,1,0,0:0:0:0:
264,144,120039,6,0,L|120:144,1,130,0|0,0:0|0:0,0:0:0:0:
264,208,120789,2,0,L|408:208,1,130,0|0,0:0|0:0,0:0:0:0:
320,208,121352,1,0,0:0:0:0:
248,208,121539,6,0,L|140:208,1,97.5,2|0,0:0|0:0,0:0:0:0:
280,208,122102,1,0,0:0:0:0:
180,208,122289,2,0,L|292:208,1,97.5,0|0,0:0|0:0,0:0:0:0:
144,208,122852,1,0,0:0:0:0:
240,208,123039,5,0,0:0:0:0:
88,208,123414,1,0,0:0:0:0:
264,208,123789,2,0,L|344:208,2,65,0|0|0,0:0|0:0|0:0,0:0:0:0:
128,208,124539,6,0,L|120:100,1,97.5,2|0,0:0|0:0,0:0:0:0:
268,108,125102,1,0,0:0:0:0:
364,112,125289,2,0,L|376:-12,1,97.5,0|0,0:0|0:0,0:0:0:0:
224,112,125852,1,0,0:0:0:0:
324,112,126039,5,0,0:0:0:0:
140,112,126414,1,0,0:0:0:0:
324,112,126789,2,0,L|324:184,1,65,0|0,0:0|0:0,0:0:0:0:
220,168,127164,2,0,L|220:252,1,65,0|0,0:0|0:0,0:0:0:0:
324,284,127539,1,0,0:0:0:0:
140,72,139539,5,2,0:0:0:0:
256,72,139914,1,2,0:0:0:0:
68,72,140289,1,2,0:0:0:0:
132,72,140477,1,0,0:0:0:0:
200,72,140664,1,2,0:0:0:0:
360,68,141039,6,0,L|364:220,1,130,2|2,0:0|0:0,0:0:0:0:
188,80,141789,2,0,L|184:232,1,130,2|2,0:0|0:0,0:0:0:0:
279,214,142352,1,0,0:0:0:0:
373,214,142539,5,2,0:0:0:0:
216,216,142914,1,2,0:0:0:0:
400,216,143289,2,0,P|400:140|352:96,1,130,2|2,0:0|0:0,0:0:0:0:
192,216,144039,2,0,P|192:140|240:96,1,130,2|2,0:0|0:0,0:0:0:0:
376,100,144789,2,0,L|412:164,3,65,2|2|2|2,0:0|0:0|0:0|0:0,0:0:0:0:
312,156,145539,6,0,L|160:156,2,130,4|4|4,0:0|0:0|0:0,0:0:0:0:
377,156,146477,1,4,0:0:0:0:
312,156,146664,1,4,0:0:0:0:
250,155,146852,1,4,0:0:0:0:
189,156,147039,6,0,P|145:200|197:228,1,130,2|2,0:0|0:0,0:0:0:0:
360,192,147789,2,0,L|360:116,1,65,2|2,0:0|0:0,0:0:0:0:
264,120,148164,2,0,L|264:48,1,65,2|2,0:0|0:0,0:0:0:0:
360,16,148539,1,2,0:0:0:0:
188,56,148914,1,2,0:0:0:0:
354,37,149289,5,2,0:0:0:0:
400,83,149477,1,2,0:0:0:0:
418,144,149664,1,2,0:0:0:0:
400,83,149852,1,0,0:0:0:0:
354,37,150039,1,4,0:0:0:0:
217,37,150414,1,4,0:0:0:0:
384,52,150789,2,0,L|388:196,1,130,4|4,0:0|0:0,0:0:0:0:
200,184,151539,5,0,0:0:0:0:
360,180,151914,2,0,L|448:180,2,65,8|0|0,0:0|0:0|0:0,0:0:0:0:
200,180,152664,1,8,0:0:0:0:
376,176,153039,2,0,P|408:136|368:72,1,130,0|8,0:0|0:0,0:0:0:0:
276,76,153602,1,0,0:0:0:0:
112,72,153977,2,0,L|104:160,1,65,0|8,0:0|0:0,0:0:0:0:
276,168,154539,6,0,L|416:168,1,130,0|8,0:0|0:0,0:0:0:0:
224,244,155289,2,0,L|68:244,1,130,0|8,0:0|0:0,0:0:0:0:
292,240,156039,1,0,0:0:0:0:
304,124,156414,1,8,0:0:0:0:
316,8,156789,1,0,0:0:0:0:
144,88,157164,2,0,L|60:88,1,65,8|0,0:0|0:0,0:0:0:0:
200,136,157539,6,0,L|284:136,2,65,0|0|8,0:0|0:0|0:0,0:0:0:0:
72,192,158289,2,0,L|-12:192,2,65,0|0|8,0:0|0:0|0:0,0:0:0:0:
244,192,159039,1,0,0:0:0:0:
72,192,159414,1,8,0:0:0:0:
244,192,159789,1,0,0:0:0:0:
308,192,159977,1,0,0:0:0:0:
372,192,160164,1,8,0:0:0:0:
172,188,160539,6,0,L|172:108,1,65,0|0,0:0|0:0,0:0:0:0:
276,52,160914,2,0,L|424:52,1,130,8|0,0:0|0:0,0:0:0:0:
340,52,161477,1,0,0:0:0:0:
276,52,161664,1,8,0:0:0:0:
460,48,162039,6,0,L|464:192,1,130,4|4,0:0|0:0,0:0:0:0:
280,176,162789,1,4,0:0:0:0:
432,172,163164,1,4,0:0:0:0:
260,176,163539,6,0,P|200:168|272:52,1,260,0|0,0:0|0:0,0:0:0:0:
400,44,164664,1,8,0:0:0:0:
244,48,165039,2,0,L|92:48,1,130,0|8,0:0|0:0,0:0:0:0:
296,112,165789,2,0,L|148:112,1,130,0|8,0:0|0:0,0:0:0:0:
340,112,166539,2,0,P|408:136|328:252,1,260,0|0,0:0|0:0,0:0:0:0:
176,256,167664,1,8,0:0:0:0:
360,192,168039,2,0,L|364:40,1,130,0|8,0:0|0:0,0:0:0:0:
152,192,168789,2,0,L|148:40,1,130,0|8,0:0|0:0,0:0:0:0:
260,56,169352,1,0,0:0:0:0:
372,60,169539,6,0,L|456:60,2,65,0|0|8,0:0|0:0|0:0,0:0:0:0:
240,60,170289,1,0,0:0:0:0:
104,60,170664,1,8,0:0:0:0:
264,60,171039,5,0,0:0:0:0:
268,120,171227,1,0,0:0:0:0:
272,184,171414,1,8,0:0:0:0:
116,64,171789,2,0,L|108:208,1,130,0|8,0:0|0:0,0:0:0:0:
265,170,172539,5,4,0:0:0:0:
301,114,172726,1,4,0:0:0:0:
265,66,172914,1,4,0:0:0:0:
197,64,173101,2,0,L|58:64,1,130
140,62,173664,1,4,0:0:0:0:
213,63,173852,1,0,0:0:0:0:
289,64,174039,6,0,P|329:100|229:232,1,260,4|4,0:0|0:0,0:0:0:0:
83,237,175164,1,4,0:0:0:0:
75,109,175539,1,4,0:0:0:0:
308,112,176289,1,4,0:0:0:0:
256,192,177039,12,0,178539,0:0:0:0:
