osu file format v14

[General]
AudioFilename: Song.mp3
AudioLeadIn: 1109
PreviewTime: 63576
Countdown: 0
SampleSet: Soft
StackLeniency: 0.6
Mode: 0
LetterboxInBreaks: 0
WidescreenStoryboard: 0

[Editor]
Bookmarks: 88605,221262
DistanceSpacing: 1
BeatDivisor: 2
GridSize: 4
TimelineZoom: 1.6

[Metadata]
Title:Retry*Rendezvous[TVsize ver.]
TitleUnicode:リトライ☆ランデヴー[TVsize ver.]
Artist:Nya~tan(CV: Murakawa Rie)
ArtistUnicode:にゃ~たん(CV:村川梨衣)
Creator:DreaM117er
Version:Normal
Source:えとたま
Tags:干支魂 ETOTAMA opening tv size m1223961117
BeatmapID:901350
BeatmapSetID:411035

[Difficulty]
HPDrainRate:4
CircleSize:3.5
OverallDifficulty:4
ApproachRate:5
SliderMultiplier:1.1
SliderTickRate:1

[Events]
//Background and Video events
0,0,"BG.jpg",0,0
Video,0,"VDO.flv"
//Break Periods
2,61033,61862
//Storyboard Layer 0 (Background)
//Storyboard Layer 1 (Fail)
//Storyboard Layer 2 (Pass)
//Storyboard Layer 3 (Foreground)
//Storyboard Sound Samples

[TimingPoints]
491,342.857142857143,4,2,1,50,1,0
8719,-125,4,2,1,40,0,0
11119,-125,4,2,1,60,0,0
11462,-100,4,2,1,70,0,1
11548,-100,4,2,1,70,0,0
21062,-100,4,2,1,50,0,0
22433,-100,4,2,1,50,0,0
33405,-100,4,2,1,60,0,0
44376,-100,4,2,1,60,0,0
55348,-100,4,2,1,50,0,0
63576,-100,4,2,1,70,0,1
84148,-100,4,2,1,50,0,0
85519,-100,4,2,1,60,0,0
88091,-100,4,2,1,50,0,0
88605,-100,4,2,1,5,0,0

[Colours]
Combo1 : 199,131,235
Combo2 : 249,128,128
Combo3 : 243,180,109
Combo4 : 237,240,128
Combo5 : 168,235,118
Combo6 : 139,225,243
Combo7 : 154,171,241

[HitObjects]
70,70,491,6,0,P|65:97|63:124,1,55,2|0,0:0|0:0,0:0:0:0:
174,105,1862,6,0,P|169:132|167:159,1,55,2|0,0:0|0:0,0:0:0:0:
278,140,3233,6,0,P|273:167|271:194,1,55,2|0,0:0|0:0,0:0:0:0:
382,175,4605,6,0,P|378:202|376:230,1,55,2|0,0:0|0:0,0:0:0:0:
379,290,4948,2,0,P|319:282|243:274,1,110
216,289,5462,1,0,0:0:0:0:
216,289,5633,1,0,0:0:0:0:
111,254,5976,6,0,P|108:226|104:199,1,55,2|0,0:0|0:0,0:0:0:0:
215,219,7348,6,0,P|212:191|208:164,1,55,2|0,0:0|0:0,0:0:0:0:
322,190,8719,6,0,P|372:118|467:136,2,176,2|2|8,1:2|0:0|0:0,0:0:0:0:
318,277,10433,2,0,P|361:284|405:286,1,88,2|2,0:0|0:0,0:0:0:0:
492,272,11119,1,8,0:0:0:0:
492,272,11462,6,0,P|496:217|508:148,2,110,4|8|2,0:0|0:0|0:1,0:0:0:0:
416,352,12491,1,8,0:0:0:0:
308,340,12833,2,0,P|240:336|196:292,1,110,2|8,0:1|0:0,0:0:0:0:
164,212,13519,2,0,L|88:204,2,55,0|2|8,0:0|0:1|0:0,0:0:0:0:
218,219,14033,1,0,0:0:0:0:
218,219,14205,6,0,P|246:167|230:95,1,110,2|8,0:1|0:0,0:0:0:0:
167,36,14891,1,2,0:1:0:0:
63,64,15233,1,8,0:0:0:0:
27,164,15576,2,0,P|34:218|40:273,1,110,0|8,0:0|0:0,0:0:0:0:
55,328,16091,1,0,1:0:0:0:
55,328,16262,2,0,P|90:321|127:320,1,55,8|8,0:0|0:0,0:0:0:0:
155,352,16605,2,0,P|182:349|209:344,1,55,8|8,0:0|0:0,0:0:0:0:
251,308,16948,6,0,P|299:313|370:324,1,110,4|8,0:0|0:0,0:0:0:0:
464,357,17633,1,2,0:1:0:0:
480,248,17976,1,8,0:0:0:0:
495,139,18319,2,0,P|447:144|376:155,1,110,2|8,0:1|0:0,0:0:0:0:
284,196,19005,2,0,L|222:191,1,55,2|0,0:1|0:0,0:0:0:0:
187,155,19348,2,0,L|125:150,1,55,8|0,0:0|0:0,0:0:0:0:
78,164,19691,6,0,L|70:104,2,55,2|2|8,0:1|0:1|0:0,0:0:0:0:
42,206,20205,2,0,P|14:258|26:314,1,110,2|8,0:1|0:0,0:0:0:0:
55,350,20719,1,2,0:1:0:0:
163,370,21062,1,0,1:0:0:0:
432,316,21919,2,0,P|428:281|420:232,1,55,2|8,0:1|0:0,0:0:0:0:
344,188,22433,6,0,P|289:186|240:252,2,110,4|2|2,0:0|0:1|0:1,0:0:0:0:
448,156,23462,2,0,L|452:96,1,55,2|0,0:1|0:0,0:0:0:0:
436,48,23805,2,0,P|381:55|326:59,1,110,2|2,0:1|0:1,0:0:0:0:
224,100,24491,2,0,P|194:95|153:93,1,55,2|2,0:1|0:1,0:0:0:0:
132,52,24833,2,0,P|104:49|77:45,1,55,8|0,0:0|0:0,0:0:0:0:
25,64,25176,6,0,P|33:118|37:173,1,110,2|2,0:1|0:1,0:0:0:0:
76,276,25862,1,2,0:1:0:0:
184,300,26205,2,0,L|248:292,1,55,2|0,0:1|0:0,0:0:0:0:
292,312,26548,2,0,P|344:280|416:300,1,110,2|2,0:1|0:1,0:0:0:0:
436,316,27062,1,0,0:0:0:0:
436,316,27233,2,0,L|444:384,2,55,2|2|8,0:1|0:1|0:0,0:0:0:0:
476,212,27919,6,0,P|468:132|464:72,1,110,4|2,0:0|0:1,0:0:0:0:
464,48,28433,1,0,0:0:0:0:
464,48,28605,2,0,P|419:78|365:75,1,110,2|2,0:1|0:1,0:0:0:0:
272,132,29291,2,0,P|217:125|162:121,2,110,2|2|2,0:1|0:1|0:1,0:0:0:0:
320,160,30148,1,2,0:1:0:0:
320,160,30319,1,8,0:0:0:0:
376,256,30662,6,0,P|364:336|332:360,1,110,2|2,0:1|0:1,0:0:0:0:
244,312,31348,2,0,L|236:244,2,55,2|2|2,0:1|0:1|0:1,0:0:0:0:
237,366,31862,2,0,P|182:359|127:355,2,110,0|0|0,3:0|0:0|0:0,0:0:0:0:
345,352,32891,2,0,P|375:356|416:359,1,55,2|8,0:1|0:0,0:0:0:0:
500,312,33405,6,0,P|496:252|488:180,1,110,4|8,0:0|0:0,0:0:0:0:
472,150,33919,1,0,0:0:0:0:
472,150,34091,2,0,P|424:114|368:118,1,110,2|8,0:1|0:0,0:0:0:0:
296,188,34776,2,0,L|220:180,1,55,2|0,0:1|0:0,0:0:0:0:
192,156,35119,2,0,P|124:164|76:168,2,110,8|0|8,0:0|0:0|0:0,0:0:0:0:
272,80,36148,6,0,L|264:16,2,55,2|8|8,0:1|1:2|1:2,0:0:0:0:
296,188,36833,2,0,P|293:248|286:324,1,110,8|8,1:2|1:2,0:0:0:0:
312,348,37348,2,0,P|380:340|428:336,2,110,4|4|4,0:0|0:0|0:0,0:0:0:0:
204,328,38376,2,0,P|171:333|144:336,1,55,0|8,0:0|1:2,0:0:0:0:
41,311,38891,6,0,P|9:263|21:199,1,110,4|8,0:0|0:0,0:0:0:0:
97,143,39576,2,0,P|124:146|151:150,2,55,2|2|8,0:1|0:1|0:0,0:0:0:0:
75,34,40262,1,0,0:0:0:0:
75,34,40433,2,0,P|129:31|184:23,1,110,8|2,0:0|0:1,0:0:0:0:
230,53,40948,2,0,P|284:44|339:42,1,110,8|8,1:2|1:2,0:0:0:0:
390,61,41462,1,8,1:2:0:0:
390,61,41633,6,0,P|393:33|397:6,2,55,4|2|8,1:2|0:1|0:0,0:0:0:0:
443,157,42319,2,0,P|470:161|497:164,2,55,0|2|8,1:0|1:1|1:2,0:0:0:0:
404,196,42833,2,0,P|436:244|424:308,1,110,4|0,1:2|0:0,0:0:0:0:
400,340,43348,1,8,1:2:0:0:
296,308,43691,2,0,L|304:236,2,55,2|8|8,0:1|1:2|1:2,0:0:0:0:
208,376,44376,6,0,P|153:373|98:365,2,110,4|8|8,0:0|0:0|0:0,0:0:0:0:
296,308,45405,1,8,0:0:0:0:
240,212,45748,2,0,P|190:175|117:189,1,110,8|8,0:0|0:0,0:0:0:0:
56,240,46433,2,0,L|48:308,2,55,8|2|8,0:0|0:1|0:0,0:0:0:0:
144,176,47119,6,0,L|138:121|132:66,1,110,8|8,0:0|0:0,0:0:0:0:
232,16,47805,2,0,P|264:12|312:8,2,55,8|2|8,0:0|0:1|0:0,0:0:0:0:
132,67,48491,2,0,P|77:59|-4:53,2,110,8|8|8,0:0|0:0|1:2,0:0:0:0:
176,100,49348,1,8,1:2:0:0:
176,100,49519,1,8,1:2:0:0:
268,164,49862,5,4,0:0:0:0:
372,128,50205,1,8,0:0:0:0:
468,184,50548,2,0,L|476:108,2,55,8|0|8,0:0|0:0|0:0,0:0:0:0:
476,292,51233,2,0,P|428:328|364:316,1,110,8|2,0:0|0:1,0:0:0:0:
336,288,51748,1,8,0:0:0:0:
336,288,51919,2,0,L|328:212,2,55,2|0|8,0:1|0:0|0:0,0:0:0:0:
247,354,52605,6,0,P|167:342|123:342,1,110,4|8,0:0|0:0,0:0:0:0:
85,359,53119,2,0,P|78:290|71:230,1,110,0|0,0:0|1:0,0:0:0:0:
67,194,53633,1,8,0:0:0:0:
67,194,53805,2,0,P|111:224|164:216,1,110,4|0,0:0|0:0,0:0:0:0:
205,179,54319,1,2,0:1:0:0:
205,179,54491,2,0,P|247:154|319:169,1,110,8|2,0:0|0:1,0:0:0:0:
348,195,55005,1,2,0:1:0:0:
456,179,55348,6,0,P|464:115|468:59,2,110,4|2|2,0:0|0:1|0:1,0:0:0:0:
420,283,56376,1,2,0:1:0:0:
312,299,56719,2,0,P|248:291|184:287,2,110,2|2|2,0:1|0:1|0:1,0:0:0:0:
348,195,57748,1,2,0:1:0:0:
276,111,58091,6,0,P|221:115|166:122,1,110,2|2,3:1|3:1,0:0:0:0:
112,139,58605,1,2,3:1:0:0:
112,139,58776,2,0,P|84:191|96:247,1,110,2|2,3:1|3:1,0:0:0:0:
164,323,59462,2,0,P|191:320|218:315,1,55,2|2,3:1|3:1,0:0:0:0:
264,347,59805,2,0,P|291:341|318:338,1,55,2|2,3:1|3:1,0:0:0:0:
366,310,60148,2,0,P|434:314|470:354,2,110,4|4|4,1:2|1:2|1:2,0:0:0:0:
68,192,63062,6,0,P|64:164|61:137,1,55,2|8,0:1|0:0,0:0:0:0:
88,32,63576,6,0,P|160:37|208:43,1,110,4|8,0:0|0:0,0:0:0:0:
236,84,64091,2,0,P|280:56|368:72,1,110,0|0,0:0|0:0,0:0:0:0:
384,80,64605,1,8,0:0:0:0:
480,136,64948,2,0,P|486:75|493:7,2,110,2|8|2,0:1|0:0|0:1,0:0:0:0:
420,228,65976,2,0,P|424:264|428:312,1,55,8|0,1:2|0:0,0:0:0:0:
412,336,66319,5,4,0:0:0:0:
308,368,66662,1,8,0:0:0:0:
308,368,66833,2,0,P|232:360|176:352,1,110,4|2,0:0|0:1,0:0:0:0:
144,340,67348,1,8,0:0:0:0:
144,340,67519,2,0,P|115:293|117:239,1,110,4|2,0:0|0:1,0:0:0:0:
148,192,68033,1,8,0:0:0:0:
228,116,68376,2,0,P|256:162|254:216,1,110,2|8,0:1|0:0,0:0:0:0:
308,312,69062,6,0,P|360:284|432:302,1,110,4|8,0:0|0:0,0:0:0:0:
456,320,69576,2,0,P|459:265|464:210,1,110,0|0,0:0|0:0,0:0:0:0:
472,156,70091,1,8,0:0:0:0:
424,56,70433,2,0,P|376:24|312:28,2,110,2|8|2,0:1|0:0|0:1,0:0:0:0:
344,136,71462,1,8,1:2:0:0:
236,164,71805,6,0,P|196:160|156:152,2,55,4|2|2,1:2|0:1|0:1,0:0:0:0:
280,200,72319,2,0,P|272:256|268:320,1,110,4|2,1:2|0:1,0:0:0:0:
240,356,72833,1,8,0:0:0:0:
240,356,73005,2,0,P|192:324|128:328,1,110,4|2,0:0|0:1,0:0:0:0:
92,348,73519,1,8,0:0:0:0:
16,268,73862,2,0,P|8:204|4:148,1,110,2|8,0:1|0:0,0:0:0:0:
99,102,74548,6,0,P|106:156|110:211,1,110,4|8,0:0|0:0,0:0:0:0:
128,264,75062,2,0,P|192:256|248:252,1,110,0|0,0:0|0:0,0:0:0:0:
292,256,75576,1,8,0:0:0:0:
384,316,75919,2,0,P|438:314|496:360,2,110,2|8|2,0:1|0:0|0:1,0:0:0:0:
292,256,76948,2,0,P|294:215|299:172,1,55,8|2,1:2|0:1,0:0:0:0:
268,152,77291,6,0,P|296:106|294:52,1,110,4|8,0:0|0:0,0:0:0:0:
256,12,77805,2,0,P|176:24|128:28,1,110,4|2,0:0|0:1,0:0:0:0:
101,58,78319,1,8,0:0:0:0:
101,58,78491,2,0,P|109:118|117:194,1,110,4|2,0:0|0:1,0:0:0:0:
149,210,79005,1,2,0:1:0:0:
149,210,79176,2,0,P|121:262|133:322,1,110,8|2,0:0|0:1,0:0:0:0:
161,354,79691,1,8,0:0:0:0:
268,372,80033,6,0,P|344:364|400:356,1,110,4|8,0:0|0:0,0:0:0:0:
432,352,80548,2,0,P|460:300|448:240,1,110
424,204,81062,1,8,0:0:0:0:
320,168,81405,1,2,0:1:0:0:
256,256,81748,1,8,0:0:0:0:
152,224,82091,2,0,P|124:172|136:112,1,110,2|8,0:1|1:2,0:0:0:0:
200,36,82776,6,0,P|167:33|119:28,2,55,8|2|2,1:2|0:1|0:1,0:0:0:0:
244,72,83291,2,0,P|292:64|372:60,1,110,8|2,1:2|0:1,0:0:0:0:
400,88,83805,2,0,P|426:85|464:80,2,55,8|8|8,1:2|1:2|1:2,0:0:0:0:
172,244,85005,2,0,P|144:240|117:237,1,55,2|8,0:1|0:0,0:0:0:0:
12,260,85519,6,0,P|4:188|0:128,2,110,4|8|2,0:0|0:0|0:1,0:0:0:0:
32,312,86376,1,2,0:1:0:0:
32,312,86548,1,8,0:0:0:0:
136,352,86891,2,0,P|184:324|248:332,1,110,4|8,0:0|1:2,0:0:0:0:
332,272,87576,2,0,P|328:244|320:192,2,55,8|2|2,0:0|0:1|0:1,0:0:0:0:
352,324,88091,6,0,B|399:326|429:296|429:296|468:318|506:303,1,165,4|0,1:2|0:0,0:0:0:0:
