osu file format v14

[General]
AudioFilename: audio.mp3
AudioLeadIn: 0
PreviewTime: 42503
Countdown: 0
SampleSet: Soft
StackLeniency: 0.7
Mode: 3
LetterboxInBreaks: 0
SpecialStyle: 0
WidescreenStoryboard: 0

[Editor]
Bookmarks: 5170,42503,79836
DistanceSpacing: 1.5
BeatDivisor: 8
GridSize: 4
TimelineZoom: 1

[Metadata]
Title:Yolochka, zablesti ognyami
TitleUnicode:Ёлочка, заблести огнями
Artist:Nyanners
ArtistUnicode:Nyanners
Creator:keksikosu
Version:Merry Christmas >w<
Source:
Tags:русский russian елочка yelochka elochka ogniami iolochka ёлка елка няннерс рождество новый год нг xmas christmas new year song vtuber music cover кавер virtual youtuber cute female vocals folk фолк pop поп flade
BeatmapID:4353450
BeatmapSetID:2079067

[Difficulty]
HPDrainRate:7.5
CircleSize:4
OverallDifficulty:7.5
ApproachRate:5
SliderMultiplier:1.4
SliderTickRate:1

[Events]
//Background and Video events
0,0,"uhoh.jpg",0,0
//Break Periods
//Storyboard Layer 0 (Background)
//Storyboard Layer 1 (Fail)
//Storyboard Layer 2 (Pass)
//Storyboard Layer 3 (Foreground)
//Storyboard Layer 4 (Overlay)
//Storyboard Sound Samples

[TimingPoints]
-78,666.666666666667,4,2,1,35,1,0
-78,-100,4,2,1,35,0,0
2588,555.555555555556,4,2,1,35,1,0
2588,-120.481927710843,4,2,1,35,0,0
3143,705.882352941178,4,2,1,35,1,0
3143,-94.3396226415094,4,2,1,35,0,0
3495,685.714285714286,4,2,1,35,1,0
3495,-97.0873786407767,4,2,1,35,0,0
3837,666.666666666667,4,2,1,35,1,0
3837,-100,4,2,1,35,0,0
5170,666.666666666667,4,2,1,35,1,0
5170,-100,4,2,1,35,0,0
15836,-100,4,2,1,35,0,1
36503,-100,4,2,1,35,0,0
53170,-100,4,2,1,35,0,1
73836,-100,4,2,1,35,0,0
90503,-100,4,2,1,35,0,1
111170,-100,4,2,1,35,0,0

[HitObjects]
448,192,4170,128,0,4337:0:0:0:0:
320,192,4503,128,0,4670:0:0:0:0:
192,192,4837,128,0,5003:0:0:0:0:
64,192,5170,1,0,0:0:0:0:
192,192,5170,1,0,0:0:0:0:
448,192,5503,1,0,0:0:0:0:
320,192,5836,1,0,0:0:0:0:
64,192,5836,128,0,6503:0:0:0:0:
192,192,6170,1,0,0:0:0:0:
448,192,6503,1,0,0:0:0:0:
320,192,6503,1,0,0:0:0:0:
64,192,6836,1,0,0:0:0:0:
192,192,7170,1,0,0:0:0:0:
448,192,7170,128,0,7836:0:0:0:0:
320,192,7503,1,0,0:0:0:0:
192,192,7836,1,0,0:0:0:0:
64,192,7836,1,0,0:0:0:0:
320,192,8170,1,0,0:0:0:0:
448,192,8336,1,0,0:0:0:0:
64,192,8503,1,0,0:0:0:0:
320,192,8503,1,0,0:0:0:0:
192,192,8836,1,0,0:0:0:0:
448,192,9170,1,0,0:0:0:0:
320,192,9170,128,0,9836:0:0:0:0:
64,192,9503,1,0,0:0:0:0:
192,192,9836,1,0,0:0:0:0:
448,192,9836,1,0,0:0:0:0:
64,192,10003,1,0,0:0:0:0:
192,192,10170,1,0,0:0:0:0:
320,192,10336,1,0,0:0:0:0:
448,192,10503,1,0,0:0:0:0:
64,192,10503,1,0,0:0:0:0:
192,192,10836,1,0,0:0:0:0:
448,192,11170,1,0,0:0:0:0:
320,192,11170,128,0,11836:0:0:0:0:
64,192,11503,1,0,0:0:0:0:
448,192,11836,1,0,0:0:0:0:
192,192,11836,1,0,0:0:0:0:
320,192,12170,1,0,0:0:0:0:
64,192,12503,1,0,0:0:0:0:
192,192,12503,128,0,12836:0:0:0:0:
320,192,12836,1,0,0:0:0:0:
448,192,13170,1,0,0:0:0:0:
64,192,13170,1,0,0:0:0:0:
192,192,13503,1,0,0:0:0:0:
448,192,13670,1,0,0:0:0:0:
64,192,13836,1,0,0:0:0:0:
320,192,13836,1,0,0:0:0:0:
192,192,14170,1,0,0:0:0:0:
448,192,14503,1,0,0:0:0:0:
320,192,14503,128,0,15170:0:0:0:0:
64,192,14836,1,0,0:0:0:0:
448,192,15170,1,0,0:0:0:0:
192,192,15170,1,0,0:0:0:0:
320,192,15503,1,0,0:0:0:0:
192,192,15836,1,0,0:0:0:0:
64,192,15836,128,0,16170:0:0:0:0:
320,192,16170,128,0,16503:0:0:0:0:
192,192,16503,128,0,16836:0:0:0:0:
448,192,16503,1,0,0:0:0:0:
64,192,16836,1,0,0:0:0:0:
448,192,17170,1,0,0:0:0:0:
320,192,17170,1,0,0:0:0:0:
320,192,17503,1,0,0:0:0:0:
64,192,17836,1,0,0:0:0:0:
320,192,17836,128,0,18003:0:0:0:0:
448,192,18003,128,0,18170:0:0:0:0:
192,192,18170,128,0,18336:0:0:0:0:
320,192,18336,128,0,18503:0:0:0:0:
64,192,18503,1,0,0:0:0:0:
192,192,18503,128,0,18836:0:0:0:0:
448,192,18836,128,0,19170:0:0:0:0:
192,192,19170,1,0,0:0:0:0:
64,192,19170,128,0,19503:0:0:0:0:
320,192,19503,1,0,0:0:0:0:
64,192,19836,1,0,0:0:0:0:
320,192,19836,128,0,20170:0:0:0:0:
448,192,20170,128,0,20336:0:0:0:0:
192,192,20336,128,0,20503:0:0:0:0:
64,192,20503,1,0,0:0:0:0:
320,192,20503,128,0,20670:0:0:0:0:
448,192,20670,128,0,20836:0:0:0:0:
192,192,20836,128,0,21003:0:0:0:0:
64,192,21003,128,0,21170:0:0:0:0:
448,192,21170,1,0,0:0:0:0:
320,192,21170,128,0,21336:0:0:0:0:
320,192,21503,128,0,21670:0:0:0:0:
320,192,21836,128,0,22170:0:0:0:0:
64,192,21836,128,0,22170:0:0:0:0:
448,192,22170,1,0,0:0:0:0:
64,192,22503,1,0,0:0:0:0:
192,192,22503,128,0,22670:0:0:0:0:
192,192,22836,128,0,23003:0:0:0:0:
192,192,23170,128,0,23503:0:0:0:0:
448,192,23170,128,0,23503:0:0:0:0:
64,192,23503,1,0,0:0:0:0:
448,192,23836,1,0,0:0:0:0:
320,192,23836,128,0,24170:0:0:0:0:
192,192,24170,1,0,0:0:0:0:
448,192,24336,1,0,0:0:0:0:
320,192,24503,1,0,0:0:0:0:
64,192,24503,128,0,24836:0:0:0:0:
192,192,24836,128,0,25170:0:0:0:0:
64,192,25170,1,0,0:0:0:0:
448,192,25170,128,0,25503:0:0:0:0:
320,192,25503,128,0,25670:0:0:0:0:
192,192,25670,128,0,25836:0:0:0:0:
448,192,25836,1,0,0:0:0:0:
64,192,25836,128,0,26003:0:0:0:0:
320,192,26003,128,0,26170:0:0:0:0:
192,192,26170,128,0,26336:0:0:0:0:
448,192,26336,128,0,26503:0:0:0:0:
64,192,26503,1,0,0:0:0:0:
320,192,26503,128,0,26836:0:0:0:0:
192,192,26836,128,0,27170:0:0:0:0:
64,192,27170,1,0,0:0:0:0:
448,192,27170,128,0,27503:0:0:0:0:
320,192,27503,1,0,0:0:0:0:
192,192,27836,1,0,0:0:0:0:
64,192,27836,1,0,0:0:0:0:
64,192,28170,1,0,0:0:0:0:
448,192,28503,1,0,0:0:0:0:
64,192,28503,128,0,28670:0:0:0:0:
320,192,28670,128,0,28836:0:0:0:0:
192,192,28836,128,0,29003:0:0:0:0:
448,192,29003,128,0,29170:0:0:0:0:
320,192,29170,1,0,0:0:0:0:
64,192,29170,128,0,29503:0:0:0:0:
448,192,29503,128,0,29836:0:0:0:0:
64,192,29836,1,0,0:0:0:0:
192,192,29836,128,0,30170:0:0:0:0:
320,192,30170,1,0,0:0:0:0:
64,192,30503,1,0,0:0:0:0:
320,192,30503,128,0,30836:0:0:0:0:
448,192,30836,128,0,31003:0:0:0:0:
192,192,31003,128,0,31170:0:0:0:0:
320,192,31170,1,0,0:0:0:0:
64,192,31170,128,0,31336:0:0:0:0:
448,192,31336,128,0,31503:0:0:0:0:
192,192,31503,128,0,31670:0:0:0:0:
320,192,31670,128,0,31836:0:0:0:0:
448,192,31836,1,0,0:0:0:0:
64,192,31836,128,0,32003:0:0:0:0:
64,192,32170,128,0,32336:0:0:0:0:
64,192,32503,128,0,32836:0:0:0:0:
192,192,32503,128,0,32836:0:0:0:0:
320,192,32836,1,0,0:0:0:0:
64,192,33170,1,0,0:0:0:0:
448,192,33170,128,0,33336:0:0:0:0:
448,192,33503,128,0,33670:0:0:0:0:
320,192,33836,128,0,34170:0:0:0:0:
448,192,33836,128,0,34170:0:0:0:0:
192,192,34170,1,0,0:0:0:0:
64,192,34503,1,0,0:0:0:0:
320,192,34503,128,0,34836:0:0:0:0:
448,192,34836,1,0,0:0:0:0:
64,192,35003,1,0,0:0:0:0:
320,192,35170,1,0,0:0:0:0:
192,192,35170,128,0,35503:0:0:0:0:
448,192,35503,128,0,35836:0:0:0:0:
320,192,35836,128,0,36503:0:0:0:0:
64,192,35836,128,0,36170:0:0:0:0:
192,192,36170,1,0,0:0:0:0:
448,192,36503,1,0,0:0:0:0:
64,192,36503,1,0,0:0:0:0:
320,192,36836,1,0,0:0:0:0:
64,192,37003,1,0,0:0:0:0:
192,192,37086,1,0,0:0:0:0:
320,192,37170,1,0,0:0:0:0:
448,192,37170,1,0,0:0:0:0:
448,192,37503,1,0,0:0:0:0:
448,192,37836,128,0,38170:0:0:0:0:
64,192,37836,1,0,0:0:0:0:
192,192,38170,1,0,0:0:0:0:
448,192,38336,1,0,0:0:0:0:
320,192,38420,1,0,0:0:0:0:
192,192,38503,1,0,0:0:0:0:
64,192,38503,1,0,0:0:0:0:
64,192,38836,1,0,0:0:0:0:
64,192,39170,128,0,39503:0:0:0:0:
448,192,39170,1,0,0:0:0:0:
448,192,39503,1,0,0:0:0:0:
320,192,39586,1,0,0:0:0:0:
64,192,39670,1,0,0:0:0:0:
192,192,39753,1,0,0:0:0:0:
448,192,39836,1,0,0:0:0:0:
320,192,39836,128,0,40170:0:0:0:0:
64,192,40170,1,0,0:0:0:0:
192,192,40336,1,0,0:0:0:0:
320,192,40503,1,0,0:0:0:0:
448,192,40503,128,0,40836:0:0:0:0:
64,192,40836,1,0,0:0:0:0:
192,192,40920,1,0,0:0:0:0:
448,192,41003,1,0,0:0:0:0:
320,192,41086,1,0,0:0:0:0:
64,192,41170,1,0,0:0:0:0:
192,192,41170,128,0,41503:0:0:0:0:
448,192,41503,128,0,41670:0:0:0:0:
64,192,41836,1,0,0:0:0:0:
320,192,41836,128,0,42003:0:0:0:0:
192,192,42170,128,0,42336:0:0:0:0:
448,192,42503,1,0,0:0:0:0:
320,192,42503,128,0,42836:0:0:0:0:
64,192,42836,128,0,43170:0:0:0:0:
448,192,43170,128,0,43836:0:0:0:0:
192,192,43170,1,0,0:0:0:0:
320,192,43503,1,0,0:0:0:0:
192,192,43836,128,0,44170:0:0:0:0:
64,192,43836,128,0,44503:0:0:0:0:
320,192,44170,128,0,44503:0:0:0:0:
192,192,44503,128,0,44836:0:0:0:0:
448,192,44503,1,0,0:0:0:0:
64,192,44836,1,0,0:0:0:0:
320,192,45170,1,0,0:0:0:0:
448,192,45170,128,0,45503:0:0:0:0:
64,192,45503,1,0,0:0:0:0:
192,192,45670,1,0,0:0:0:0:
448,192,45836,1,0,0:0:0:0:
320,192,45836,128,0,46170:0:0:0:0:
64,192,46170,128,0,46503:0:0:0:0:
192,192,46503,128,0,47170:0:0:0:0:
448,192,46503,128,0,46836:0:0:0:0:
320,192,46836,1,0,0:0:0:0:
448,192,47170,1,0,0:0:0:0:
64,192,47170,1,0,0:0:0:0:
320,192,47503,1,0,0:0:0:0:
448,192,47836,1,0,0:0:0:0:
64,192,47836,128,0,48170:0:0:0:0:
320,192,48170,128,0,48503:0:0:0:0:
64,192,48503,1,0,0:0:0:0:
192,192,48503,128,0,49170:0:0:0:0:
320,192,48836,1,0,0:0:0:0:
448,192,49170,128,0,49836:0:0:0:0:
64,192,49170,128,0,49503:0:0:0:0:
320,192,49503,128,0,49836:0:0:0:0:
64,192,49836,1,0,0:0:0:0:
192,192,49836,128,0,50170:0:0:0:0:
448,192,50170,1,0,0:0:0:0:
64,192,50503,1,0,0:0:0:0:
320,192,50503,128,0,50836:0:0:0:0:
192,192,50836,1,0,0:0:0:0:
448,192,51003,1,0,0:0:0:0:
320,192,51170,1,0,0:0:0:0:
64,192,51170,128,0,51503:0:0:0:0:
192,192,51503,1,0,0:0:0:0:
448,192,51836,128,0,52503:0:0:0:0:
320,192,51836,128,0,52170:0:0:0:0:
64,192,52170,1,0,0:0:0:0:
320,192,52503,1,0,0:0:0:0:
192,192,52503,1,0,0:0:0:0:
448,192,52836,1,0,0:0:0:0:
64,192,53170,1,0,0:0:0:0:
192,192,53170,128,0,53503:0:0:0:0:
320,192,53503,128,0,53836:0:0:0:0:
64,192,53836,1,0,0:0:0:0:
448,192,53836,1,0,0:0:0:0:
192,192,54003,1,0,0:0:0:0:
448,192,54170,1,0,0:0:0:0:
320,192,54336,1,0,0:0:0:0:
192,192,54503,1,0,0:0:0:0:
64,192,54503,1,0,0:0:0:0:
192,192,54836,1,0,0:0:0:0:
192,192,55170,128,0,55336:0:0:0:0:
448,192,55170,1,0,0:0:0:0:
64,192,55336,128,0,55503:0:0:0:0:
320,192,55503,128,0,55670:0:0:0:0:
192,192,55670,128,0,55836:0:0:0:0:
64,192,55836,1,0,0:0:0:0:
448,192,55836,128,0,56170:0:0:0:0:
192,192,56170,128,0,56503:0:0:0:0:
448,192,56503,1,0,0:0:0:0:
320,192,56503,1,0,0:0:0:0:
64,192,56670,1,0,0:0:0:0:
448,192,56836,1,0,0:0:0:0:
320,192,57003,1,0,0:0:0:0:
192,192,57170,1,0,0:0:0:0:
64,192,57170,128,0,57503:0:0:0:0:
320,192,57503,128,0,57670:0:0:0:0:
448,192,57670,128,0,57836:0:0:0:0:
64,192,57836,1,0,0:0:0:0:
192,192,57836,128,0,58003:0:0:0:0:
320,192,58003,128,0,58170:0:0:0:0:
64,192,58170,128,0,58336:0:0:0:0:
192,192,58336,128,0,58503:0:0:0:0:
320,192,58503,1,0,0:0:0:0:
448,192,58503,128,0,58670:0:0:0:0:
448,192,58836,128,0,59003:0:0:0:0:
448,192,59170,128,0,59670:0:0:0:0:
320,192,59170,1,0,0:0:0:0:
192,192,59336,1,0,0:0:0:0:
64,192,59503,1,0,0:0:0:0:
320,192,59670,1,0,0:0:0:0:
192,192,59836,1,0,0:0:0:0:
64,192,59836,128,0,60003:0:0:0:0:
64,192,60170,128,0,60336:0:0:0:0:
192,192,60503,1,0,0:0:0:0:
64,192,60503,128,0,61003:0:0:0:0:
320,192,60670,1,0,0:0:0:0:
448,192,60836,1,0,0:0:0:0:
192,192,61003,1,0,0:0:0:0:
448,192,61170,1,0,0:0:0:0:
320,192,61170,128,0,61503:0:0:0:0:
192,192,61503,1,0,0:0:0:0:
64,192,61670,1,0,0:0:0:0:
320,192,61836,1,0,0:0:0:0:
448,192,61836,128,0,62170:0:0:0:0:
192,192,62170,128,0,62503:0:0:0:0:
320,192,62503,1,0,0:0:0:0:
64,192,62503,128,0,62836:0:0:0:0:
448,192,62836,128,0,63003:0:0:0:0:
192,192,63003,128,0,63170:0:0:0:0:
448,192,63170,1,0,0:0:0:0:
320,192,63170,128,0,63336:0:0:0:0:
64,192,63336,128,0,63503:0:0:0:0:
192,192,63503,128,0,63670:0:0:0:0:
448,192,63670,128,0,63836:0:0:0:0:
64,192,63836,1,0,0:0:0:0:
320,192,63836,128,0,64170:0:0:0:0:
192,192,64170,128,0,64503:0:0:0:0:
64,192,64503,1,0,0:0:0:0:
448,192,64503,128,0,64836:0:0:0:0:
192,192,64836,1,0,0:0:0:0:
320,192,65170,1,0,0:0:0:0:
448,192,65170,1,0,0:0:0:0:
320,192,65503,1,0,0:0:0:0:
64,192,65836,1,0,0:0:0:0:
320,192,65836,128,0,66003:0:0:0:0:
192,192,66003,128,0,66170:0:0:0:0:
448,192,66170,128,0,66336:0:0:0:0:
320,192,66336,128,0,66503:0:0:0:0:
192,192,66503,1,0,0:0:0:0:
64,192,66503,128,0,66836:0:0:0:0:
320,192,66836,128,0,67170:0:0:0:0:
448,192,67170,1,0,0:0:0:0:
192,192,67170,128,0,67503:0:0:0:0:
64,192,67503,1,0,0:0:0:0:
448,192,67503,128,0,67836:0:0:0:0:
64,192,67836,1,0,0:0:0:0:
320,192,67836,128,0,68170:0:0:0:0:
192,192,68170,128,0,68336:0:0:0:0:
64,192,68336,128,0,68503:0:0:0:0:
448,192,68503,1,0,0:0:0:0:
320,192,68503,128,0,68670:0:0:0:0:
192,192,68670,128,0,68836:0:0:0:0:
448,192,68836,128,0,69003:0:0:0:0:
320,192,69003,128,0,69170:0:0:0:0:
64,192,69170,1,0,0:0:0:0:
192,192,69170,128,0,69336:0:0:0:0:
192,192,69503,128,0,69670:0:0:0:0:
64,192,69836,1,0,0:0:0:0:
192,192,69836,128,0,70336:0:0:0:0:
320,192,70003,1,0,0:0:0:0:
448,192,70170,1,0,0:0:0:0:
64,192,70336,1,0,0:0:0:0:
448,192,70503,1,0,0:0:0:0:
320,192,70503,128,0,70670:0:0:0:0:
320,192,70836,128,0,71003:0:0:0:0:
448,192,71170,1,0,0:0:0:0:
320,192,71170,128,0,71670:0:0:0:0:
192,192,71336,1,0,0:0:0:0:
64,192,71503,1,0,0:0:0:0:
448,192,71670,1,0,0:0:0:0:
64,192,71836,1,0,0:0:0:0:
192,192,71836,128,0,72170:0:0:0:0:
448,192,72170,1,0,0:0:0:0:
192,192,72336,1,0,0:0:0:0:
320,192,72503,1,0,0:0:0:0:
448,192,72503,128,0,72836:0:0:0:0:
64,192,72836,128,0,73170:0:0:0:0:
320,192,73170,128,0,73503:0:0:0:0:
192,192,73170,128,0,73836:0:0:0:0:
448,192,73503,1,0,0:0:0:0:
64,192,73836,1,0,0:0:0:0:
320,192,73836,1,0,0:0:0:0:
192,192,74170,1,0,0:0:0:0:
448,192,74336,1,0,0:0:0:0:
320,192,74420,1,0,0:0:0:0:
192,192,74503,1,0,0:0:0:0:
64,192,74503,1,0,0:0:0:0:
64,192,74836,1,0,0:0:0:0:
64,192,75170,128,0,75503:0:0:0:0:
448,192,75170,1,0,0:0:0:0:
320,192,75503,1,0,0:0:0:0:
64,192,75670,1,0,0:0:0:0:
192,192,75753,1,0,0:0:0:0:
320,192,75836,1,0,0:0:0:0:
448,192,75836,1,0,0:0:0:0:
448,192,76170,1,0,0:0:0:0:
448,192,76503,128,0,76836:0:0:0:0:
64,192,76503,1,0,0:0:0:0:
64,192,76836,1,0,0:0:0:0:
192,192,76920,1,0,0:0:0:0:
448,192,77003,1,0,0:0:0:0:
320,192,77086,1,0,0:0:0:0:
64,192,77170,1,0,0:0:0:0:
192,192,77170,128,0,77503:0:0:0:0:
448,192,77503,1,0,0:0:0:0:
320,192,77670,1,0,0:0:0:0:
192,192,77836,1,0,0:0:0:0:
64,192,77836,128,0,78170:0:0:0:0:
448,192,78170,1,0,0:0:0:0:
320,192,78253,1,0,0:0:0:0:
64,192,78336,1,0,0:0:0:0:
192,192,78420,1,0,0:0:0:0:
448,192,78503,1,0,0:0:0:0:
320,192,78503,128,0,78836:0:0:0:0:
64,192,78836,128,0,79003:0:0:0:0:
448,192,79170,1,0,0:0:0:0:
192,192,79170,128,0,79336:0:0:0:0:
320,192,79503,128,0,79670:0:0:0:0:
192,192,79836,128,0,80170:0:0:0:0:
64,192,79836,128,0,80170:0:0:0:0:
448,192,80170,128,0,80503:0:0:0:0:
320,192,80503,128,0,80836:0:0:0:0:
192,192,80503,128,0,81170:0:0:0:0:
64,192,80836,128,0,81170:0:0:0:0:
448,192,81170,128,0,81503:0:0:0:0:
320,192,81170,128,0,81503:0:0:0:0:
192,192,81503,128,0,81836:0:0:0:0:
448,192,81836,128,0,82170:0:0:0:0:
64,192,81836,128,0,82170:0:0:0:0:
320,192,82170,1,0,0:0:0:0:
64,192,82503,1,0,0:0:0:0:
192,192,82503,128,0,82836:0:0:0:0:
448,192,82836,128,0,83003:0:0:0:0:
320,192,83003,128,0,83170:0:0:0:0:
64,192,83170,128,0,83503:0:0:0:0:
192,192,83170,128,0,83503:0:0:0:0:
320,192,83503,128,0,83836:0:0:0:0:
448,192,83836,128,0,84503:0:0:0:0:
64,192,83836,128,0,84170:0:0:0:0:
192,192,84170,128,0,84503:0:0:0:0:
64,192,84503,128,0,84836:0:0:0:0:
320,192,84503,128,0,84836:0:0:0:0:
192,192,84836,1,0,0:0:0:0:
320,192,85170,128,0,85503:0:0:0:0:
448,192,85170,1,0,0:0:0:0:
64,192,85503,128,0,85836:0:0:0:0:
192,192,85836,128,0,86170:0:0:0:0:
320,192,85836,128,0,86503:0:0:0:0:
448,192,86170,128,0,86503:0:0:0:0:
64,192,86503,128,0,86836:0:0:0:0:
192,192,86503,128,0,86836:0:0:0:0:
320,192,86836,128,0,87170:0:0:0:0:
64,192,87170,128,0,87503:0:0:0:0:
448,192,87170,128,0,87503:0:0:0:0:
192,192,87503,128,0,87836:0:0:0:0:
448,192,87836,1,0,0:0:0:0:
320,192,87836,128,0,88170:0:0:0:0:
64,192,88170,128,0,88336:0:0:0:0:
192,192,88336,128,0,88503:0:0:0:0:
448,192,88503,128,0,88836:0:0:0:0:
320,192,88503,128,0,88836:0:0:0:0:
192,192,88836,128,0,89170:0:0:0:0:
64,192,89170,128,0,89836:0:0:0:0:
448,192,89170,128,0,89503:0:0:0:0:
320,192,89503,128,0,89836:0:0:0:0:
448,192,89836,128,0,90170:0:0:0:0:
192,192,89836,128,0,90170:0:0:0:0:
320,192,90170,1,0,0:0:0:0:
64,192,90503,128,0,90836:0:0:0:0:
192,192,90503,128,0,90836:0:0:0:0:
320,192,90836,128,0,91170:0:0:0:0:
448,192,91170,128,0,91503:0:0:0:0:
64,192,91170,128,0,91503:0:0:0:0:
192,192,91503,128,0,91836:0:0:0:0:
448,192,91836,128,0,92503:0:0:0:0:
320,192,91836,128,0,92003:0:0:0:0:
320,192,92170,128,0,92336:0:0:0:0:
192,192,92503,128,0,92670:0:0:0:0:
64,192,92503,128,0,92670:0:0:0:0:
320,192,92670,128,0,92836:0:0:0:0:
64,192,92836,128,0,93003:0:0:0:0:
192,192,93003,128,0,93170:0:0:0:0:
320,192,93170,128,0,93503:0:0:0:0:
448,192,93170,128,0,93503:0:0:0:0:
64,192,93503,128,0,93836:0:0:0:0:
192,192,93836,128,0,94170:0:0:0:0:
448,192,93836,128,0,94170:0:0:0:0:
320,192,94170,128,0,94503:0:0:0:0:
64,192,94503,128,0,95170:0:0:0:0:
192,192,94503,128,0,94836:0:0:0:0:
448,192,94836,128,0,95003:0:0:0:0:
192,192,95003,128,0,95170:0:0:0:0:
320,192,95170,128,0,95336:0:0:0:0:
448,192,95336,128,0,95503:0:0:0:0:
192,192,95503,128,0,95670:0:0:0:0:
64,192,95670,128,0,95836:0:0:0:0:
320,192,95836,128,0,96003:0:0:0:0:
448,192,95836,128,0,96003:0:0:0:0:
320,192,96170,128,0,96503:0:0:0:0:
448,192,96503,128,0,97170:0:0:0:0:
192,192,96503,128,0,96836:0:0:0:0:
64,192,96836,1,0,0:0:0:0:
64,192,97170,128,0,97336:0:0:0:0:
192,192,97170,128,0,97336:0:0:0:0:
192,192,97503,128,0,97836:0:0:0:0:
64,192,97836,128,0,98170:0:0:0:0:
320,192,97836,128,0,98170:0:0:0:0:
448,192,98170,1,0,0:0:0:0:
192,192,98503,128,0,98836:0:0:0:0:
320,192,98503,128,0,98836:0:0:0:0:
64,192,98836,1,0,0:0:0:0:
448,192,99003,128,0,99170:0:0:0:0:
64,192,99170,128,0,99503:0:0:0:0:
192,192,99170,128,0,99503:0:0:0:0:
320,192,99503,128,0,99836:0:0:0:0:
64,192,99836,128,0,100170:0:0:0:0:
448,192,99836,128,0,100170:0:0:0:0:
192,192,100170,128,0,100336:0:0:0:0:
320,192,100336,128,0,100503:0:0:0:0:
64,192,100503,128,0,100670:0:0:0:0:
448,192,100503,128,0,100670:0:0:0:0:
192,192,100670,128,0,100836:0:0:0:0:
320,192,100836,128,0,101003:0:0:0:0:
64,192,101003,128,0,101170:0:0:0:0:
448,192,101170,128,0,101503:0:0:0:0:
320,192,101170,128,0,101503:0:0:0:0:
192,192,101503,128,0,101836:0:0:0:0:
64,192,101836,128,0,102170:0:0:0:0:
448,192,101836,128,0,102170:0:0:0:0:
320,192,102170,128,0,102503:0:0:0:0:
64,192,102503,128,0,103170:0:0:0:0:
192,192,102503,128,0,102670:0:0:0:0:
192,192,102836,128,0,103003:0:0:0:0:
320,192,103170,128,0,103336:0:0:0:0:
448,192,103170,128,0,103336:0:0:0:0:
192,192,103336,128,0,103503:0:0:0:0:
448,192,103503,128,0,103670:0:0:0:0:
320,192,103670,128,0,103836:0:0:0:0:
192,192,103836,128,0,104170:0:0:0:0:
64,192,103836,128,0,104170:0:0:0:0:
448,192,104170,128,0,104503:0:0:0:0:
320,192,104503,128,0,104836:0:0:0:0:
64,192,104503,128,0,104836:0:0:0:0:
192,192,104836,128,0,105170:0:0:0:0:
448,192,105170,128,0,105836:0:0:0:0:
320,192,105170,128,0,105503:0:0:0:0:
64,192,105503,128,0,105670:0:0:0:0:
320,192,105670,128,0,105836:0:0:0:0:
192,192,105836,128,0,106003:0:0:0:0:
64,192,106003,128,0,106170:0:0:0:0:
320,192,106170,128,0,106336:0:0:0:0:
448,192,106336,128,0,106503:0:0:0:0:
192,192,106503,128,0,106670:0:0:0:0:
64,192,106503,128,0,106670:0:0:0:0:
192,192,106836,128,0,107170:0:0:0:0:
64,192,107170,128,0,107836:0:0:0:0:
448,192,107170,128,0,107503:0:0:0:0:
320,192,107503,1,0,0:0:0:0:
448,192,107836,128,0,108003:0:0:0:0:
320,192,107836,128,0,108003:0:0:0:0:
320,192,108170,128,0,108503:0:0:0:0:
64,192,108503,128,0,108836:0:0:0:0:
448,192,108503,128,0,108836:0:0:0:0:
192,192,108836,1,0,0:0:0:0:
320,192,109170,128,0,109503:0:0:0:0:
192,192,109170,128,0,109503:0:0:0:0:
448,192,109503,1,0,0:0:0:0:
64,192,109670,128,0,109836:0:0:0:0:
448,192,109836,128,0,110170:0:0:0:0:
320,192,109836,128,0,110170:0:0:0:0:
192,192,110170,128,0,110503:0:0:0:0:
448,192,110503,128,0,111503:0:0:0:0:
64,192,110503,128,0,111170:0:0:0:0:
320,192,110836,1,0,0:0:0:0:
320,192,111170,1,0,0:0:0:0:
192,192,111170,1,0,0:0:0:0:
192,192,111503,1,0,0:0:0:0:
448,192,111670,1,0,0:0:0:0:
320,192,111753,1,0,0:0:0:0:
192,192,111836,1,0,0:0:0:0:
64,192,111836,1,0,0:0:0:0:
64,192,112170,1,0,0:0:0:0:
64,192,112503,128,0,112836:0:0:0:0:
448,192,112503,1,0,0:0:0:0:
320,192,112836,1,0,0:0:0:0:
64,192,113003,1,0,0:0:0:0:
192,192,113086,1,0,0:0:0:0:
320,192,113170,1,0,0:0:0:0:
448,192,113170,1,0,0:0:0:0:
448,192,113503,1,0,0:0:0:0:
448,192,113836,128,0,114170:0:0:0:0:
64,192,113836,1,0,0:0:0:0:
192,192,114170,1,0,0:0:0:0:
448,192,114336,1,0,0:0:0:0:
320,192,114420,1,0,0:0:0:0:
64,192,114503,1,0,0:0:0:0:
192,192,114503,128,0,114836:0:0:0:0:
448,192,114836,1,0,0:0:0:0:
320,192,115003,1,0,0:0:0:0:
192,192,115170,1,0,0:0:0:0:
64,192,115170,128,0,115503:0:0:0:0:
448,192,115503,1,0,0:0:0:0:
64,192,115670,1,0,0:0:0:0:
192,192,115753,1,0,0:0:0:0:
448,192,115836,1,0,0:0:0:0:
320,192,115836,128,0,116170:0:0:0:0:
64,192,116170,1,0,0:0:0:0:
448,192,116503,1,0,0:0:0:0:
192,192,116503,1,0,0:0:0:0:
320,192,116836,1,0,0:0:0:0:
320,192,117170,1,0,0:0:0:0:
192,192,117253,1,0,0:0:0:0:
