osu file format v14

[General]
AudioFilename: audio.mp3
AudioLeadIn: 0
PreviewTime: -1
Countdown: 1
SampleSet: None
StackLeniency: 0.7
Mode: 1
LetterboxInBreaks: 0
WidescreenStoryboard: 0

[Editor]
DistanceSpacing: 0.6
BeatDivisor: 4
GridSize: 32
TimelineZoom: 1

[Metadata]
Title:Saikemnheru
TitleUnicode:サイケメンヘル
Artist:Nuyuri
ArtistUnicode:ぬゆり
Creator:EdamaMe411
Version:Inner Oni
Source:
Tags:
BeatmapID:1838468
BeatmapSetID:879100

[Difficulty]
HPDrainRate:5
CircleSize:5
OverallDifficulty:5
ApproachRate:5
SliderMultiplier:1.4
SliderTickRate:1

[Events]
//Background and Video events
0,0,"352d424c4d8589ef80ac09ef8c6ece32.png",0,0
//Break Periods
//Storyboard Layer 0 (Background)
//Storyboard Layer 1 (Fail)
//Storyboard Layer 2 (Pass)
//Storyboard Layer 3 (Foreground)
//Storyboard Sound Samples

[TimingPoints]
-14,300,4,1,0,70,1,0
586,-125,4,1,0,60,0,0
10636,-100,4,1,0,80,0,0
65911,-96.1538461538461,4,1,0,80,0,0
66061,-92.5925925925926,4,1,0,80,0,0
66211,-89.2857142857143,4,1,0,80,0,0
66361,-86.2068965517241,4,1,0,80,0,0
66511,-83.3333333333333,4,1,0,80,0,0
66661,-80.6451612903226,4,1,0,80,0,0
66811,-78.125,4,1,0,80,0,0
66961,-76.9230769230769,4,1,0,80,0,0
67786,-100,4,1,0,80,0,0
68386,-100,4,1,0,90,0,1
76636,-100,4,1,0,80,0,0
77611,-90.9090909090909,4,1,0,20,0,0
77761,-100,4,1,0,80,0,0
77986,-100,4,1,0,90,0,1
87586,-100,4,1,0,80,0,0
125986,-90.9090909090909,4,1,0,90,0,1
145186,-90.9090909090909,4,1,0,80,0,0
145336,-100,4,1,0,80,0,0
164907,-125,4,1,0,60,0,0

[HitObjects]
256,192,1186,5,8,0:0:0:0:
256,192,1486,1,0,0:0:0:0:
256,192,1786,1,8,0:0:0:0:
256,192,2011,1,0,0:0:0:0:
256,192,2236,1,8,0:0:0:0:
256,192,2536,1,0,0:0:0:0:
256,192,2686,1,8,0:0:0:0:
256,192,2986,1,0,0:0:0:0:
256,192,3136,1,0,0:0:0:0:
256,192,3286,1,8,0:0:0:0:
256,192,3586,1,8,0:0:0:0:
224,192,3886,1,0,0:0:0:0:
256,192,4186,1,8,0:0:0:0:
256,192,4411,1,0,0:0:0:0:
256,192,4636,1,8,0:0:0:0:
256,192,4936,1,0,0:0:0:0:
256,192,5086,1,8,0:0:0:0:
256,192,5236,1,0,0:0:0:0:
224,128,5311,1,8,0:0:0:0:
256,192,5386,1,8,0:0:0:0:
256,192,5536,1,0,0:0:0:0:
256,192,5686,1,8,0:0:0:0:
256,192,5986,1,8,0:0:0:0:
256,192,6286,1,0,0:0:0:0:
256,192,6586,1,8,0:0:0:0:
256,192,6811,1,0,0:0:0:0:
256,192,7036,1,8,0:0:0:0:
256,192,7336,1,0,0:0:0:0:
256,192,7486,1,8,0:0:0:0:
256,192,7786,1,0,0:0:0:0:
224,192,7936,1,0,0:0:0:0:
256,192,8086,1,8,0:0:0:0:
256,192,8386,1,8,0:0:0:0:
256,192,8686,1,0,0:0:0:0:
256,192,8986,1,8,0:0:0:0:
256,192,9211,1,0,0:0:0:0:
256,192,9436,1,8,0:0:0:0:
256,192,9736,1,0,0:0:0:0:
256,192,9886,1,8,0:0:0:0:
256,192,10036,1,0,0:0:0:0:
256,192,10111,1,0,0:0:0:0:
256,192,10186,1,8,0:0:0:0:
256,192,10486,1,8,0:0:0:0:
256,192,10786,1,4,0:0:0:0:
224,160,11086,1,8,0:0:0:0:
256,192,11236,1,0,0:0:0:0:
256,192,11311,1,0,0:0:0:0:
256,192,11386,1,0,0:0:0:0:
256,160,11536,1,8,0:0:0:0:
256,160,11686,1,0,0:0:0:0:
256,192,11836,1,8,0:0:0:0:
256,160,12136,1,8,0:0:0:0:
256,192,12286,1,0,0:0:0:0:
256,192,12436,1,0,0:0:0:0:
256,192,12511,1,0,0:0:0:0:
256,192,12586,1,0,0:0:0:0:
256,160,12736,1,8,0:0:0:0:
256,160,12811,1,8,0:0:0:0:
256,192,12886,1,0,0:0:0:0:
256,160,13036,1,8,0:0:0:0:
256,160,13186,1,0,0:0:0:0:
256,160,13486,1,8,0:0:0:0:
256,160,13711,1,8,0:0:0:0:
256,160,13786,1,0,0:0:0:0:
256,160,13936,1,8,0:0:0:0:
256,160,14086,1,0,0:0:0:0:
256,160,14236,1,8,0:0:0:0:
288,192,14536,1,0,0:0:0:0:
288,192,14611,1,0,0:0:0:0:
288,192,14686,1,8,0:0:0:0:
256,224,14836,1,8,0:0:0:0:
288,192,14986,1,0,0:0:0:0:
256,192,15136,1,0,0:0:0:0:
256,224,15286,1,8,0:0:0:0:
256,224,15586,1,0,0:0:0:0:
224,160,15886,1,8,0:0:0:0:
256,224,16036,1,0,0:0:0:0:
256,224,16111,1,0,0:0:0:0:
256,224,16186,1,0,0:0:0:0:
256,224,16336,1,8,0:0:0:0:
256,224,16486,1,0,0:0:0:0:
256,192,16636,1,8,0:0:0:0:
245,176,16711,1,0,0:0:0:0:
245,176,16861,1,0,0:0:0:0:
288,160,16936,1,8,0:0:0:0:
256,192,17086,1,0,0:0:0:0:
288,192,17236,1,0,0:0:0:0:
256,192,17311,1,8,0:0:0:0:
256,192,17386,1,0,0:0:0:0:
288,192,17536,1,8,0:0:0:0:
288,192,17611,1,8,0:0:0:0:
288,192,17686,1,0,0:0:0:0:
256,192,17836,1,8,0:0:0:0:
256,192,17986,1,0,0:0:0:0:
256,192,18286,1,8,0:0:0:0:
256,192,18511,1,8,0:0:0:0:
256,192,18586,1,0,0:0:0:0:
224,192,18736,1,0,0:0:0:0:
256,192,18886,1,8,0:0:0:0:
256,192,19036,1,0,0:0:0:0:
256,192,19336,1,0,0:0:0:0:
224,160,19411,1,0,0:0:0:0:
224,192,19486,1,8,0:0:0:0:
224,192,19636,1,8,0:0:0:0:
256,160,19711,1,8,0:0:0:0:
256,160,19786,1,0,0:0:0:0:
224,192,19936,1,0,0:0:0:0:
224,160,20086,1,8,0:0:0:0:
256,192,20236,1,8,0:0:0:0:
256,192,20386,1,4,0:0:0:0:
224,160,20686,1,8,0:0:0:0:
256,192,20836,1,0,0:0:0:0:
256,192,20911,1,0,0:0:0:0:
256,192,20986,1,0,0:0:0:0:
256,160,21136,1,8,0:0:0:0:
256,160,21286,1,0,0:0:0:0:
256,192,21436,1,8,0:0:0:0:
256,160,21736,1,8,0:0:0:0:
256,160,21886,1,0,0:0:0:0:
256,160,22036,1,0,0:0:0:0:
256,160,22186,1,8,0:0:0:0:
256,160,22336,1,8,0:0:0:0:
256,160,22411,1,8,0:0:0:0:
256,160,22486,1,0,0:0:0:0:
256,160,22636,1,8,0:0:0:0:
256,160,22786,1,0,0:0:0:0:
256,160,23086,1,8,0:0:0:0:
256,160,23311,1,8,0:0:0:0:
256,160,23386,1,0,0:0:0:0:
256,160,23536,1,8,0:0:0:0:
192,160,23611,1,0,0:0:0:0:
256,160,23686,1,0,0:0:0:0:
256,160,23836,1,8,0:0:0:0:
288,192,24136,1,8,0:0:0:0:
288,192,24286,1,0,0:0:0:0:
224,224,24361,1,8,0:0:0:0:
256,224,24436,1,8,0:0:0:0:
192,192,24511,1,8,0:0:0:0:
288,192,24586,1,0,0:0:0:0:
256,192,24736,1,0,0:0:0:0:
256,224,24811,1,0,0:0:0:0:
256,224,24886,1,8,0:0:0:0:
256,224,25036,1,8,0:0:0:0:
256,224,25186,1,0,0:0:0:0:
224,160,25486,1,8,0:0:0:0:
256,224,25636,1,0,0:0:0:0:
256,224,25711,1,0,0:0:0:0:
256,224,25786,1,0,0:0:0:0:
256,224,25936,1,8,0:0:0:0:
256,224,26086,1,0,0:0:0:0:
256,192,26236,1,8,0:0:0:0:
245,176,26311,1,0,0:0:0:0:
245,176,26461,1,0,0:0:0:0:
288,160,26536,1,8,0:0:0:0:
256,160,26611,1,8,0:0:0:0:
288,192,26686,1,0,0:0:0:0:
288,192,26836,1,0,0:0:0:0:
288,192,26911,1,8,0:0:0:0:
288,192,26986,1,0,0:0:0:0:
288,192,27136,1,8,0:0:0:0:
288,192,27286,1,0,0:0:0:0:
256,192,27436,1,8,0:0:0:0:
256,192,27586,1,0,0:0:0:0:
256,192,27886,1,8,0:0:0:0:
256,192,28111,1,8,0:0:0:0:
256,192,28186,1,0,0:0:0:0:
224,192,28336,1,0,0:0:0:0:
256,192,28411,1,0,0:0:0:0:
256,192,28486,1,8,0:0:0:0:
256,192,28636,1,8,0:0:0:0:
256,192,28786,1,0,0:0:0:0:
256,192,28936,1,0,0:0:0:0:
256,192,28986,1,0,0:0:0:0:
256,192,29036,1,0,0:0:0:0:
256,192,29086,1,8,0:0:0:0:
256,192,29236,1,8,0:0:0:0:
256,192,29386,1,8,0:0:0:0:
320,160,29461,1,8,0:0:0:0:
288,192,29536,1,0,0:0:0:0:
288,192,29611,1,8,0:0:0:0:
288,192,29686,1,0,0:0:0:0:
256,224,29761,1,0,0:0:0:0:
288,192,29836,1,0,0:0:0:0:
256,224,29911,1,0,0:0:0:0:
288,192,29986,1,8,0:0:0:0:
288,192,30586,1,8,0:0:0:0:
256,192,30736,1,0,0:0:0:0:
288,192,30886,1,8,0:0:0:0:
256,192,31036,1,0,0:0:0:0:
256,192,31336,1,0,0:0:0:0:
256,192,31486,1,8,0:0:0:0:
256,192,31636,1,0,0:0:0:0:
256,192,31711,1,0,0:0:0:0:
224,128,31786,1,0,0:0:0:0:
256,192,31936,1,0,0:0:0:0:
256,192,32086,1,8,0:0:0:0:
250,190,32236,1,0,0:0:0:0:
256,192,32386,1,0,0:0:0:0:
256,192,32686,1,8,0:0:0:0:
256,192,32836,1,0,0:0:0:0:
256,192,33136,1,0,0:0:0:0:
256,192,33286,1,8,0:0:0:0:
256,192,33436,1,0,0:0:0:0:
256,192,33736,1,0,0:0:0:0:
256,192,33886,1,8,0:0:0:0:
256,192,34036,1,0,0:0:0:0:
256,192,34111,1,0,0:0:0:0:
256,192,34186,1,0,0:0:0:0:
256,192,34336,1,0,0:0:0:0:
256,192,34486,1,8,0:0:0:0:
249,179,34636,1,8,0:0:0:0:
256,192,34786,1,0,0:0:0:0:
256,192,35086,1,8,0:0:0:0:
288,192,35386,1,0,0:0:0:0:
256,160,35536,1,0,0:0:0:0:
288,224,35686,1,8,0:0:0:0:
256,192,35836,1,8,0:0:0:0:
256,192,36136,1,0,0:0:0:0:
256,192,36286,1,8,0:0:0:0:
256,192,36436,1,0,0:0:0:0:
256,192,36511,1,0,0:0:0:0:
256,192,36586,1,0,0:0:0:0:
256,192,36736,1,8,0:0:0:0:
256,192,36886,1,8,0:0:0:0:
256,192,37186,1,0,0:0:0:0:
256,192,37486,1,8,0:0:0:0:
256,192,37636,1,0,0:0:0:0:
256,192,37936,1,0,0:0:0:0:
256,192,38086,1,8,0:0:0:0:
256,192,38236,1,8,0:0:0:0:
256,192,38536,1,0,0:0:0:0:
256,192,38686,1,8,0:0:0:0:
256,192,38836,1,8,0:0:0:0:
256,192,38911,1,8,0:0:0:0:
256,192,38986,1,0,0:0:0:0:
256,192,39136,1,0,0:0:0:0:
256,192,39286,1,8,0:0:0:0:
256,192,39436,1,0,0:0:0:0:
256,192,39586,1,8,0:0:0:0:
224,128,39661,1,8,0:0:0:0:
256,192,39736,1,0,0:0:0:0:
224,192,39886,1,8,0:0:0:0:
224,192,40036,1,0,0:0:0:0:
256,192,40186,1,0,0:0:0:0:
224,192,40336,1,8,0:0:0:0:
224,192,40636,1,8,0:0:0:0:
256,192,40936,1,0,0:0:0:0:
256,192,41086,1,8,0:0:0:0:
256,192,41236,1,8,0:0:0:0:
256,192,41311,1,0,0:0:0:0:
256,192,41386,1,0,0:0:0:0:
256,192,41536,1,8,0:0:0:0:
256,224,41686,1,0,0:0:0:0:
256,192,41836,1,8,0:0:0:0:
256,192,41986,1,0,0:0:0:0:
256,192,42136,1,0,0:0:0:0:
256,224,42211,1,0,0:0:0:0:
288,192,42286,1,8,0:0:0:0:
256,192,42436,1,0,0:0:0:0:
256,192,42586,1,0,0:0:0:0:
256,192,42736,1,8,0:0:0:0:
256,192,43036,1,8,0:0:0:0:
256,192,43336,1,0,0:0:0:0:
256,192,43486,1,8,0:0:0:0:
256,192,43636,1,0,0:0:0:0:
256,192,43711,1,8,0:0:0:0:
256,192,43786,1,8,0:0:0:0:
256,192,43936,1,0,0:0:0:0:
256,192,44086,1,8,0:0:0:0:
256,192,44236,1,0,0:0:0:0:
256,192,44386,1,8,0:0:0:0:
288,192,44461,1,8,0:0:0:0:
288,192,44536,1,0,0:0:0:0:
256,192,44686,1,8,0:0:0:0:
256,192,44836,1,0,0:0:0:0:
256,192,44986,1,0,0:0:0:0:
256,192,45136,1,8,0:0:0:0:
256,192,45436,1,8,0:0:0:0:
288,192,45736,1,8,0:0:0:0:
288,192,45886,1,0,0:0:0:0:
288,224,46036,1,0,0:0:0:0:
288,224,46111,1,8,0:0:0:0:
288,224,46186,1,0,0:0:0:0:
256,224,46336,1,8,0:0:0:0:
288,224,46411,1,8,0:0:0:0:
288,224,46486,1,0,0:0:0:0:
256,192,46636,1,8,0:0:0:0:
288,224,46786,1,0,0:0:0:0:
288,224,46861,1,0,0:0:0:0:
288,224,46936,1,0,0:0:0:0:
288,224,47086,1,8,0:0:0:0:
288,224,47236,1,0,0:0:0:0:
288,224,47386,1,0,0:0:0:0:
288,224,47536,1,8,0:0:0:0:
320,192,47836,1,8,0:0:0:0:
320,192,48136,1,0,0:0:0:0:
320,192,48211,1,0,0:0:0:0:
320,192,48286,1,8,0:0:0:0:
320,192,48436,1,0,0:0:0:0:
320,192,48511,1,8,0:0:0:0:
320,192,48586,1,0,0:0:0:0:
320,192,48736,1,0,0:0:0:0:
320,192,48886,1,8,0:0:0:0:
320,192,49036,1,8,0:0:0:0:
320,192,49186,1,4,0:0:0:0:
288,192,49636,1,12,0:0:0:0:
288,192,50086,1,4,0:0:0:0:
288,192,50536,1,12,0:0:0:0:
256,192,50986,1,4,0:0:0:0:
256,192,51136,1,8,0:0:0:0:
256,192,51211,1,8,0:0:0:0:
288,192,51286,1,0,0:0:0:0:
256,192,51436,1,0,0:0:0:0:
256,192,51586,1,8,0:0:0:0:
224,192,51736,1,0,0:0:0:0:
256,192,52036,1,0,0:0:0:0:
256,192,52186,1,8,0:0:0:0:
288,192,52336,1,0,0:0:0:0:
288,192,52636,1,0,0:0:0:0:
288,192,52936,1,8,0:0:0:0:
288,192,53086,1,0,0:0:0:0:
288,192,53236,1,0,0:0:0:0:
288,192,53311,1,0,0:0:0:0:
288,192,53386,1,8,0:0:0:0:
288,192,53536,1,8,0:0:0:0:
288,192,53611,1,0,0:0:0:0:
288,192,53686,1,0,0:0:0:0:
288,192,53836,1,8,0:0:0:0:
256,192,53986,1,4,0:0:0:0:
224,192,54436,1,12,0:0:0:0:
224,192,54886,1,12,0:0:0:0:
224,192,55336,1,4,0:0:0:0:
320,224,55636,1,8,0:0:0:0:
320,224,55786,1,4,0:0:0:0:
224,160,55936,1,8,0:0:0:0:
256,192,56011,1,8,0:0:0:0:
256,192,56086,1,0,0:0:0:0:
256,192,56236,1,0,0:0:0:0:
256,192,56311,1,0,0:0:0:0:
256,192,56386,1,8,0:0:0:0:
224,192,56536,1,0,0:0:0:0:
210,186,56836,1,0,0:0:0:0:
212,186,56911,1,8,0:0:0:0:
256,192,56986,1,8,0:0:0:0:
320,128,57136,1,0,0:0:0:0:
256,192,57436,1,0,0:0:0:0:
256,192,57736,1,0,0:0:0:0:
256,192,57811,1,0,0:0:0:0:
256,192,57886,1,0,0:0:0:0:
256,192,58036,1,8,0:0:0:0:
288,192,58186,1,0,0:0:0:0:
288,192,58261,1,0,0:0:0:0:
288,192,58336,1,8,0:0:0:0:
288,224,58411,1,8,0:0:0:0:
288,192,58486,1,0,0:0:0:0:
288,192,58636,1,8,0:0:0:0:
288,224,58786,1,4,0:0:0:0:
288,224,59236,1,12,0:0:0:0:
288,224,59686,1,4,0:0:0:0:
288,224,60136,1,12,0:0:0:0:
288,224,60586,1,4,0:0:0:0:
256,192,60736,1,8,0:0:0:0:
224,192,60811,1,8,0:0:0:0:
256,192,60886,1,0,0:0:0:0:
256,192,61036,1,0,0:0:0:0:
256,192,61186,1,8,0:0:0:0:
256,192,61336,1,0,0:0:0:0:
256,192,61411,1,0,0:0:0:0:
256,192,61486,1,8,0:0:0:0:
256,192,61636,1,8,0:0:0:0:
256,192,61711,1,8,0:0:0:0:
256,192,61786,1,0,0:0:0:0:
256,192,61936,1,8,0:0:0:0:
256,192,62086,1,8,0:0:0:0:
256,192,62236,1,0,0:0:0:0:
256,192,62536,1,0,0:0:0:0:
256,192,62686,1,8,0:0:0:0:
256,224,62836,1,8,0:0:0:0:
256,224,62911,1,8,0:0:0:0:
256,224,62986,1,0,0:0:0:0:
256,224,63061,1,0,0:0:0:0:
256,224,63136,1,0,0:0:0:0:
256,224,63286,1,8,0:0:0:0:
256,224,63436,1,0,0:0:0:0:
256,224,63586,1,8,0:0:0:0:
288,224,63886,1,8,0:0:0:0:
209,204,64036,1,0,0:0:0:0:
249,215,64111,1,0,0:0:0:0:
288,224,64186,1,8,0:0:0:0:
288,224,64261,1,0,0:0:0:0:
276,204,64411,1,0,0:0:0:0:
249,212,64486,1,8,0:0:0:0:
256,224,64636,1,8,0:0:0:0:
256,224,64936,1,0,0:0:0:0:
288,224,65086,1,8,0:0:0:0:
256,224,65161,1,0,0:0:0:0:
256,224,65311,1,0,0:0:0:0:
288,224,65386,1,8,0:0:0:0:
256,224,65536,1,0,0:0:0:0:
288,224,65686,1,8,0:0:0:0:
288,192,65836,1,0,0:0:0:0:
288,192,65986,1,8,0:0:0:0:
256,192,66011,1,8,0:0:0:0:
288,192,66136,1,8,0:0:0:0:
288,192,66161,1,8,0:0:0:0:
288,192,66286,1,0,0:0:0:0:
288,192,66311,1,0,0:0:0:0:
288,192,66436,1,8,0:0:0:0:
288,192,66461,1,8,0:0:0:0:
288,192,66586,1,0,0:0:0:0:
288,192,66611,1,0,0:0:0:0:
288,192,66736,1,8,0:0:0:0:
288,192,66761,1,8,0:0:0:0:
288,192,66886,1,8,0:0:0:0:
288,192,66911,1,8,0:0:0:0:
224,192,67036,1,4,0:0:0:0:
288,192,67936,1,0,0:0:0:0:
288,192,68086,1,8,0:0:0:0:
256,192,68386,1,4,0:0:0:0:
256,192,68686,1,8,0:0:0:0:
224,192,68836,1,0,0:0:0:0:
224,192,68911,1,0,0:0:0:0:
224,192,68986,1,0,0:0:0:0:
224,192,69136,1,8,0:0:0:0:
224,192,69211,1,8,0:0:0:0:
224,192,69286,1,0,0:0:0:0:
224,192,69436,1,8,0:0:0:0:
256,224,69736,1,8,0:0:0:0:
256,224,69886,1,0,0:0:0:0:
256,224,70036,1,0,0:0:0:0:
256,224,70111,1,0,0:0:0:0:
256,224,70186,1,0,0:0:0:0:
256,224,70336,1,8,0:0:0:0:
256,224,70411,1,8,0:0:0:0:
256,224,70486,1,0,0:0:0:0:
256,224,70636,1,0,0:0:0:0:
256,224,70786,1,0,0:0:0:0:
248,213,70936,1,0,0:0:0:0:
224,224,71086,1,8,0:0:0:0:
224,224,71311,1,8,0:0:0:0:
224,224,71386,1,0,0:0:0:0:
224,224,71536,1,0,0:0:0:0:
224,224,71611,1,0,0:0:0:0:
224,224,71686,1,8,0:0:0:0:
224,224,71836,1,8,0:0:0:0:
248,188,72061,1,0,0:0:0:0:
224,224,72136,1,8,0:0:0:0:
224,192,72286,1,8,0:0:0:0:
224,192,72361,1,8,0:0:0:0:
224,192,72436,1,0,0:0:0:0:
224,224,72511,1,8,0:0:0:0:
224,192,72586,1,0,0:0:0:0:
224,192,72736,1,8,0:0:0:0:
224,192,72886,1,0,0:0:0:0:
224,192,73036,1,8,0:0:0:0:
256,192,73186,1,0,0:0:0:0:
256,192,73336,1,0,0:0:0:0:
256,192,73486,1,8,0:0:0:0:
256,192,73636,1,0,0:0:0:0:
256,192,73711,1,0,0:0:0:0:
256,192,73786,1,0,0:0:0:0:
256,192,73936,1,8,0:0:0:0:
256,192,74011,1,8,0:0:0:0:
256,192,74086,1,0,0:0:0:0:
256,192,74236,1,8,0:0:0:0:
256,192,74461,1,0,0:0:0:0:
256,224,74536,1,8,0:0:0:0:
256,224,74686,1,0,0:0:0:0:
256,192,74836,1,0,0:0:0:0:
256,192,74911,1,8,0:0:0:0:
256,192,74986,1,0,0:0:0:0:
256,192,75136,1,8,0:0:0:0:
256,192,75211,1,8,0:0:0:0:
256,192,75286,1,0,0:0:0:0:
256,192,75361,1,0,0:0:0:0:
256,192,75436,1,0,0:0:0:0:
224,192,75511,1,0,0:0:0:0:
256,192,75586,1,8,0:0:0:0:
224,192,75736,1,0,0:0:0:0:
224,192,75886,1,8,0:0:0:0:
224,192,76036,1,0,0:0:0:0:
224,192,76111,1,8,0:0:0:0:
224,192,76186,1,0,0:0:0:0:
224,160,76261,1,0,0:0:0:0:
224,192,76336,1,8,0:0:0:0:
224,192,76486,1,8,0:0:0:0:
224,160,76636,1,0,0:0:0:0:
224,160,77686,1,8,0:0:0:0:
256,192,77986,1,4,0:0:0:0:
256,192,78286,1,8,0:0:0:0:
256,192,78436,1,0,0:0:0:0:
256,192,78511,1,0,0:0:0:0:
256,192,78586,1,0,0:0:0:0:
256,192,78736,1,8,0:0:0:0:
256,192,78811,1,8,0:0:0:0:
256,192,78886,1,0,0:0:0:0:
256,192,79036,1,8,0:0:0:0:
252,196,79111,1,0,0:0:0:0:
254,197,79261,1,0,0:0:0:0:
256,192,79336,1,8,0:0:0:0:
256,192,79486,1,0,0:0:0:0:
256,192,79636,1,8,0:0:0:0:
256,224,79711,1,0,0:0:0:0:
256,224,79786,1,0,0:0:0:0:
256,224,79936,1,0,0:0:0:0:
256,224,80011,1,0,0:0:0:0:
256,224,80086,1,8,0:0:0:0:
256,224,80161,1,8,0:0:0:0:
256,224,80236,1,8,0:0:0:0:
256,224,80311,1,0,0:0:0:0:
256,224,80386,1,8,0:0:0:0:
256,192,80536,1,0,0:0:0:0:
256,224,80686,1,8,0:0:0:0:
256,224,80911,1,8,0:0:0:0:
256,224,80986,1,0,0:0:0:0:
192,192,81136,1,8,0:0:0:0:
224,224,81211,1,0,0:0:0:0:
224,224,81286,1,0,0:0:0:0:
224,224,81436,1,8,0:0:0:0:
256,192,81511,1,0,0:0:0:0:
256,192,81586,1,0,0:0:0:0:
256,192,81661,1,0,0:0:0:0:
256,192,81736,1,8,0:0:0:0:
256,160,81886,1,0,0:0:0:0:
288,192,82036,1,8,0:0:0:0:
288,192,82111,1,8,0:0:0:0:
288,192,82186,1,0,0:0:0:0:
288,192,82336,1,0,0:0:0:0:
288,192,82411,1,8,0:0:0:0:
288,192,82486,1,8,0:0:0:0:
288,192,82636,1,8,0:0:0:0:
288,192,82786,1,0,0:0:0:0:
288,192,82936,1,0,0:0:0:0:
288,192,83086,1,8,0:0:0:0:
288,192,83236,1,8,0:0:0:0:
288,192,83311,1,8,0:0:0:0:
288,192,83386,1,0,0:0:0:0:
288,192,83536,1,0,0:0:0:0:
288,192,83611,1,0,0:0:0:0:
288,192,83686,1,8,0:0:0:0:
288,192,83836,1,8,0:0:0:0:
265,216,83911,1,0,0:0:0:0:
265,216,84061,1,0,0:0:0:0:
288,192,84136,1,8,0:0:0:0:
288,192,84286,1,0,0:0:0:0:
288,192,84436,1,0,0:0:0:0:
256,192,84511,1,8,0:0:0:0:
256,192,84586,1,0,0:0:0:0:
320,224,84736,1,8,0:0:0:0:
288,192,84811,1,8,0:0:0:0:
288,192,84886,1,0,0:0:0:0:
288,192,84961,1,0,0:0:0:0:
256,128,85036,1,0,0:0:0:0:
256,128,85111,1,8,0:0:0:0:
288,192,85186,1,0,0:0:0:0:
288,192,85336,1,0,0:0:0:0:
288,192,85486,1,8,0:0:0:0:
288,192,85636,1,0,0:0:0:0:
288,192,85711,1,0,0:0:0:0:
288,192,85786,1,8,0:0:0:0:
288,192,85936,1,0,0:0:0:0:
288,192,86086,1,0,0:0:0:0:
288,192,86236,1,8,0:0:0:0:
288,160,86386,1,0,0:0:0:0:
288,160,86536,1,0,0:0:0:0:
256,160,86586,1,0,0:0:0:0:
256,160,86636,1,0,0:0:0:0:
256,160,86686,1,8,0:0:0:0:
256,160,86836,1,8,0:0:0:0:
256,160,86986,1,8,0:0:0:0:
256,160,87061,1,8,0:0:0:0:
256,160,87136,1,0,0:0:0:0:
256,160,87211,1,8,0:0:0:0:
256,160,87286,1,0,0:0:0:0:
256,160,87361,1,0,0:0:0:0:
256,160,87436,1,0,0:0:0:0:
256,160,87511,1,0,0:0:0:0:
256,160,87586,1,8,0:0:0:0:
256,192,88186,1,8,0:0:0:0:
256,192,88336,1,0,0:0:0:0:
256,192,88486,1,8,0:0:0:0:
256,192,88636,1,0,0:0:0:0:
256,192,88936,1,0,0:0:0:0:
256,192,89086,1,8,0:0:0:0:
256,192,89236,1,8,0:0:0:0:
224,128,89311,1,0,0:0:0:0:
224,128,89386,1,0,0:0:0:0:
256,192,89536,1,0,0:0:0:0:
256,192,89686,1,8,0:0:0:0:
224,192,89836,1,8,0:0:0:0:
270,215,89911,1,0,0:0:0:0:
256,192,89986,1,0,0:0:0:0:
256,192,90286,1,8,0:0:0:0:
224,192,90436,1,0,0:0:0:0:
243,179,90511,1,0,0:0:0:0:
256,192,90586,1,0,0:0:0:0:
256,192,90736,1,8,0:0:0:0:
256,192,90886,1,8,0:0:0:0:
256,192,91036,1,0,0:0:0:0:
256,192,91336,1,0,0:0:0:0:
256,192,91486,1,8,0:0:0:0:
256,192,91636,1,0,0:0:0:0:
256,192,91711,1,0,0:0:0:0:
256,192,91786,1,0,0:0:0:0:
256,192,91936,1,0,0:0:0:0:
256,192,92086,1,8,0:0:0:0:
256,192,92236,1,8,0:0:0:0:
256,192,92386,1,0,0:0:0:0:
256,192,92686,1,8,0:0:0:0:
256,192,92836,1,0,0:0:0:0:
256,192,92986,1,0,0:0:0:0:
256,192,93136,1,0,0:0:0:0:
260,187,93211,1,0,0:0:0:0:
256,192,93286,1,8,0:0:0:0:
256,192,93436,1,0,0:0:0:0:
256,192,93736,1,0,0:0:0:0:
256,192,93886,1,8,0:0:0:0:
256,192,94036,1,0,0:0:0:0:
256,192,94111,1,0,0:0:0:0:
256,192,94186,1,8,0:0:0:0:
256,192,94336,1,0,0:0:0:0:
256,192,94486,1,8,0:0:0:0:
256,192,94636,1,8,0:0:0:0:
256,192,94786,1,0,0:0:0:0:
256,192,95086,1,8,0:0:0:0:
224,192,95236,1,0,0:0:0:0:
246,205,95311,1,0,0:0:0:0:
256,192,95386,1,8,0:0:0:0:
256,192,95536,1,8,0:0:0:0:
256,192,95686,1,0,0:0:0:0:
256,192,95836,1,8,0:0:0:0:
256,192,96136,1,0,0:0:0:0:
256,192,96286,1,8,0:0:0:0:
256,192,96436,1,8,0:0:0:0:
256,192,96511,1,8,0:0:0:0:
256,192,96586,1,0,0:0:0:0:
256,192,96736,1,0,0:0:0:0:
256,192,96886,1,8,0:0:0:0:
256,192,97036,1,0,0:0:0:0:
256,192,97186,1,8,0:0:0:0:
256,192,97261,1,8,0:0:0:0:
256,192,97336,1,8,0:0:0:0:
256,192,97411,1,8,0:0:0:0:
224,192,97486,1,8,0:0:0:0:
224,192,97636,1,0,0:0:0:0:
256,192,97786,1,0,0:0:0:0:
224,192,97936,1,8,0:0:0:0:
224,160,98086,1,0,0:0:0:0:
224,192,98236,1,8,0:0:0:0:
256,192,98536,1,0,0:0:0:0:
256,192,98686,1,8,0:0:0:0:
256,192,98836,1,8,0:0:0:0:
256,192,98911,1,8,0:0:0:0:
256,192,98986,1,0,0:0:0:0:
256,192,99136,1,0,0:0:0:0:
256,224,99211,1,0,0:0:0:0:
224,192,99286,1,8,0:0:0:0:
224,192,99436,1,8,0:0:0:0:
256,192,99586,1,0,0:0:0:0:
256,192,99736,1,0,0:0:0:0:
288,192,99886,1,8,0:0:0:0:
256,192,100036,1,0,0:0:0:0:
256,192,100111,1,0,0:0:0:0:
256,192,100186,1,0,0:0:0:0:
256,192,100336,1,8,0:0:0:0:
256,192,100486,1,8,0:0:0:0:
256,192,100636,1,0,0:0:0:0:
256,192,100936,1,0,0:0:0:0:
288,192,101011,1,0,0:0:0:0:
256,192,101086,1,8,0:0:0:0:
256,192,101236,1,0,0:0:0:0:
256,192,101311,1,8,0:0:0:0:
256,192,101386,1,0,0:0:0:0:
256,192,101536,1,8,0:0:0:0:
256,192,101686,1,0,0:0:0:0:
256,192,101836,1,8,0:0:0:0:
256,192,101986,1,0,0:0:0:0:
288,192,102061,1,0,0:0:0:0:
288,192,102136,1,0,0:0:0:0:
288,192,102211,1,0,0:0:0:0:
256,192,102286,1,8,0:0:0:0:
256,192,102436,1,0,0:0:0:0:
256,192,102586,1,0,0:0:0:0:
265,195,102661,1,0,0:0:0:0:
256,192,102811,1,8,0:0:0:0:
256,160,102886,1,0,0:0:0:0:
256,192,103036,1,8,0:0:0:0:
288,192,103336,1,0,0:0:0:0:
288,192,103486,1,8,0:0:0:0:
288,224,103636,1,0,0:0:0:0:
288,224,103711,1,0,0:0:0:0:
288,224,103786,1,8,0:0:0:0:
256,160,103936,1,8,0:0:0:0:
256,160,104011,1,0,0:0:0:0:
256,160,104086,1,8,0:0:0:0:
256,160,104236,1,8,0:0:0:0:
288,224,104386,1,0,0:0:0:0:
288,224,104461,1,0,0:0:0:0:
288,224,104611,1,8,0:0:0:0:
288,224,104686,1,0,0:0:0:0:
288,224,104836,1,8,0:0:0:0:
288,224,104986,1,0,0:0:0:0:
288,192,105061,1,0,0:0:0:0:
320,224,105136,1,8,0:0:0:0:
288,192,105286,1,0,0:0:0:0:
320,192,105436,1,8,0:0:0:0:
320,192,105736,1,0,0:0:0:0:
320,192,105811,1,0,0:0:0:0:
320,192,105886,1,8,0:0:0:0:
320,192,106036,1,0,0:0:0:0:
320,192,106111,1,0,0:0:0:0:
288,192,106186,1,8,0:0:0:0:
320,192,106261,1,0,0:0:0:0:
320,192,106336,1,0,0:0:0:0:
320,192,106411,1,0,0:0:0:0:
320,192,106486,1,8,0:0:0:0:
320,192,106636,1,8,0:0:0:0:
320,192,106786,1,4,0:0:0:0:
288,192,107236,1,12,0:0:0:0:
288,192,107686,1,4,0:0:0:0:
288,192,108136,1,12,0:0:0:0:
256,192,108586,1,4,0:0:0:0:
256,192,108736,1,8,0:0:0:0:
256,192,108811,1,8,0:0:0:0:
288,192,108886,1,0,0:0:0:0:
256,192,109036,1,8,0:0:0:0:
256,192,109186,1,0,0:0:0:0:
224,192,109336,1,0,0:0:0:0:
192,160,109486,1,8,0:0:0:0:
256,192,109636,1,8,0:0:0:0:
256,192,109786,1,0,0:0:0:0:
224,160,109861,1,0,0:0:0:0:
192,160,109936,1,8,0:0:0:0:
192,160,110086,1,0,0:0:0:0:
192,160,110236,1,8,0:0:0:0:
288,192,110536,1,0,0:0:0:0:
288,192,110686,1,8,0:0:0:0:
288,192,110836,1,8,0:0:0:0:
288,192,110911,1,8,0:0:0:0:
288,192,110986,1,0,0:0:0:0:
288,192,111136,1,8,0:0:0:0:
288,192,111211,1,0,0:0:0:0:
288,192,111286,1,0,0:0:0:0:
224,192,111361,1,0,0:0:0:0:
288,192,111436,1,8,0:0:0:0:
256,192,111586,1,4,0:0:0:0:
224,192,112036,1,12,0:0:0:0:
224,192,112486,1,12,0:0:0:0:
224,192,112936,1,4,0:0:0:0:
320,224,113236,1,8,0:0:0:0:
320,224,113386,1,4,0:0:0:0:
224,160,113536,1,8,0:0:0:0:
256,192,113611,1,8,0:0:0:0:
256,192,113686,1,0,0:0:0:0:
256,192,113836,1,0,0:0:0:0:
256,192,113911,1,0,0:0:0:0:
256,192,113986,1,8,0:0:0:0:
224,192,114136,1,0,0:0:0:0:
224,192,114286,1,0,0:0:0:0:
224,192,114436,1,8,0:0:0:0:
256,192,114586,1,0,0:0:0:0:
320,128,114736,1,0,0:0:0:0:
224,192,114811,1,0,0:0:0:0:
224,192,114886,1,8,0:0:0:0:
256,192,115036,1,0,0:0:0:0:
256,192,115336,1,0,0:0:0:0:
256,192,115411,1,0,0:0:0:0:
256,192,115486,1,0,0:0:0:0:
256,192,115636,1,8,0:0:0:0:
288,192,115786,1,0,0:0:0:0:
288,192,115861,1,0,0:0:0:0:
288,192,115936,1,8,0:0:0:0:
288,224,116011,1,8,0:0:0:0:
256,224,116086,1,0,0:0:0:0:
256,224,116161,1,0,0:0:0:0:
288,192,116236,1,8,0:0:0:0:
288,224,116386,1,4,0:0:0:0:
288,224,116836,1,12,0:0:0:0:
288,224,117286,1,4,0:0:0:0:
288,224,117736,1,12,0:0:0:0:
288,224,118186,1,4,0:0:0:0:
256,192,118336,1,8,0:0:0:0:
224,192,118411,1,8,0:0:0:0:
256,192,118486,1,0,0:0:0:0:
256,192,118636,1,0,0:0:0:0:
256,192,118786,1,8,0:0:0:0:
256,192,118936,1,0,0:0:0:0:
256,192,119011,1,0,0:0:0:0:
256,192,119086,1,0,0:0:0:0:
256,192,119236,1,8,0:0:0:0:
256,192,119386,1,0,0:0:0:0:
256,192,119461,1,0,0:0:0:0:
256,192,119536,1,0,0:0:0:0:
256,224,119611,1,0,0:0:0:0:
256,192,119686,1,8,0:0:0:0:
256,192,119836,1,0,0:0:0:0:
256,192,120136,1,0,0:0:0:0:
256,192,120286,1,8,0:0:0:0:
256,224,120436,1,8,0:0:0:0:
256,224,120511,1,8,0:0:0:0:
256,224,120586,1,0,0:0:0:0:
256,224,120661,1,8,0:0:0:0:
256,224,120736,1,0,0:0:0:0:
256,224,120811,1,0,0:0:0:0:
256,224,120886,1,8,0:0:0:0:
256,224,120961,1,8,0:0:0:0:
256,224,121036,1,0,0:0:0:0:
256,224,121186,1,8,0:0:0:0:
288,224,121486,1,8,0:0:0:0:
209,204,121636,1,0,0:0:0:0:
249,215,121711,1,0,0:0:0:0:
288,224,121786,1,8,0:0:0:0:
288,224,121861,1,0,0:0:0:0:
276,204,122011,1,0,0:0:0:0:
249,212,122086,1,8,0:0:0:0:
256,224,122236,1,8,0:0:0:0:
138,189,122311,1,0,0:0:0:0:
233,205,122461,1,0,0:0:0:0:
224,192,122536,1,8,0:0:0:0:
224,192,122686,1,0,0:0:0:0:
224,192,122761,1,8,0:0:0:0:
251,198,122836,1,0,0:0:0:0:
256,224,122911,1,0,0:0:0:0:
288,224,122986,1,8,0:0:0:0:
256,224,123136,1,0,0:0:0:0:
288,224,123286,1,8,0:0:0:0:
288,192,123436,1,8,0:0:0:0:
256,192,123586,1,4,0:0:0:0:
256,192,123736,1,8,0:0:0:0:
256,192,123811,1,8,0:0:0:0:
256,192,123886,1,0,0:0:0:0:
256,192,124036,1,8,0:0:0:0:
256,192,124186,1,0,0:0:0:0:
256,192,124261,1,8,0:0:0:0:
256,192,124336,1,8,0:0:0:0:
256,192,124486,1,8,0:0:0:0:
256,192,124636,1,8,0:0:0:0:
256,192,124786,1,0,0:0:0:0:
256,192,125386,1,8,0:0:0:0:
256,192,125536,1,0,0:0:0:0:
256,192,125686,1,8,0:0:0:0:
256,192,125986,1,4,0:0:0:0:
256,192,126286,1,8,0:0:0:0:
224,192,126436,1,0,0:0:0:0:
224,192,126511,1,0,0:0:0:0:
224,192,126586,1,8,0:0:0:0:
224,192,126661,1,8,0:0:0:0:
224,192,126811,1,8,0:0:0:0:
256,192,126961,1,8,0:0:0:0:
256,192,127036,1,8,0:0:0:0:
256,192,127111,1,0,0:0:0:0:
224,192,127261,1,0,0:0:0:0:
224,192,127411,1,0,0:0:0:0:
224,192,127486,1,8,0:0:0:0:
224,192,127636,1,8,0:0:0:0:
224,160,127786,1,0,0:0:0:0:
224,192,127861,1,0,0:0:0:0:
224,192,127936,1,0,0:0:0:0:
224,192,128011,1,0,0:0:0:0:
224,192,128086,1,8,0:0:0:0:
224,192,128161,1,8,0:0:0:0:
224,192,128236,1,0,0:0:0:0:
224,192,128386,1,8,0:0:0:0:
224,192,128686,1,0,0:0:0:0:
224,192,128836,1,0,0:0:0:0:
224,192,128911,1,0,0:0:0:0:
224,192,128986,1,8,0:0:0:0:
224,192,129061,1,0,0:0:0:0:
224,192,129211,1,8,0:0:0:0:
224,192,129361,1,8,0:0:0:0:
224,192,129511,1,0,0:0:0:0:
243,194,129586,1,0,0:0:0:0:
224,160,129661,1,8,0:0:0:0:
224,128,129736,1,8,0:0:0:0:
230,150,129811,1,0,0:0:0:0:
224,128,129961,1,8,0:0:0:0:
224,128,130036,1,0,0:0:0:0:
224,128,130111,1,0,0:0:0:0:
224,128,130186,1,8,0:0:0:0:
224,160,130336,1,8,0:0:0:0:
224,160,130486,1,0,0:0:0:0:
224,160,130786,1,4,0:0:0:0:
224,160,131086,1,8,0:0:0:0:
224,160,131236,1,0,0:0:0:0:
256,160,131311,1,0,0:0:0:0:
224,160,131386,1,8,0:0:0:0:
224,160,131461,1,8,0:0:0:0:
224,160,131536,1,8,0:0:0:0:
224,160,131686,1,8,0:0:0:0:
224,160,131761,1,8,0:0:0:0:
224,160,131836,1,0,0:0:0:0:
224,160,131911,1,0,0:0:0:0:
224,160,131986,1,8,0:0:0:0:
224,160,132136,1,0,0:0:0:0:
224,160,132286,1,8,0:0:0:0:
224,160,132436,1,0,0:0:0:0:
224,160,132511,1,0,0:0:0:0:
224,160,132586,1,8,0:0:0:0:
224,160,132736,1,8,0:0:0:0:
224,160,132886,1,0,0:0:0:0:
256,192,133186,1,0,0:0:0:0:
256,192,133336,1,8,0:0:0:0:
256,192,133486,1,8,0:0:0:0:
256,192,133636,1,0,0:0:0:0:
256,192,133711,1,0,0:0:0:0:
256,192,133861,1,0,0:0:0:0:
256,224,133936,1,8,0:0:0:0:
256,160,134086,1,0,0:0:0:0:
256,192,134236,1,8,0:0:0:0:
256,192,134386,1,8,0:0:0:0:
256,192,134461,1,8,0:0:0:0:
256,192,134536,1,0,0:0:0:0:
256,192,134611,1,0,0:0:0:0:
256,192,134686,1,8,0:0:0:0:
256,192,134761,1,0,0:0:0:0:
256,192,134836,1,8,0:0:0:0:
256,192,134911,1,8,0:0:0:0:
256,192,134986,1,0,0:0:0:0:
256,192,135061,1,0,0:0:0:0:
256,192,135136,1,8,0:0:0:0:
256,192,135211,1,0,0:0:0:0:
256,192,135286,1,8,0:0:0:0:
256,192,135586,1,4,0:0:0:0:
256,192,135886,1,8,0:0:0:0:
256,192,136036,1,0,0:0:0:0:
256,192,136111,1,0,0:0:0:0:
256,192,136186,1,8,0:0:0:0:
256,192,136261,1,8,0:0:0:0:
256,192,136411,1,8,0:0:0:0:
256,192,136561,1,8,0:0:0:0:
256,192,136636,1,8,0:0:0:0:
256,192,136711,1,0,0:0:0:0:
256,192,136861,1,0,0:0:0:0:
256,192,137011,1,0,0:0:0:0:
256,192,137086,1,8,0:0:0:0:
256,192,137236,1,8,0:0:0:0:
256,192,137386,1,0,0:0:0:0:
256,192,137461,1,0,0:0:0:0:
256,192,137536,1,8,0:0:0:0:
256,192,137611,1,0,0:0:0:0:
256,192,137686,1,8,0:0:0:0:
256,192,137761,1,8,0:0:0:0:
256,192,137836,1,0,0:0:0:0:
256,192,137986,1,8,0:0:0:0:
256,192,138286,1,0,0:0:0:0:
256,192,138436,1,0,0:0:0:0:
256,192,138511,1,0,0:0:0:0:
256,192,138586,1,8,0:0:0:0:
256,192,138661,1,0,0:0:0:0:
256,192,138811,1,8,0:0:0:0:
256,192,138961,1,8,0:0:0:0:
256,192,139111,1,0,0:0:0:0:
243,194,139186,1,0,0:0:0:0:
256,192,139261,1,8,0:0:0:0:
256,192,139336,1,0,0:0:0:0:
256,192,139411,1,8,0:0:0:0:
256,192,139561,1,8,0:0:0:0:
256,192,139636,1,0,0:0:0:0:
256,192,139711,1,0,0:0:0:0:
256,192,139786,1,8,0:0:0:0:
256,192,139936,1,8,0:0:0:0:
256,192,140086,1,0,0:0:0:0:
256,192,140386,1,4,0:0:0:0:
256,192,140686,1,8,0:0:0:0:
256,192,140836,1,0,0:0:0:0:
256,192,140911,1,0,0:0:0:0:
256,192,140986,1,8,0:0:0:0:
256,192,141061,1,8,0:0:0:0:
256,192,141136,1,8,0:0:0:0:
256,192,141286,1,8,0:0:0:0:
256,192,141361,1,0,0:0:0:0:
256,192,141436,1,0,0:0:0:0:
256,192,141511,1,0,0:0:0:0:
256,192,141586,1,8,0:0:0:0:
256,192,141736,1,0,0:0:0:0:
256,192,141886,1,8,0:0:0:0:
256,192,142036,1,0,0:0:0:0:
288,192,142111,1,0,0:0:0:0:
288,192,142186,1,8,0:0:0:0:
288,192,142336,1,8,0:0:0:0:
288,192,142486,1,0,0:0:0:0:
288,256,142636,1,0,0:0:0:0:
288,256,142711,1,8,0:0:0:0:
288,256,142786,1,8,0:0:0:0:
288,192,142936,1,8,0:0:0:0:
288,192,143086,1,8,0:0:0:0:
288,192,143236,1,0,0:0:0:0:
288,192,143311,1,0,0:0:0:0:
288,192,143461,1,0,0:0:0:0:
288,192,143536,1,8,0:0:0:0:
288,192,143686,1,0,0:0:0:0:
288,192,143836,1,8,0:0:0:0:
288,224,143986,1,8,0:0:0:0:
288,160,144061,1,8,0:0:0:0:
256,160,144136,1,0,0:0:0:0:
256,160,144186,1,0,0:0:0:0:
256,160,144236,1,0,0:0:0:0:
256,160,144286,1,8,0:0:0:0:
288,160,144361,1,8,0:0:0:0:
288,160,144436,1,0,0:0:0:0:
288,160,144511,1,0,0:0:0:0:
320,192,144586,1,8,0:0:0:0:
320,192,144661,1,0,0:0:0:0:
320,192,144736,1,8,0:0:0:0:
320,192,144811,1,8,0:0:0:0:
320,192,144886,1,0,0:0:0:0:
320,192,145036,1,8,0:0:0:0:
320,192,145186,1,0,0:0:0:0:
320,192,145486,1,8,0:0:0:0:
332,193,145636,1,0,0:0:0:0:
320,160,145786,1,0,0:0:0:0:
322,185,145936,1,0,0:0:0:0:
288,160,146011,1,0,0:0:0:0:
323,185,146086,1,8,0:0:0:0:
288,160,146236,1,8,0:0:0:0:
323,184,146536,1,0,0:0:0:0:
323,184,146686,1,8,0:0:0:0:
328,168,146836,1,8,0:0:0:0:
288,160,146911,1,8,0:0:0:0:
328,166,146986,1,0,0:0:0:0:
328,165,147136,1,0,0:0:0:0:
328,165,147211,1,0,0:0:0:0:
328,164,147286,1,8,0:0:0:0:
256,224,147361,1,8,0:0:0:0:
328,164,147436,1,0,0:0:0:0:
256,224,147511,1,0,0:0:0:0:
328,168,147586,1,8,0:0:0:0:
328,166,147886,1,8,0:0:0:0:
288,192,148111,1,8,0:0:0:0:
288,192,148186,1,0,0:0:0:0:
325,197,148336,1,8,0:0:0:0:
339,193,148411,1,0,0:0:0:0:
325,197,148486,1,0,0:0:0:0:
325,197,148636,1,8,0:0:0:0:
290,182,148711,1,8,0:0:0:0:
289,199,148861,1,0,0:0:0:0:
325,197,148936,1,0,0:0:0:0:
325,197,149011,1,0,0:0:0:0:
325,197,149086,1,8,0:0:0:0:
325,197,149236,1,8,0:0:0:0:
320,192,149311,1,8,0:0:0:0:
325,197,149386,1,0,0:0:0:0:
325,197,149536,1,0,0:0:0:0:
325,197,149686,1,8,0:0:0:0:
325,197,149986,1,0,0:0:0:0:
325,197,150286,1,8,0:0:0:0:
325,197,150436,1,0,0:0:0:0:
320,224,150511,1,0,0:0:0:0:
320,224,150586,1,0,0:0:0:0:
325,197,150736,1,8,0:0:0:0:
325,197,150886,1,0,0:0:0:0:
325,197,151036,1,8,0:0:0:0:
325,197,151336,1,8,0:0:0:0:
325,197,151486,1,0,0:0:0:0:
325,197,151636,1,8,0:0:0:0:
299,203,151711,1,0,0:0:0:0:
299,203,151786,1,0,0:0:0:0:
323,215,151936,1,0,0:0:0:0:
325,215,152086,1,8,0:0:0:0:
325,215,152236,1,8,0:0:0:0:
325,215,152386,1,0,0:0:0:0:
323,215,152686,1,8,0:0:0:0:
323,215,152911,1,8,0:0:0:0:
325,215,152986,1,0,0:0:0:0:
325,215,153136,1,0,0:0:0:0:
325,215,153211,1,0,0:0:0:0:
325,215,153286,1,8,0:0:0:0:
323,215,153436,1,0,0:0:0:0:
323,215,153586,1,0,0:0:0:0:
314,227,153736,1,8,0:0:0:0:
314,227,153773,1,8,0:0:0:0:
314,227,153886,1,0,0:0:0:0:
314,227,154036,1,12,0:0:0:0:
314,227,154186,1,0,0:0:0:0:
305,231,154261,1,0,0:0:0:0:
305,231,154336,1,0,0:0:0:0:
305,232,154486,1,8,0:0:0:0:
256,224,154636,1,8,0:0:0:0:
256,192,154786,1,4,0:0:0:0:
224,160,155086,1,8,0:0:0:0:
256,192,155236,1,0,0:0:0:0:
256,192,155311,1,0,0:0:0:0:
256,192,155386,1,0,0:0:0:0:
256,160,155536,1,8,0:0:0:0:
256,160,155686,1,0,0:0:0:0:
256,192,155836,1,8,0:0:0:0:
256,160,156136,1,8,0:0:0:0:
256,160,156286,1,0,0:0:0:0:
256,160,156436,1,0,0:0:0:0:
256,160,156511,1,8,0:0:0:0:
256,160,156586,1,0,0:0:0:0:
256,160,156736,1,8,0:0:0:0:
256,160,156811,1,8,0:0:0:0:
160,160,156886,1,0,0:0:0:0:
160,160,156961,1,0,0:0:0:0:
256,160,157036,1,0,0:0:0:0:
160,160,157111,1,0,0:0:0:0:
256,160,157186,1,8,0:0:0:0:
256,160,157486,1,8,0:0:0:0:
256,160,157711,1,8,0:0:0:0:
256,160,157786,1,0,0:0:0:0:
256,160,157936,1,8,0:0:0:0:
224,160,158011,1,0,0:0:0:0:
256,160,158086,1,0,0:0:0:0:
256,160,158236,1,8,0:0:0:0:
270,202,158311,1,0,0:0:0:0:
270,202,158461,1,0,0:0:0:0:
288,192,158536,1,8,0:0:0:0:
288,192,158686,1,8,0:0:0:0:
288,192,158761,1,0,0:0:0:0:
192,160,158836,1,8,0:0:0:0:
256,224,158911,1,8,0:0:0:0:
192,160,158986,1,0,0:0:0:0:
256,192,159136,1,0,0:0:0:0:
224,160,159211,1,0,0:0:0:0:
256,224,159286,1,8,0:0:0:0:
256,224,159436,1,8,0:0:0:0:
256,224,159586,1,0,0:0:0:0:
224,160,159886,1,8,0:0:0:0:
256,224,160036,1,0,0:0:0:0:
256,224,160111,1,0,0:0:0:0:
256,224,160186,1,0,0:0:0:0:
256,224,160336,1,8,0:0:0:0:
256,224,160486,1,0,0:0:0:0:
256,192,160636,1,8,0:0:0:0:
288,160,160936,1,8,0:0:0:0:
288,192,161086,1,0,0:0:0:0:
288,192,161236,1,0,0:0:0:0:
288,192,161311,1,8,0:0:0:0:
288,192,161386,1,0,0:0:0:0:
288,192,161536,1,8,0:0:0:0:
288,192,161611,1,0,0:0:0:0:
288,192,161686,1,0,0:0:0:0:
256,160,161761,1,0,0:0:0:0:
256,160,161836,1,8,0:0:0:0:
256,160,161911,1,0,0:0:0:0:
256,160,161986,1,8,0:0:0:0:
256,192,162286,1,8,0:0:0:0:
256,192,162511,1,8,0:0:0:0:
256,192,162586,1,0,0:0:0:0:
224,192,162736,1,0,0:0:0:0:
256,192,162811,1,0,0:0:0:0:
256,192,162886,1,8,0:0:0:0:
256,192,163036,1,8,0:0:0:0:
256,192,163186,1,0,0:0:0:0:
224,160,163336,1,0,0:0:0:0:
224,192,163386,1,0,0:0:0:0:
224,192,163436,1,0,0:0:0:0:
224,192,163486,1,8,0:0:0:0:
224,192,163636,1,8,0:0:0:0:
256,160,163786,1,8,0:0:0:0:
224,192,163861,1,8,0:0:0:0:
224,192,163936,1,0,0:0:0:0:
224,192,164011,1,8,0:0:0:0:
224,192,164086,1,0,0:0:0:0:
224,192,164161,1,0,0:0:0:0:
256,160,164236,1,0,0:0:0:0:
224,192,164311,1,0,0:0:0:0:
256,192,164386,1,8,0:0:0:0:
256,192,164986,1,8,0:0:0:0:
256,192,165211,1,0,0:0:0:0:
256,192,165436,1,8,0:0:0:0:
256,192,165736,1,0,0:0:0:0:
256,192,165886,1,8,0:0:0:0:
256,192,166186,1,0,0:0:0:0:
256,192,166336,1,0,0:0:0:0:
256,192,166486,1,8,0:0:0:0:
279,200,166786,1,8,0:0:0:0:
279,200,167086,1,0,0:0:0:0:
279,200,167386,1,8,0:0:0:0:
256,192,167611,1,0,0:0:0:0:
279,200,167836,1,8,0:0:0:0:
256,192,168136,1,0,0:0:0:0:
256,192,168286,1,8,0:0:0:0:
256,192,168436,1,0,0:0:0:0:
256,192,168511,1,8,0:0:0:0:
256,192,168586,1,8,0:0:0:0:
256,192,168736,1,0,0:0:0:0:
256,192,168886,1,8,0:0:0:0:
256,192,169186,1,8,0:0:0:0:
256,192,169486,1,0,0:0:0:0:
256,192,169786,1,8,0:0:0:0:
256,192,170011,1,0,0:0:0:0:
256,192,170236,1,8,0:0:0:0:
256,192,170536,1,0,0:0:0:0:
256,192,170686,1,8,0:0:0:0:
256,192,170986,1,0,0:0:0:0:
256,192,171136,1,0,0:0:0:0:
256,192,171286,1,8,0:0:0:0:
256,192,171586,1,8,0:0:0:0:
256,192,171886,1,0,0:0:0:0:
256,192,172186,1,8,0:0:0:0:
256,192,172411,1,0,0:0:0:0:
256,192,172636,1,8,0:0:0:0:
256,192,172936,1,0,0:0:0:0:
256,192,173086,1,8,0:0:0:0:
256,192,173236,1,0,0:0:0:0:
256,192,173311,1,0,0:0:0:0:
256,192,173386,1,8,0:0:0:0:
256,192,173536,1,0,0:0:0:0:
256,192,173686,1,8,0:0:0:0:
256,192,173836,1,8,0:0:0:0:
