osu file format v14

[General]
AudioFilename: audio.mp3
AudioLeadIn: 0
PreviewTime: 97770
Countdown: 0
SampleSet: None
StackLeniency: 0.7
Mode: 3
LetterboxInBreaks: 1
SpecialStyle: 0
WidescreenStoryboard: 0

[Editor]
Bookmarks: 72995,74544,83834,84995,85382,97382,98544,104931,112479,117318,118673,122350,124092,134931,210802
DistanceSpacing: 0.6
BeatDivisor: 4
GridSize: 4
TimelineZoom: 1

[Metadata]
Title:Secret Love
TitleUnicode:Secret Love
Artist:Nutty
ArtistUnicode:Nutty
Creator:october
Version:HD
Source:Initial D
Tags:fourth stage initial d eurobeat
BeatmapID:1208313
BeatmapSetID:570030

[Difficulty]
HPDrainRate:6
CircleSize:4
OverallDifficulty:7
ApproachRate:5
SliderMultiplier:1.4
SliderTickRate:1

[Events]
//Background and Video events
0,0,"Konachan.com - 235723 sample.jpg",0,0
//Break Periods
//Storyboard Layer 0 (Background)
//Storyboard Layer 1 (Fail)
//Storyboard Layer 2 (Pass)
//Storyboard Layer 3 (Foreground)
//Storyboard Sound Samples

[TimingPoints]
49770,387.096774193548,4,1,0,70,1,0

[HitObjects]
64,192,45124,5,0,0:0:0:0:
320,192,45318,1,0,0:0:0:0:
192,192,45511,1,0,0:0:0:0:
448,192,45705,1,0,0:0:0:0:
64,192,45899,1,0,0:0:0:0:
320,192,46092,1,0,0:0:0:0:
192,192,46286,1,0,0:0:0:0:
448,192,46479,1,0,0:0:0:0:
64,192,46673,5,0,0:0:0:0:
192,192,46770,1,0,0:0:0:0:
320,192,46866,1,0,0:0:0:0:
448,192,46963,1,0,0:0:0:0:
64,192,47060,1,0,0:0:0:0:
192,192,47157,1,0,0:0:0:0:
320,192,47253,1,0,0:0:0:0:
448,192,47350,1,0,0:0:0:0:
320,192,47447,1,0,0:0:0:0:
192,192,47544,1,0,0:0:0:0:
64,192,47640,1,0,0:0:0:0:
320,192,47737,1,0,0:0:0:0:
448,192,47737,1,0,0:0:0:0:
192,192,47834,1,0,0:0:0:0:
64,192,47834,1,0,0:0:0:0:
448,192,47931,1,0,0:0:0:0:
320,192,47931,1,0,0:0:0:0:
64,192,48028,1,0,0:0:0:0:
192,192,48028,1,0,0:0:0:0:
320,192,48124,1,0,0:0:0:0:
448,192,48124,1,0,0:0:0:0:
64,192,48221,1,0,0:0:0:0:
192,192,48221,1,0,0:0:0:0:
64,192,48995,1,0,0:0:0:0:
192,192,49092,1,0,0:0:0:0:
320,192,49189,1,0,0:0:0:0:
448,192,49286,1,0,0:0:0:0:
320,192,49382,1,0,0:0:0:0:
192,192,49382,1,0,0:0:0:0:
64,192,49770,5,0,0:0:0:0:
448,192,49770,1,0,0:0:0:0:
320,192,49963,1,0,0:0:0:0:
192,192,50157,1,0,0:0:0:0:
320,192,50350,1,0,0:0:0:0:
64,192,50544,1,0,0:0:0:0:
192,192,50544,1,0,0:0:0:0:
448,192,50737,1,0,0:0:0:0:
192,192,50931,1,0,0:0:0:0:
320,192,51124,1,0,0:0:0:0:
64,192,51318,1,0,0:0:0:0:
192,192,51318,1,0,0:0:0:0:
320,192,51511,1,0,0:0:0:0:
192,192,51705,1,0,0:0:0:0:
320,192,51899,1,0,0:0:0:0:
192,192,52092,1,0,0:0:0:0:
320,192,52092,1,0,0:0:0:0:
64,192,52286,1,0,0:0:0:0:
320,192,52479,1,0,0:0:0:0:
192,192,52673,1,0,0:0:0:0:
448,192,52866,1,0,0:0:0:0:
64,192,52866,1,0,0:0:0:0:
320,192,53060,1,0,0:0:0:0:
192,192,53253,1,0,0:0:0:0:
320,192,53447,1,0,0:0:0:0:
192,192,53640,1,0,0:0:0:0:
448,192,53640,1,0,0:0:0:0:
320,192,53834,1,0,0:0:0:0:
192,192,54028,1,0,0:0:0:0:
320,192,54221,1,0,0:0:0:0:
448,192,54415,1,0,0:0:0:0:
64,192,54415,1,0,0:0:0:0:
192,192,54608,1,0,0:0:0:0:
320,192,54608,1,0,0:0:0:0:
64,192,54802,1,0,0:0:0:0:
448,192,54802,1,0,0:0:0:0:
192,192,54995,1,0,0:0:0:0:
64,192,55189,1,0,0:0:0:0:
448,192,55189,1,0,0:0:0:0:
320,192,55382,1,0,0:0:0:0:
192,192,55479,1,0,0:0:0:0:
320,192,55576,1,0,0:0:0:0:
448,192,55673,1,0,0:0:0:0:
320,192,55770,1,0,0:0:0:0:
192,192,55866,1,0,0:0:0:0:
64,192,55963,1,0,0:0:0:0:
448,192,55963,1,0,0:0:0:0:
192,192,56157,1,0,0:0:0:0:
320,192,56350,1,0,0:0:0:0:
64,192,56544,1,0,0:0:0:0:
320,192,56737,1,0,0:0:0:0:
448,192,56737,1,0,0:0:0:0:
192,192,56931,1,0,0:0:0:0:
320,192,57124,1,0,0:0:0:0:
192,192,57318,1,0,0:0:0:0:
448,192,57511,1,0,0:0:0:0:
64,192,57511,1,0,0:0:0:0:
192,192,57705,1,0,0:0:0:0:
320,192,57899,1,0,0:0:0:0:
448,192,57899,1,0,0:0:0:0:
192,192,58092,1,0,0:0:0:0:
320,192,58286,1,0,0:0:0:0:
448,192,58286,1,0,0:0:0:0:
192,192,58479,1,0,0:0:0:0:
64,192,58673,1,0,0:0:0:0:
448,192,58673,1,0,0:0:0:0:
192,192,58866,1,0,0:0:0:0:
320,192,59060,1,0,0:0:0:0:
448,192,59060,1,0,0:0:0:0:
64,192,59253,1,0,0:0:0:0:
192,192,59447,1,0,0:0:0:0:
320,192,59447,1,0,0:0:0:0:
320,192,59640,1,0,0:0:0:0:
192,192,59834,1,0,0:0:0:0:
320,192,60028,1,0,0:0:0:0:
448,192,60221,1,0,0:0:0:0:
192,192,60415,1,0,0:0:0:0:
64,192,60608,1,0,0:0:0:0:
448,192,60608,1,0,0:0:0:0:
192,192,60995,1,0,0:0:0:0:
320,192,60995,1,0,0:0:0:0:
448,192,61382,1,0,0:0:0:0:
320,192,61382,1,0,0:0:0:0:
64,192,61770,1,0,0:0:0:0:
192,192,61770,1,0,0:0:0:0:
64,192,62157,1,0,0:0:0:0:
192,192,62157,1,0,0:0:0:0:
320,192,62157,1,0,0:0:0:0:
448,192,62157,1,0,0:0:0:0:
192,192,62350,1,0,0:0:0:0:
320,192,62544,1,0,0:0:0:0:
192,192,62737,1,0,0:0:0:0:
64,192,62931,1,0,0:0:0:0:
192,192,63028,1,0,0:0:0:0:
320,192,63124,1,0,0:0:0:0:
448,192,63221,1,0,0:0:0:0:
320,192,63318,1,0,0:0:0:0:
64,192,63415,1,0,0:0:0:0:
192,192,63511,1,0,0:0:0:0:
320,192,63608,1,0,0:0:0:0:
448,192,63705,1,0,0:0:0:0:
192,192,63899,1,0,0:0:0:0:
320,192,64092,1,0,0:0:0:0:
192,192,64286,1,0,0:0:0:0:
448,192,64479,1,0,0:0:0:0:
64,192,64479,1,0,0:0:0:0:
320,192,64673,1,0,0:0:0:0:
64,192,64866,1,0,0:0:0:0:
192,192,64866,1,0,0:0:0:0:
320,192,65060,1,0,0:0:0:0:
448,192,65253,1,0,0:0:0:0:
320,192,65253,1,0,0:0:0:0:
64,192,65253,1,0,0:0:0:0:
192,192,65640,1,0,0:0:0:0:
320,192,65834,1,0,0:0:0:0:
192,192,66028,1,0,0:0:0:0:
64,192,66028,1,0,0:0:0:0:
320,192,66221,1,0,0:0:0:0:
448,192,66415,1,0,0:0:0:0:
320,192,66608,1,0,0:0:0:0:
192,192,66802,1,0,0:0:0:0:
64,192,66802,1,0,0:0:0:0:
320,192,66995,1,0,0:0:0:0:
192,192,67189,1,0,0:0:0:0:
64,192,67382,1,0,0:0:0:0:
448,192,67576,1,0,0:0:0:0:
320,192,67576,1,0,0:0:0:0:
192,192,67770,1,0,0:0:0:0:
320,192,67963,1,0,0:0:0:0:
448,192,68157,1,0,0:0:0:0:
64,192,68350,1,0,0:0:0:0:
320,192,68350,1,0,0:0:0:0:
320,192,68737,1,0,0:0:0:0:
192,192,68931,1,0,0:0:0:0:
448,192,69124,1,0,0:0:0:0:
320,192,69124,1,0,0:0:0:0:
192,192,69318,1,0,0:0:0:0:
448,192,69511,1,0,0:0:0:0:
192,192,69705,1,0,0:0:0:0:
64,192,69899,1,0,0:0:0:0:
320,192,69899,1,0,0:0:0:0:
448,192,70092,1,0,0:0:0:0:
64,192,70286,1,0,0:0:0:0:
448,192,70479,1,0,0:0:0:0:
192,192,70673,1,0,0:0:0:0:
320,192,70673,1,0,0:0:0:0:
64,192,70866,1,0,0:0:0:0:
320,192,71060,1,0,0:0:0:0:
192,192,71253,1,0,0:0:0:0:
448,192,71447,1,0,0:0:0:0:
320,192,71447,1,0,0:0:0:0:
192,192,71640,1,0,0:0:0:0:
448,192,71834,1,0,0:0:0:0:
192,192,72028,1,0,0:0:0:0:
448,192,72221,1,0,0:0:0:0:
64,192,72221,1,0,0:0:0:0:
192,192,72415,1,0,0:0:0:0:
320,192,72608,1,0,0:0:0:0:
192,192,72802,1,0,0:0:0:0:
448,192,72995,1,0,0:0:0:0:
320,192,72995,1,0,0:0:0:0:
192,192,73382,1,0,0:0:0:0:
64,192,73382,1,0,0:0:0:0:
448,192,73770,1,0,0:0:0:0:
320,192,73770,1,0,0:0:0:0:
448,192,74157,1,0,0:0:0:0:
64,192,74157,1,0,0:0:0:0:
192,192,74157,1,0,0:0:0:0:
320,192,74157,1,0,0:0:0:0:
320,192,74544,1,0,0:0:0:0:
192,192,74544,1,0,0:0:0:0:
64,192,74737,1,0,0:0:0:0:
448,192,74931,1,0,0:0:0:0:
64,192,75124,1,0,0:0:0:0:
448,192,75318,1,0,0:0:0:0:
192,192,75318,1,0,0:0:0:0:
320,192,75511,1,0,0:0:0:0:
448,192,75705,1,0,0:0:0:0:
192,192,75899,1,0,0:0:0:0:
448,192,76092,1,0,0:0:0:0:
320,192,76092,1,0,0:0:0:0:
192,192,76286,1,0,0:0:0:0:
448,192,76479,1,0,0:0:0:0:
192,192,76673,1,0,0:0:0:0:
320,192,76866,1,0,0:0:0:0:
448,192,77060,1,0,0:0:0:0:
320,192,77253,1,0,0:0:0:0:
192,192,77447,1,0,0:0:0:0:
448,192,77640,1,0,0:0:0:0:
320,192,77640,1,0,0:0:0:0:
192,192,77834,1,0,0:0:0:0:
64,192,78028,1,0,0:0:0:0:
448,192,78221,1,0,0:0:0:0:
192,192,78415,1,0,0:0:0:0:
320,192,78608,1,0,0:0:0:0:
192,192,78802,1,0,0:0:0:0:
448,192,78995,1,0,0:0:0:0:
192,192,79189,1,0,0:0:0:0:
320,192,79189,1,0,0:0:0:0:
64,192,79382,1,0,0:0:0:0:
448,192,79576,128,0,79963:0:0:0:0:
192,192,79576,1,0,0:0:0:0:
192,192,79963,128,0,80350:0:0:0:0:
448,192,80350,128,0,80737:0:0:0:0:
192,192,80737,1,0,0:0:0:0:
320,192,80931,1,0,0:0:0:0:
64,192,81124,1,0,0:0:0:0:
448,192,81318,1,0,0:0:0:0:
192,192,81511,1,0,0:0:0:0:
320,192,81511,1,0,0:0:0:0:
448,192,81705,1,0,0:0:0:0:
64,192,81899,1,0,0:0:0:0:
320,192,82092,1,0,0:0:0:0:
64,192,82286,1,0,0:0:0:0:
192,192,82286,1,0,0:0:0:0:
320,192,82479,1,0,0:0:0:0:
192,192,82673,1,0,0:0:0:0:
320,192,82866,1,0,0:0:0:0:
64,192,83060,1,0,0:0:0:0:
320,192,83253,1,0,0:0:0:0:
192,192,83447,1,0,0:0:0:0:
448,192,83640,1,0,0:0:0:0:
64,192,83834,1,0,0:0:0:0:
192,192,83834,1,0,0:0:0:0:
320,192,83834,1,0,0:0:0:0:
448,192,83834,1,0,0:0:0:0:
192,192,84028,1,0,0:0:0:0:
320,192,84221,1,0,0:0:0:0:
448,192,84415,1,0,0:0:0:0:
192,192,84608,1,0,0:0:0:0:
320,192,84802,1,0,0:0:0:0:
64,192,84995,1,0,0:0:0:0:
192,192,85092,1,0,0:0:0:0:
448,192,85189,1,0,0:0:0:0:
320,192,85189,1,0,0:0:0:0:
192,192,85576,1,0,0:0:0:0:
320,192,85576,1,0,0:0:0:0:
64,192,85963,1,0,0:0:0:0:
448,192,85963,1,0,0:0:0:0:
64,192,86350,1,0,0:0:0:0:
320,192,86350,1,0,0:0:0:0:
192,192,86350,1,0,0:0:0:0:
448,192,86350,1,0,0:0:0:0:
320,192,86737,1,0,0:0:0:0:
64,192,86931,1,0,0:0:0:0:
192,192,86931,1,0,0:0:0:0:
320,192,87124,1,0,0:0:0:0:
64,192,87318,1,0,0:0:0:0:
192,192,87415,1,0,0:0:0:0:
320,192,87511,1,0,0:0:0:0:
448,192,87608,1,0,0:0:0:0:
192,192,87705,1,0,0:0:0:0:
320,192,87705,1,0,0:0:0:0:
64,192,87899,1,0,0:0:0:0:
448,192,88092,1,0,0:0:0:0:
192,192,88286,1,0,0:0:0:0:
448,192,88479,1,0,0:0:0:0:
320,192,88479,1,0,0:0:0:0:
192,192,88673,1,0,0:0:0:0:
320,192,88866,1,0,0:0:0:0:
448,192,89060,1,0,0:0:0:0:
64,192,89253,1,0,0:0:0:0:
320,192,89253,1,0,0:0:0:0:
192,192,89447,1,0,0:0:0:0:
448,192,89640,1,0,0:0:0:0:
192,192,89834,1,0,0:0:0:0:
448,192,90028,1,0,0:0:0:0:
64,192,90028,1,0,0:0:0:0:
320,192,90221,1,0,0:0:0:0:
192,192,90415,1,0,0:0:0:0:
448,192,90608,1,0,0:0:0:0:
320,192,90802,1,0,0:0:0:0:
192,192,90995,1,0,0:0:0:0:
64,192,91189,1,0,0:0:0:0:
320,192,91382,1,0,0:0:0:0:
192,192,91576,1,0,0:0:0:0:
448,192,91576,1,0,0:0:0:0:
320,192,91770,1,0,0:0:0:0:
192,192,91963,1,0,0:0:0:0:
448,192,92157,1,0,0:0:0:0:
192,192,92350,1,0,0:0:0:0:
320,192,92544,1,0,0:0:0:0:
448,192,92737,1,0,0:0:0:0:
320,192,92931,1,0,0:0:0:0:
64,192,93124,1,0,0:0:0:0:
192,192,93124,1,0,0:0:0:0:
320,192,93318,1,0,0:0:0:0:
192,192,93511,1,0,0:0:0:0:
320,192,93705,1,0,0:0:0:0:
192,192,93899,1,0,0:0:0:0:
64,192,93899,1,0,0:0:0:0:
448,192,94092,1,0,0:0:0:0:
192,192,94286,1,0,0:0:0:0:
448,192,94479,1,0,0:0:0:0:
64,192,94673,1,0,0:0:0:0:
320,192,94673,1,0,0:0:0:0:
192,192,94673,1,0,0:0:0:0:
448,192,94866,1,0,0:0:0:0:
192,192,95060,1,0,0:0:0:0:
320,192,95253,1,0,0:0:0:0:
192,192,95447,1,0,0:0:0:0:
448,192,95640,1,0,0:0:0:0:
320,192,95834,1,0,0:0:0:0:
192,192,96028,1,0,0:0:0:0:
448,192,96221,1,0,0:0:0:0:
320,192,96221,1,0,0:0:0:0:
192,192,96415,1,0,0:0:0:0:
320,192,96608,1,0,0:0:0:0:
448,192,96802,1,0,0:0:0:0:
64,192,96995,1,0,0:0:0:0:
192,192,96995,1,0,0:0:0:0:
448,192,97189,1,0,0:0:0:0:
320,192,97382,1,0,0:0:0:0:
192,192,97576,5,0,0:0:0:0:
320,192,97770,1,0,0:0:0:0:
64,192,97770,1,0,0:0:0:0:
448,192,97770,1,0,0:0:0:0:
192,192,98737,5,0,0:0:0:0:
320,192,98834,1,0,0:0:0:0:
448,192,98931,1,0,0:0:0:0:
64,192,99318,5,0,0:0:0:0:
320,192,99318,1,0,0:0:0:0:
192,192,99511,1,0,0:0:0:0:
320,192,99705,1,0,0:0:0:0:
448,192,99899,1,0,0:0:0:0:
192,192,100092,1,0,0:0:0:0:
320,192,100092,1,0,0:0:0:0:
448,192,100286,1,0,0:0:0:0:
64,192,100479,1,0,0:0:0:0:
320,192,100673,1,0,0:0:0:0:
192,192,100866,1,0,0:0:0:0:
448,192,100866,1,0,0:0:0:0:
320,192,101060,1,0,0:0:0:0:
192,192,101253,1,0,0:0:0:0:
64,192,101253,1,0,0:0:0:0:
448,192,101447,1,0,0:0:0:0:
320,192,101544,1,0,0:0:0:0:
192,192,101640,1,0,0:0:0:0:
320,192,101737,1,0,0:0:0:0:
448,192,101834,1,0,0:0:0:0:
320,192,101931,1,0,0:0:0:0:
192,192,102028,1,0,0:0:0:0:
64,192,102124,1,0,0:0:0:0:
192,192,102221,1,0,0:0:0:0:
320,192,102318,1,0,0:0:0:0:
448,192,102415,1,0,0:0:0:0:
192,192,102415,1,0,0:0:0:0:
320,192,102608,1,0,0:0:0:0:
192,192,102802,1,0,0:0:0:0:
64,192,102995,1,0,0:0:0:0:
192,192,103189,1,0,0:0:0:0:
448,192,103189,1,0,0:0:0:0:
320,192,103382,1,0,0:0:0:0:
64,192,103576,1,0,0:0:0:0:
448,192,103770,1,0,0:0:0:0:
64,192,103963,1,0,0:0:0:0:
320,192,103963,1,0,0:0:0:0:
192,192,104157,1,0,0:0:0:0:
64,192,104350,1,0,0:0:0:0:
320,192,104350,1,0,0:0:0:0:
448,192,104544,1,0,0:0:0:0:
320,192,104737,1,0,0:0:0:0:
192,192,104737,1,0,0:0:0:0:
64,192,104931,1,0,0:0:0:0:
192,192,105028,1,0,0:0:0:0:
320,192,105124,1,0,0:0:0:0:
448,192,105221,1,0,0:0:0:0:
320,192,105318,1,0,0:0:0:0:
192,192,105415,1,0,0:0:0:0:
64,192,105511,1,0,0:0:0:0:
320,192,105511,1,0,0:0:0:0:
192,192,105705,1,0,0:0:0:0:
320,192,105899,1,0,0:0:0:0:
448,192,106092,1,0,0:0:0:0:
64,192,106286,1,0,0:0:0:0:
448,192,106286,1,0,0:0:0:0:
320,192,106479,1,0,0:0:0:0:
192,192,106673,1,0,0:0:0:0:
320,192,106866,1,0,0:0:0:0:
192,192,107060,1,0,0:0:0:0:
448,192,107060,1,0,0:0:0:0:
320,192,107253,1,0,0:0:0:0:
448,192,107447,1,0,0:0:0:0:
320,192,107640,1,0,0:0:0:0:
192,192,107834,1,0,0:0:0:0:
64,192,107834,1,0,0:0:0:0:
320,192,108028,1,0,0:0:0:0:
448,192,108221,1,0,0:0:0:0:
64,192,108415,1,0,0:0:0:0:
448,192,108608,1,0,0:0:0:0:
192,192,108608,1,0,0:0:0:0:
320,192,108802,1,0,0:0:0:0:
64,192,108995,1,0,0:0:0:0:
448,192,108995,1,0,0:0:0:0:
192,192,109189,1,0,0:0:0:0:
448,192,109382,1,0,0:0:0:0:
64,192,109382,1,0,0:0:0:0:
320,192,109576,1,0,0:0:0:0:
192,192,109770,1,0,0:0:0:0:
64,192,109963,1,0,0:0:0:0:
448,192,110157,1,0,0:0:0:0:
320,192,110157,1,0,0:0:0:0:
192,192,110350,1,0,0:0:0:0:
448,192,110544,1,0,0:0:0:0:
64,192,110737,1,0,0:0:0:0:
192,192,110931,1,0,0:0:0:0:
320,192,110931,1,0,0:0:0:0:
448,192,111124,1,0,0:0:0:0:
192,192,111318,1,0,0:0:0:0:
320,192,111415,1,0,0:0:0:0:
448,192,111511,1,0,0:0:0:0:
320,192,111608,1,0,0:0:0:0:
64,192,111705,1,0,0:0:0:0:
448,192,111705,1,0,0:0:0:0:
192,192,111899,1,0,0:0:0:0:
320,192,112092,1,0,0:0:0:0:
64,192,112286,1,0,0:0:0:0:
448,192,112479,1,0,0:0:0:0:
320,192,112576,1,0,0:0:0:0:
192,192,112673,1,0,0:0:0:0:
64,192,112770,1,0,0:0:0:0:
448,192,112866,1,0,0:0:0:0:
320,192,112963,1,0,0:0:0:0:
192,192,113060,1,0,0:0:0:0:
64,192,113157,1,0,0:0:0:0:
320,192,113253,1,0,0:0:0:0:
448,192,113253,1,0,0:0:0:0:
192,192,113447,1,0,0:0:0:0:
448,192,113640,1,0,0:0:0:0:
192,192,113834,1,0,0:0:0:0:
448,192,114028,1,0,0:0:0:0:
320,192,114028,1,0,0:0:0:0:
192,192,114221,1,0,0:0:0:0:
64,192,114415,1,0,0:0:0:0:
448,192,114608,1,0,0:0:0:0:
320,192,114802,1,0,0:0:0:0:
192,192,114802,1,0,0:0:0:0:
64,192,114995,1,0,0:0:0:0:
448,192,115189,1,0,0:0:0:0:
192,192,115382,1,0,0:0:0:0:
320,192,115382,1,0,0:0:0:0:
64,192,115576,1,0,0:0:0:0:
320,192,115770,1,0,0:0:0:0:
64,192,115963,1,0,0:0:0:0:
448,192,115963,1,0,0:0:0:0:
192,192,116157,1,0,0:0:0:0:
64,192,116350,1,0,0:0:0:0:
320,192,116350,1,0,0:0:0:0:
448,192,116544,1,0,0:0:0:0:
192,192,116737,1,0,0:0:0:0:
320,192,116737,1,0,0:0:0:0:
320,192,116931,1,0,0:0:0:0:
448,192,117124,1,0,0:0:0:0:
320,192,117221,1,0,0:0:0:0:
192,192,117318,1,0,0:0:0:0:
320,192,117415,1,0,0:0:0:0:
448,192,117511,1,0,0:0:0:0:
320,192,117608,1,0,0:0:0:0:
192,192,117705,1,0,0:0:0:0:
64,192,117802,1,0,0:0:0:0:
448,192,117899,1,0,0:0:0:0:
320,192,117899,1,0,0:0:0:0:
192,192,118092,1,0,0:0:0:0:
320,192,118286,1,0,0:0:0:0:
192,192,118479,1,0,0:0:0:0:
448,192,118673,1,0,0:0:0:0:
320,192,118673,1,0,0:0:0:0:
64,192,118866,1,0,0:0:0:0:
448,192,119060,1,0,0:0:0:0:
192,192,119253,1,0,0:0:0:0:
64,192,119447,1,0,0:0:0:0:
320,192,119447,1,0,0:0:0:0:
448,192,119640,1,0,0:0:0:0:
320,192,119834,1,0,0:0:0:0:
192,192,119834,1,0,0:0:0:0:
64,192,120028,1,0,0:0:0:0:
448,192,120221,1,0,0:0:0:0:
192,192,120415,1,0,0:0:0:0:
320,192,120608,1,0,0:0:0:0:
448,192,120608,1,0,0:0:0:0:
192,192,120802,1,0,0:0:0:0:
64,192,120995,1,0,0:0:0:0:
448,192,120995,1,0,0:0:0:0:
320,192,121189,1,0,0:0:0:0:
192,192,121382,1,0,0:0:0:0:
320,192,121576,1,0,0:0:0:0:
448,192,121770,1,0,0:0:0:0:
192,192,121770,1,0,0:0:0:0:
320,192,121963,1,0,0:0:0:0:
64,192,122157,1,0,0:0:0:0:
448,192,122350,1,0,0:0:0:0:
192,192,122350,1,0,0:0:0:0:
320,192,122737,1,0,0:0:0:0:
64,192,122737,1,0,0:0:0:0:
320,192,123124,1,0,0:0:0:0:
192,192,123124,1,0,0:0:0:0:
448,192,123511,1,0,0:0:0:0:
320,192,123511,1,0,0:0:0:0:
64,192,123705,1,0,0:0:0:0:
192,192,123802,1,0,0:0:0:0:
320,192,123899,1,0,0:0:0:0:
448,192,123995,1,0,0:0:0:0:
64,192,124092,1,0,0:0:0:0:
320,192,124092,1,0,0:0:0:0:
192,192,124286,1,0,0:0:0:0:
320,192,124479,1,0,0:0:0:0:
448,192,124673,1,0,0:0:0:0:
64,192,124866,1,0,0:0:0:0:
448,192,125060,1,0,0:0:0:0:
320,192,125253,1,0,0:0:0:0:
192,192,125447,1,0,0:0:0:0:
64,192,125447,1,0,0:0:0:0:
320,192,125834,1,0,0:0:0:0:
448,192,125834,1,0,0:0:0:0:
192,192,126221,1,0,0:0:0:0:
64,192,126221,1,0,0:0:0:0:
448,192,126608,1,0,0:0:0:0:
320,192,126608,1,0,0:0:0:0:
64,192,126802,1,0,0:0:0:0:
192,192,126899,1,0,0:0:0:0:
320,192,126995,1,0,0:0:0:0:
448,192,127092,1,0,0:0:0:0:
64,192,127189,1,0,0:0:0:0:
320,192,127189,1,0,0:0:0:0:
192,192,127382,1,0,0:0:0:0:
448,192,127576,1,0,0:0:0:0:
192,192,127770,1,0,0:0:0:0:
320,192,127963,1,0,0:0:0:0:
448,192,128157,128,0,128544:0:0:0:0:
192,192,128157,1,0,0:0:0:0:
320,192,128350,1,0,0:0:0:0:
64,192,128544,1,0,0:0:0:0:
192,192,128737,1,0,0:0:0:0:
320,192,128737,1,0,0:0:0:0:
448,192,128931,1,0,0:0:0:0:
64,192,129124,1,0,0:0:0:0:
192,192,129221,1,0,0:0:0:0:
320,192,129318,1,0,0:0:0:0:
448,192,129415,1,0,0:0:0:0:
64,192,129511,1,0,0:0:0:0:
192,192,129608,1,0,0:0:0:0:
320,192,129705,1,0,0:0:0:0:
448,192,129802,1,0,0:0:0:0:
64,192,129899,1,0,0:0:0:0:
192,192,130092,1,0,0:0:0:0:
448,192,130286,1,0,0:0:0:0:
320,192,130286,1,0,0:0:0:0:
64,192,130479,1,0,0:0:0:0:
320,192,130673,1,0,0:0:0:0:
448,192,130866,1,0,0:0:0:0:
64,192,131060,1,0,0:0:0:0:
192,192,131060,1,0,0:0:0:0:
320,192,131253,1,0,0:0:0:0:
448,192,131447,1,0,0:0:0:0:
64,192,131640,1,0,0:0:0:0:
192,192,131834,1,0,0:0:0:0:
320,192,131834,1,0,0:0:0:0:
448,192,132028,1,0,0:0:0:0:
320,192,132124,1,0,0:0:0:0:
192,192,132221,1,0,0:0:0:0:
64,192,132415,1,0,0:0:0:0:
448,192,132608,1,0,0:0:0:0:
320,192,132608,1,0,0:0:0:0:
192,192,132802,1,0,0:0:0:0:
320,192,132995,1,0,0:0:0:0:
192,192,133189,1,0,0:0:0:0:
64,192,133382,1,0,0:0:0:0:
448,192,133382,1,0,0:0:0:0:
320,192,133576,1,0,0:0:0:0:
192,192,133769,1,0,0:0:0:0:
448,192,133963,1,0,0:0:0:0:
320,192,134060,1,0,0:0:0:0:
192,192,134157,1,0,0:0:0:0:
320,192,134253,1,0,0:0:0:0:
448,192,134350,1,0,0:0:0:0:
192,192,134544,1,0,0:0:0:0:
320,192,134544,1,0,0:0:0:0:
64,192,134931,1,0,0:0:0:0:
448,192,134931,1,0,0:0:0:0:
320,192,135318,1,0,0:0:0:0:
448,192,135318,1,0,0:0:0:0:
64,192,135705,1,0,0:0:0:0:
192,192,135705,1,0,0:0:0:0:
320,192,136092,1,0,0:0:0:0:
448,192,136092,1,0,0:0:0:0:
64,192,136189,1,0,0:0:0:0:
192,192,136286,1,0,0:0:0:0:
320,192,136382,1,0,0:0:0:0:
64,192,136479,1,0,0:0:0:0:
192,192,136479,1,0,0:0:0:0:
448,192,136479,1,0,0:0:0:0:
192,192,136673,1,0,0:0:0:0:
448,192,136866,1,0,0:0:0:0:
192,192,137060,1,0,0:0:0:0:
64,192,137253,1,0,0:0:0:0:
320,192,137253,1,0,0:0:0:0:
448,192,137447,1,0,0:0:0:0:
192,192,137640,1,0,0:0:0:0:
64,192,137834,1,0,0:0:0:0:
320,192,138028,1,0,0:0:0:0:
448,192,138028,1,0,0:0:0:0:
192,192,138221,1,0,0:0:0:0:
64,192,138415,1,0,0:0:0:0:
448,192,138608,1,0,0:0:0:0:
64,192,138802,1,0,0:0:0:0:
192,192,138899,1,0,0:0:0:0:
320,192,138995,1,0,0:0:0:0:
448,192,139092,1,0,0:0:0:0:
64,192,139189,1,0,0:0:0:0:
320,192,139189,1,0,0:0:0:0:
448,192,139382,1,0,0:0:0:0:
192,192,139576,1,0,0:0:0:0:
64,192,139576,1,0,0:0:0:0:
320,192,139769,1,0,0:0:0:0:
64,192,139963,1,0,0:0:0:0:
448,192,140157,1,0,0:0:0:0:
192,192,140350,1,0,0:0:0:0:
320,192,140350,1,0,0:0:0:0:
64,192,140544,1,0,0:0:0:0:
448,192,140737,1,0,0:0:0:0:
64,192,140931,1,0,0:0:0:0:
448,192,141124,1,0,0:0:0:0:
320,192,141124,1,0,0:0:0:0:
64,192,141318,1,0,0:0:0:0:
448,192,141511,1,0,0:0:0:0:
320,192,141608,1,0,0:0:0:0:
192,192,141705,1,0,0:0:0:0:
64,192,141802,1,0,0:0:0:0:
448,192,141899,1,0,0:0:0:0:
320,192,141899,1,0,0:0:0:0:
64,192,141995,1,0,0:0:0:0:
192,192,142092,1,0,0:0:0:0:
320,192,142189,1,0,0:0:0:0:
448,192,142286,1,0,0:0:0:0:
192,192,142286,1,0,0:0:0:0:
64,192,142479,1,0,0:0:0:0:
448,192,142673,1,0,0:0:0:0:
320,192,142673,1,0,0:0:0:0:
64,192,142866,1,0,0:0:0:0:
448,192,143060,1,0,0:0:0:0:
192,192,143253,1,0,0:0:0:0:
448,192,143447,1,0,0:0:0:0:
320,192,143447,1,0,0:0:0:0:
64,192,143640,1,0,0:0:0:0:
448,192,143834,1,0,0:0:0:0:
192,192,144028,1,0,0:0:0:0:
320,192,144221,1,0,0:0:0:0:
448,192,144221,1,0,0:0:0:0:
192,192,144415,1,0,0:0:0:0:
64,192,144608,1,0,0:0:0:0:
448,192,144802,1,0,0:0:0:0:
192,192,144995,1,0,0:0:0:0:
320,192,144995,1,0,0:0:0:0:
64,192,145189,1,0,0:0:0:0:
448,192,145382,1,0,0:0:0:0:
320,192,145382,1,0,0:0:0:0:
192,192,145576,1,0,0:0:0:0:
64,192,145769,1,0,0:0:0:0:
320,192,145769,1,0,0:0:0:0:
192,192,145963,1,0,0:0:0:0:
448,192,146157,1,0,0:0:0:0:
192,192,146350,1,0,0:0:0:0:
448,192,146544,1,0,0:0:0:0:
320,192,146544,1,0,0:0:0:0:
64,192,146737,1,0,0:0:0:0:
448,192,146931,1,0,0:0:0:0:
320,192,147028,1,0,0:0:0:0:
192,192,147124,1,0,0:0:0:0:
64,192,147124,1,0,0:0:0:0:
320,192,147511,1,0,0:0:0:0:
448,192,147511,1,0,0:0:0:0:
64,192,147899,1,0,0:0:0:0:
320,192,147899,1,0,0:0:0:0:
448,192,148286,1,0,0:0:0:0:
192,192,148286,1,0,0:0:0:0:
192,192,148673,1,0,0:0:0:0:
448,192,148866,1,0,0:0:0:0:
64,192,148866,1,0,0:0:0:0:
320,192,148866,1,0,0:0:0:0:
192,192,149060,1,0,0:0:0:0:
448,192,149253,1,0,0:0:0:0:
192,192,149447,1,0,0:0:0:0:
64,192,149640,1,0,0:0:0:0:
320,192,149640,1,0,0:0:0:0:
448,192,149834,1,0,0:0:0:0:
192,192,150028,1,0,0:0:0:0:
320,192,150221,1,0,0:0:0:0:
448,192,150415,1,0,0:0:0:0:
192,192,150415,1,0,0:0:0:0:
64,192,150415,1,0,0:0:0:0:
320,192,150608,1,0,0:0:0:0:
192,192,150802,1,0,0:0:0:0:
448,192,150995,1,0,0:0:0:0:
64,192,151189,1,0,0:0:0:0:
192,192,151286,1,0,0:0:0:0:
320,192,151382,1,0,0:0:0:0:
448,192,151479,1,0,0:0:0:0:
64,192,151576,1,0,0:0:0:0:
192,192,151576,1,0,0:0:0:0:
448,192,151769,1,0,0:0:0:0:
320,192,151866,1,0,0:0:0:0:
64,192,151963,1,0,0:0:0:0:
192,192,151963,1,0,0:0:0:0:
320,192,152157,1,0,0:0:0:0:
448,192,152350,1,0,0:0:0:0:
192,192,152544,1,0,0:0:0:0:
320,192,152737,1,0,0:0:0:0:
448,192,152737,1,0,0:0:0:0:
64,192,152931,1,0,0:0:0:0:
448,192,153124,1,0,0:0:0:0:
64,192,153318,1,0,0:0:0:0:
192,192,153511,1,0,0:0:0:0:
320,192,153511,1,0,0:0:0:0:
64,192,153705,1,0,0:0:0:0:
448,192,153899,1,0,0:0:0:0:
64,192,154092,1,0,0:0:0:0:
448,192,154286,1,0,0:0:0:0:
64,192,154479,1,0,0:0:0:0:
192,192,154576,1,0,0:0:0:0:
320,192,154673,1,0,0:0:0:0:
448,192,154769,1,0,0:0:0:0:
320,192,154866,1,0,0:0:0:0:
192,192,154963,1,0,0:0:0:0:
64,192,155060,1,0,0:0:0:0:
448,192,155060,1,0,0:0:0:0:
192,192,155253,1,0,0:0:0:0:
448,192,155447,1,0,0:0:0:0:
192,192,155640,1,0,0:0:0:0:
64,192,155640,1,0,0:0:0:0:
448,192,155834,1,0,0:0:0:0:
192,192,156028,1,0,0:0:0:0:
448,192,156221,1,0,0:0:0:0:
192,192,156415,1,0,0:0:0:0:
448,192,156608,1,0,0:0:0:0:
320,192,156608,1,0,0:0:0:0:
192,192,156802,1,0,0:0:0:0:
64,192,156995,1,0,0:0:0:0:
192,192,157189,1,0,0:0:0:0:
320,192,157382,1,0,0:0:0:0:
64,192,157382,1,0,0:0:0:0:
192,192,157576,1,0,0:0:0:0:
448,192,157769,1,0,0:0:0:0:
192,192,157769,1,0,0:0:0:0:
320,192,157963,1,0,0:0:0:0:
448,192,158157,1,0,0:0:0:0:
64,192,158157,1,0,0:0:0:0:
192,192,158157,1,0,0:0:0:0:
320,192,158350,1,0,0:0:0:0:
64,192,158544,1,0,0:0:0:0:
448,192,158737,1,0,0:0:0:0:
192,192,158931,1,0,0:0:0:0:
320,192,159124,1,0,0:0:0:0:
192,192,159318,1,0,0:0:0:0:
320,192,159511,1,0,0:0:0:0:
64,192,159705,1,0,0:0:0:0:
448,192,159705,1,0,0:0:0:0:
192,192,160382,5,0,0:0:0:0:
320,192,160479,1,0,0:0:0:0:
448,192,160576,1,0,0:0:0:0:
320,192,160673,1,0,0:0:0:0:
192,192,160769,1,0,0:0:0:0:
64,192,160866,1,0,0:0:0:0:
448,192,161253,5,0,0:0:0:0:
192,192,161253,1,0,0:0:0:0:
320,192,161447,1,0,0:0:0:0:
192,192,161640,1,0,0:0:0:0:
64,192,161834,1,0,0:0:0:0:
320,192,162028,1,0,0:0:0:0:
192,192,162028,1,0,0:0:0:0:
64,192,162221,1,0,0:0:0:0:
448,192,162415,1,0,0:0:0:0:
192,192,162608,1,0,0:0:0:0:
320,192,162802,1,0,0:0:0:0:
64,192,162802,1,0,0:0:0:0:
192,192,162995,1,0,0:0:0:0:
320,192,163189,1,0,0:0:0:0:
448,192,163189,1,0,0:0:0:0:
64,192,163382,1,0,0:0:0:0:
192,192,163479,1,0,0:0:0:0:
320,192,163576,1,0,0:0:0:0:
192,192,163673,1,0,0:0:0:0:
64,192,163769,1,0,0:0:0:0:
192,192,163866,1,0,0:0:0:0:
320,192,163963,1,0,0:0:0:0:
448,192,164060,1,0,0:0:0:0:
320,192,164157,1,0,0:0:0:0:
192,192,164253,1,0,0:0:0:0:
64,192,164350,1,0,0:0:0:0:
320,192,164350,1,0,0:0:0:0:
192,192,164544,1,0,0:0:0:0:
320,192,164737,1,0,0:0:0:0:
448,192,164931,1,0,0:0:0:0:
320,192,165124,1,0,0:0:0:0:
64,192,165124,1,0,0:0:0:0:
192,192,165318,1,0,0:0:0:0:
448,192,165511,1,0,0:0:0:0:
64,192,165705,1,0,0:0:0:0:
448,192,165899,1,0,0:0:0:0:
192,192,165899,1,0,0:0:0:0:
320,192,166092,1,0,0:0:0:0:
448,192,166286,1,0,0:0:0:0:
192,192,166286,1,0,0:0:0:0:
64,192,166479,1,0,0:0:0:0:
192,192,166673,1,0,0:0:0:0:
320,192,166673,1,0,0:0:0:0:
448,192,166866,1,0,0:0:0:0:
320,192,166963,1,0,0:0:0:0:
192,192,167060,1,0,0:0:0:0:
64,192,167157,1,0,0:0:0:0:
192,192,167253,1,0,0:0:0:0:
320,192,167350,1,0,0:0:0:0:
448,192,167447,1,0,0:0:0:0:
192,192,167447,1,0,0:0:0:0:
320,192,167640,1,0,0:0:0:0:
192,192,167834,1,0,0:0:0:0:
64,192,168028,1,0,0:0:0:0:
448,192,168221,1,0,0:0:0:0:
64,192,168221,1,0,0:0:0:0:
192,192,168415,1,0,0:0:0:0:
320,192,168608,1,0,0:0:0:0:
192,192,168802,1,0,0:0:0:0:
320,192,168995,1,0,0:0:0:0:
64,192,168995,1,0,0:0:0:0:
192,192,169189,1,0,0:0:0:0:
64,192,169382,1,0,0:0:0:0:
192,192,169576,1,0,0:0:0:0:
320,192,169769,1,0,0:0:0:0:
448,192,169769,1,0,0:0:0:0:
192,192,169963,1,0,0:0:0:0:
64,192,170157,1,0,0:0:0:0:
448,192,170350,1,0,0:0:0:0:
64,192,170544,1,0,0:0:0:0:
320,192,170544,1,0,0:0:0:0:
192,192,170737,1,0,0:0:0:0:
448,192,170931,1,0,0:0:0:0:
64,192,170931,1,0,0:0:0:0:
320,192,171124,1,0,0:0:0:0:
64,192,171318,1,0,0:0:0:0:
448,192,171318,1,0,0:0:0:0:
192,192,171511,1,0,0:0:0:0:
320,192,171705,1,0,0:0:0:0:
448,192,171899,1,0,0:0:0:0:
64,192,172092,1,0,0:0:0:0:
192,192,172092,1,0,0:0:0:0:
320,192,172286,1,0,0:0:0:0:
64,192,172479,1,0,0:0:0:0:
448,192,172673,1,0,0:0:0:0:
320,192,172866,1,0,0:0:0:0:
192,192,172866,1,0,0:0:0:0:
64,192,173060,1,0,0:0:0:0:
320,192,173253,1,0,0:0:0:0:
192,192,173350,1,0,0:0:0:0:
64,192,173447,1,0,0:0:0:0:
192,192,173544,1,0,0:0:0:0:
448,192,173640,1,0,0:0:0:0:
64,192,173640,1,0,0:0:0:0:
320,192,173834,1,0,0:0:0:0:
192,192,174028,1,0,0:0:0:0:
448,192,174221,1,0,0:0:0:0:
64,192,174415,1,0,0:0:0:0:
192,192,174511,1,0,0:0:0:0:
320,192,174608,1,0,0:0:0:0:
448,192,174705,1,0,0:0:0:0:
64,192,174802,1,0,0:0:0:0:
192,192,174899,1,0,0:0:0:0:
320,192,174995,1,0,0:0:0:0:
448,192,175092,1,0,0:0:0:0:
192,192,175189,1,0,0:0:0:0:
64,192,175189,1,0,0:0:0:0:
320,192,175382,1,0,0:0:0:0:
64,192,175576,1,0,0:0:0:0:
320,192,175769,1,0,0:0:0:0:
64,192,175963,1,0,0:0:0:0:
192,192,175963,1,0,0:0:0:0:
320,192,176157,1,0,0:0:0:0:
448,192,176350,1,0,0:0:0:0:
64,192,176544,1,0,0:0:0:0:
192,192,176737,1,0,0:0:0:0:
320,192,176737,1,0,0:0:0:0:
448,192,176931,1,0,0:0:0:0:
64,192,177124,1,0,0:0:0:0:
320,192,177318,1,0,0:0:0:0:
192,192,177318,1,0,0:0:0:0:
448,192,177511,1,0,0:0:0:0:
192,192,177705,1,0,0:0:0:0:
448,192,177899,1,0,0:0:0:0:
64,192,177899,1,0,0:0:0:0:
320,192,178092,1,0,0:0:0:0:
448,192,178286,1,0,0:0:0:0:
192,192,178286,1,0,0:0:0:0:
64,192,178479,1,0,0:0:0:0:
320,192,178673,1,0,0:0:0:0:
192,192,178673,1,0,0:0:0:0:
448,192,178866,1,0,0:0:0:0:
64,192,179060,1,0,0:0:0:0:
192,192,179157,1,0,0:0:0:0:
320,192,179253,1,0,0:0:0:0:
192,192,179350,1,0,0:0:0:0:
64,192,179447,1,0,0:0:0:0:
192,192,179544,1,0,0:0:0:0:
320,192,179640,1,0,0:0:0:0:
448,192,179737,1,0,0:0:0:0:
64,192,179834,1,0,0:0:0:0:
192,192,179834,1,0,0:0:0:0:
320,192,180028,1,0,0:0:0:0:
192,192,180221,1,0,0:0:0:0:
320,192,180415,1,0,0:0:0:0:
64,192,180608,1,0,0:0:0:0:
192,192,180608,1,0,0:0:0:0:
448,192,180802,1,0,0:0:0:0:
64,192,180995,1,0,0:0:0:0:
320,192,181189,1,0,0:0:0:0:
448,192,181382,1,0,0:0:0:0:
192,192,181382,1,0,0:0:0:0:
64,192,181576,1,0,0:0:0:0:
192,192,181769,1,0,0:0:0:0:
320,192,181769,1,0,0:0:0:0:
448,192,181963,1,0,0:0:0:0:
64,192,182157,1,0,0:0:0:0:
320,192,182350,1,0,0:0:0:0:
192,192,182544,1,0,0:0:0:0:
64,192,182544,1,0,0:0:0:0:
320,192,182737,1,0,0:0:0:0:
448,192,182931,1,0,0:0:0:0:
64,192,182931,1,0,0:0:0:0:
192,192,183124,1,0,0:0:0:0:
320,192,183318,1,0,0:0:0:0:
192,192,183511,1,0,0:0:0:0:
64,192,183705,1,0,0:0:0:0:
320,192,183705,1,0,0:0:0:0:
192,192,183899,1,0,0:0:0:0:
448,192,184092,1,0,0:0:0:0:
64,192,184286,1,0,0:0:0:0:
320,192,184286,1,0,0:0:0:0:
192,192,184673,1,0,0:0:0:0:
448,192,184673,1,0,0:0:0:0:
192,192,185060,1,0,0:0:0:0:
320,192,185060,1,0,0:0:0:0:
64,192,185447,1,0,0:0:0:0:
192,192,185447,1,0,0:0:0:0:
448,192,185640,1,0,0:0:0:0:
320,192,185737,1,0,0:0:0:0:
192,192,185834,1,0,0:0:0:0:
64,192,185931,1,0,0:0:0:0:
448,192,186028,1,0,0:0:0:0:
192,192,186028,1,0,0:0:0:0:
