osu file format v14

[General]
AudioFilename: audio.mp3
AudioLeadIn: 0
PreviewTime: 231766
Countdown: 0
SampleSet: Soft
StackLeniency: 0.7
Mode: 0
LetterboxInBreaks: 0
UseSkinSprites: 1
WidescreenStoryboard: 1

[Editor]
Bookmarks: 12774,22960,43331,48424,69750,89167,109538,129909,150281,170652,191024,211395,231766,262323,282695,303066,313252,323437,345280,354216,375919,396344,416770,437195,443578,452514,458685
DistanceSpacing: 1.4
BeatDivisor: 4
GridSize: 32
TimelineZoom: 1.7

[Metadata]
Title:kimi no hitomi ni / sayonara! (ED ver)
TitleUnicode:きみのひとみに。/ さよなら! (ED ver)
Artist:Numtack05
ArtistUnicode:Numtack05
Creator:Noffy
Version:always ~Intense Marathon~
Source:
Tags:Arphimigon プーチンP Putin-P PutinP Vocaloid series しうか shiuka In your Eyes Farewell! Goodbye! Russia Japan Shibuya Weed Sad emotional love song Vocaloid Part Four 4 Finale Kagamine Rin Len 鏡音レン 鏡音リン Hatsune Miku 初音ミク animated video real footage marathon
BeatmapID:1342786
BeatmapSetID:632589

[Difficulty]
HPDrainRate:5
CircleSize:4.8
OverallDifficulty:7
ApproachRate:8
SliderMultiplier:1.4
SliderTickRate:1

[Events]
//Background and Video events
0,0,"32321251_p8.jpg",0,0
Video,0,"why this.avi"
//Break Periods
2,43531,47674
2,323637,344530
//Storyboard Layer 0 (Background)
//Storyboard Layer 1 (Fail)
Sprite,Fail,Centre,"pause-retry.png",460,393 L,437833,4 S,6,0,1000,0.73,0.7 S,7,1000,2000,0.7,0.73 F,0,437833,438472,0,1 P,0,437833,444855,A F,0,443578,444855,1,0
Sprite,Fail,CentreRight,"sb\end_fail.jpg",300,400 F,0,437833,438472,0,1 P,0,437833,444855,A F,0,443578,444855,1,0 S,0,444855,,0.75
//Storyboard Layer 2 (Pass)
Sprite,Pass,Centre,"sb\end_pass.jpg",320,425 P,0,437195,444855,A F,0,437833,438472,0,1 F,0,443578,444855,1,0 S,0,444855,,0.75
//Storyboard Layer 3 (Foreground)
Sprite,Foreground,Centre,"sb\loading.jpg",320,400 F,2,323437,325984,0,1 P,0,323437,342727,A S,0,325984,,0.5 F,1,335068,342727,1,0
Sprite,Foreground,CentreLeft,"sb\loadingbar.jpg",212,425 F,2,323437,325984,0,1 V,0,325984,342727,0,0.5,0.5,0.5 F,1,335068,342727,1,0
Sprite,Foreground,Centre,"sb\loadingbar.jpg",320,240 F,0,454216,,0
//Storyboard Sound Samples

[TimingPoints]
2589,318.302387267905,4,2,1,85,1,0
13092,-100,4,2,1,45,0,0
13252,-100,4,2,1,85,0,0
21050,-100,4,2,1,45,0,0
21209,-100,4,2,1,85,0,0
22642,-100,4,2,1,65,0,0
22801,-100,4,2,1,85,0,0
40944,-100,4,2,1,45,0,0
41103,-100,4,2,1,65,0,0
41262,-100,4,2,1,45,0,0
41421,-100,4,2,1,85,0,0
41581,-100,4,2,1,45,0,0
41740,-100,4,2,1,65,0,0
41899,-100,4,2,1,45,0,0
42058,-100,4,2,1,85,0,0
42217,-100,4,2,1,45,0,0
42376,-100,4,2,1,65,0,0
42535,-100,4,2,1,45,0,0
42695,-100,4,2,1,85,0,0
42854,-100,4,2,1,45,0,0
43013,-100,4,2,1,65,0,0
43172,-100,4,2,1,45,0,0
43331,-100,4,2,1,85,0,0
48424,-111.111111111111,4,2,1,85,0,0
88689,-111.111111111111,4,2,1,45,0,0
88848,-111.111111111111,4,2,1,85,0,0
89008,-111.111111111111,4,2,1,45,0,0
89167,-100,4,2,1,85,0,0
104445,-80,4,2,1,85,0,0
106992,-66.6666666666667,4,2,1,85,0,0
109538,-111.111111111111,4,2,1,85,0,0
129432,-111.111111111111,4,2,1,45,0,0
129591,-111.111111111111,4,2,1,85,0,0
129750,-111.111111111111,4,2,1,45,0,0
129909,-100,4,2,1,85,0,0
145188,-80,4,2,1,85,0,0
147734,-66.6666666666667,4,2,1,85,0,0
149644,-200,4,2,1,85,0,0
150281,-76.9230769230769,4,2,1,85,0,1
154896,-76.9230769230769,4,2,1,65,0,1
155055,-76.9230769230769,4,2,1,85,0,1
159989,-76.9230769230769,4,2,1,65,0,1
160148,-76.9230769230769,4,2,1,85,0,1
170175,-76.9230769230769,4,2,1,65,0,1
170334,-76.9230769230769,4,2,1,85,0,1
172721,-76.9230769230769,4,2,1,65,0,1
172880,-76.9230769230769,4,2,1,85,0,1
180360,-76.9230769230769,4,2,1,65,0,1
180520,-76.9230769230769,4,2,1,85,0,1
180679,-76.9230769230769,4,2,1,65,0,1
180838,-76.9230769230769,4,2,1,85,0,1
190546,-76.9230769230769,4,2,1,65,0,1
190705,-76.9230769230769,4,2,1,85,0,1
190864,-76.9230769230769,4,2,1,65,0,1
191024,-76.9230769230769,4,2,0,85,0,0
191660,-76.9230769230769,4,2,0,75,0,0
192297,-76.9230769230769,4,2,0,66,0,0
192933,-76.9230769230769,4,2,0,58,0,0
193570,-76.9230769230769,4,2,0,51,0,0
194207,-76.9230769230769,4,2,0,45,0,0
194843,-76.9230769230769,4,2,0,40,0,0
195480,-76.9230769230769,4,2,0,36,0,0
196116,-76.9230769230769,4,2,0,85,0,0
196753,-76.9230769230769,4,2,0,75,0,0
197390,-76.9230769230769,4,2,0,66,0,0
198026,-76.9230769230769,4,2,0,58,0,0
198663,-76.9230769230769,4,2,0,51,0,0
199299,-76.9230769230769,4,2,0,45,0,0
199936,-76.9230769230769,4,2,0,40,0,0
200573,-76.9230769230769,4,2,0,36,0,0
201209,-76.9230769230769,4,2,0,85,0,0
201846,-76.9230769230769,4,2,0,75,0,0
202482,-76.9230769230769,4,2,0,66,0,0
203119,-76.9230769230769,4,2,0,58,0,0
203756,-76.9230769230769,4,2,0,51,0,0
204392,-76.9230769230769,4,2,0,45,0,0
205029,-76.9230769230769,4,2,0,40,0,0
205665,-76.9230769230769,4,2,0,36,0,0
206302,-76.9230769230769,4,2,0,85,0,0
206939,-76.9230769230769,4,2,0,75,0,0
207575,-76.9230769230769,4,2,0,66,0,0
208212,-76.9230769230769,4,2,0,58,0,0
208848,-76.9230769230769,4,2,0,51,0,0
209485,-76.9230769230769,4,2,0,45,0,0
210122,-76.9230769230769,4,2,0,40,0,0
210758,-76.9230769230769,4,2,0,36,0,0
211395,-133.333333333333,4,2,5,85,0,0
231130,-100,4,2,1,85,0,0
231289,-100,4,2,1,65,0,0
231448,-100,4,2,1,85,0,0
231607,-100,4,2,1,65,0,0
231766,-100,4,2,5,85,0,0
240997,-100,4,2,1,85,0,0
241156,-100,4,2,1,65,0,0
241474,-100,4,2,1,85,0,0
241634,-100,4,2,1,65,0,0
241952,-90.9090909090909,4,2,5,85,0,0
249591,-83.3333333333333,4,2,5,85,0,0
258610,-83.3333333333333,4,2,1,85,0,0
261687,-200,4,2,1,85,0,0
262323,-76.9230769230769,4,2,1,85,0,1
266939,-76.9230769230769,4,2,1,65,0,1
267098,-76.9230769230769,4,2,1,85,0,1
272031,-76.9230769230769,4,2,1,65,0,1
272191,-76.9230769230769,4,2,1,85,0,1
282217,-76.9230769230769,4,2,1,65,0,1
282376,-76.9230769230769,4,2,1,85,0,1
284764,-76.9230769230769,4,2,1,65,0,1
284923,-76.9230769230769,4,2,1,85,0,1
290175,-76.9230769230769,4,2,1,65,0,1
290334,-76.9230769230769,4,2,1,85,0,1
292403,-76.9230769230769,4,2,1,65,0,1
292562,-76.9230769230769,4,2,1,85,0,1
292721,-76.9230769230769,4,2,1,65,0,1
292880,-76.9230769230769,4,2,1,85,0,1
302589,-76.9230769230769,4,2,1,65,0,1
302748,-76.9230769230769,4,2,1,85,0,1
302907,-76.9230769230769,4,2,1,65,0,1
303066,-83.3333333333333,4,2,1,85,0,0
307045,-83.3333333333333,4,2,1,65,0,0
307204,-83.3333333333333,4,2,1,85,0,0
307681,-83.3333333333333,4,2,1,65,0,0
307840,-83.3333333333333,4,2,1,85,0,0
308000,-83.3333333333333,4,2,1,65,0,0
308159,-83.3333333333333,4,2,1,85,0,0
313252,-90.9090909090909,4,2,1,85,0,0
317867,-90.9090909090909,4,2,1,65,0,0
318026,-90.9090909090909,4,2,1,85,0,0
321846,-100,4,2,1,85,0,0
322801,-100,4,2,1,60,0,0
323437,-100,4,2,1,35,0,0
335068,425.531914893617,3,2,10,85,1,0
345280,-133.333333333333,3,2,10,20,0,0
347833,-133.333333333333,3,2,10,25,0,0
350387,-133.333333333333,3,2,10,30,0,0
352940,-133.333333333333,3,2,10,35,0,0
355493,-100,3,2,10,35,0,0
360174,-100,3,2,0,35,0,0
360599,-100,3,2,10,35,0,0
365068,-100,3,2,0,35,0,0
365706,-100,3,2,10,45,0,0
366344,-100,3,2,1,45,0,0
366557,-100,3,2,10,45,0,0
367195,-100,3,2,1,45,0,0
367408,-100,3,2,10,45,0,0
367621,-100,3,2,1,45,0,0
368259,-100,3,2,10,45,0,0
368897,-100,3,2,1,45,0,0
369110,-100,3,2,10,45,0,0
369855,-100,3,2,1,45,0,0
369961,-100,3,2,10,45,0,0
370387,-100,3,2,0,45,0,0
370812,-100,3,2,10,45,0,0
371450,-100,3,2,1,45,0,0
371663,-100,3,2,10,45,0,0
372302,-100,3,2,1,45,0,0
372514,-100,3,2,10,45,0,0
372727,-100,3,2,1,45,0,0
372940,-100,3,2,10,45,0,0
373153,-100,3,2,1,45,0,0
373365,-100,3,2,10,45,0,0
374004,-100,3,2,1,45,0,0
374216,-100,3,2,10,45,0,0
375174,-50,3,2,0,45,0,0
375919,-80,3,2,10,85,0,1
395280,-80,3,2,1,85,0,1
396344,-66.6666666666667,3,2,1,85,0,1
416770,-80,3,2,1,85,0,0
432089,-80,3,2,1,70,0,0
432727,-80,3,2,1,70,0,0
434642,-80,3,2,1,55,0,0
434855,-80,3,2,1,55,0,0
437195,-80,3,2,1,40,0,0

[Colours]
Combo1 : 127,127,127
Combo2 : 250,241,133
Combo3 : 113,183,89
Combo4 : 218,48,48

[HitObjects]
41,137,2588,5,4,0:3:0:0:
90,328,2907,1,2,0:0:0:0:
23,258,3066,1,0,0:0:0:0:
118,234,3225,1,2,0:0:0:0:
247,87,3543,1,2,0:0:0:0:
195,171,3703,1,2,0:0:0:0:
474,82,4180,2,0,P|480:169|464:240,1,140,2|0,0:0|0:0,0:0:0:0:
103,360,5135,5,2,0:0:0:0:
249,228,5454,1,2,0:0:0:0:
153,204,5613,1,0,0:0:0:0:
58,179,5772,1,2,0:0:0:0:
158,11,6090,1,2,0:0:0:0:
155,108,6249,1,2,0:0:0:0:
431,31,6726,1,2,0:0:0:0:
334,202,7045,2,0,P|328:132|349:65,1,140,2|0,0:0|0:0,0:0:0:0:
401,254,7681,5,4,0:3:0:0:
465,71,8000,1,2,0:0:0:0:
433,163,8159,1,0,0:0:0:0:
494,239,8318,1,2,0:0:0:0:
305,291,8636,1,2,0:0:0:0:
321,193,8796,1,2,0:0:0:0:
47,85,9273,2,0,P|46:174|83:210,1,140,2|0,0:0|0:0,0:0:0:0:
450,332,10228,5,2,0:0:0:0:
274,243,10547,1,2,0:0:0:0:
186,286,10706,1,0,0:0:0:0:
97,328,10865,1,2,0:0:0:0:
15,149,11183,1,2,0:0:0:0:
104,107,11343,1,0,0:0:0:0:
225,373,11819,1,2,0:0:0:0:
410,236,12138,2,0,P|450:181|440:113,1,140,8|0,0:0|0:0,0:0:0:0:
257,41,12774,5,4,0:3:0:0:
451,16,13093,1,8,0:0:0:0:
364,62,13252,1,0,0:0:0:0:
307,141,13411,2,0,P|294:171|290:233,1,70,0|8,0:0|0:3,0:0:0:0:
316,301,13729,1,0,0:0:0:0:
218,309,13888,6,0,P|150:309|63:268,1,140,8|0,0:0|0:0,0:0:0:0:
161,222,14366,2,0,P|90:195|5:202,2,140,8|8|0,0:3|0:0|0:0,0:0:0:0:
253,254,15161,1,8,0:3:0:0:
264,220,15241,1,8,0:3:0:0:
274,186,15321,6,0,P|254:143|260:97,1,70,8|0,3:3|0:0,3:0:0:0:
339,73,15639,2,0,P|374:78|408:72,1,70,8|0,0:0|0:0,0:0:0:0:
484,9,15958,1,0,0:0:0:0:
440,200,16276,1,0,0:0:0:0:
418,295,16435,1,8,0:0:0:0:
237,369,16753,5,0,0:0:0:0:
259,274,16913,1,8,0:3:0:0:
360,126,17231,2,0,P|302:96|210:113,1,140,8|0,0:0|0:0,0:0:0:0:
164,175,17708,1,8,0:3:0:0:
151,206,17787,1,8,0:3:0:0:
155,240,17867,5,8,0:3:0:0:
336,310,18185,2,0,L|264:305,1,70,8|0,0:0|0:0,0:0:0:0:
188,366,18504,1,8,0:3:0:0:
90,361,18663,2,0,P|69:327|67:276,1,70,8|0,0:0|0:0,0:0:0:0:
69,200,18981,6,0,P|103:115|97:36,1,140,8|0,0:3|0:0,0:0:0:0:
190,113,19459,2,0,P|262:119|346:93,2,140,8|8|0,0:3|0:0|0:0,0:0:0:0:
193,15,20254,1,8,0:3:0:0:
227,6,20334,1,8,0:3:0:0:
261,2,20414,6,0,P|303:5|345:21,1,70,8|0,0:3|0:0,0:0:0:0:
414,64,20732,2,0,P|426:91|458:122,1,70,8|0,0:0|0:0,0:0:0:0:
471,216,21051,1,8,0:0:0:0:
356,374,21368,1,0,0:0:0:0:
411,293,21527,1,8,0:0:0:0:
338,226,21687,5,8,0:3:0:0:
306,211,21766,1,8,0:3:0:0:
270,207,21846,1,8,0:3:0:0:
173,225,22005,1,8,0:0:0:0:
248,44,22323,1,8,0:3:0:0:
209,133,22482,1,8,0:0:0:0:
111,121,22642,1,8,0:0:0:0:
13,110,22801,1,8,0:0:0:0:
19,211,22960,6,0,B|104:205|125:212|166:245,1,140,4|8,0:3|0:0,0:0:0:0:
214,311,23437,2,0,B|253:336|261:339|369:321,1,140,2|8,0:0|0:3,0:0:0:0:
426,264,23915,2,0,B|387:237|380:234|271:248,1,140,10|0,0:0|0:0,0:0:0:0:
214,311,24392,1,8,0:3:0:0:
150,236,24551,1,8,0:0:0:0:
318,134,24870,1,8,0:3:0:0:
125,96,25188,1,8,0:0:0:0:
308,27,25506,6,0,B|402:34|416:39|443:78,1,140,2|8,0:0|0:0,0:0:0:0:
362,133,25983,2,0,P|327:183|343:275,1,140,2|8,0:0|0:3,0:0:0:0:
395,338,26461,2,0,B|370:362|355:365|260:353,1,140,10|0,0:0|0:0,0:0:0:0:
191,284,26938,1,8,0:3:0:0:
116,347,27097,1,8,0:0:0:0:
45,163,27416,1,8,0:0:0:0:
1,354,27734,1,8,0:0:0:0:
161,241,28053,6,0,P|204:187|196:107,1,140,2|8,0:0|0:0,0:0:0:0:
143,40,28531,2,0,P|192:86|260:88,1,140,2|8,0:0|0:3,0:0:0:0:
329,17,29008,2,0,P|296:77|319:154,1,140,10|0,0:0|0:0,0:0:0:0:
397,98,29485,1,8,0:3:0:0:
399,195,29644,1,8,0:0:0:0:
510,356,29963,1,8,0:3:0:0:
496,160,30281,1,8,0:0:0:0:
307,106,30599,6,0,B|276:98|259:114|238:114|238:114|217:114|200:98|169:106,1,140,2|8,0:0|0:0,0:0:0:0:
182,202,31076,2,0,B|163:295|164:310|186:336,1,140,2|8,0:0|0:3,0:0:0:0:
285,334,31554,2,0,B|307:307|308:292|289:199,1,140,10|0,0:0|0:0,0:0:0:0:
238,114,32031,1,8,0:3:0:0:
182,202,32190,1,8,0:0:0:0:
79,369,32509,1,8,0:0:0:0:
44,177,32827,1,8,0:0:0:0:
223,98,33146,6,0,P|300:119|379:84,1,140,4|8,0:3|0:0,0:0:0:0:
411,182,33623,2,0,P|411:78|440:24,1,140,2|8,0:0|0:3,0:0:0:0:
496,113,34100,1,8,0:0:0:0:
491,211,34260,1,2,0:0:0:0:
308,140,34578,1,8,0:3:0:0:
298,237,34737,1,10,0:0:0:0:
139,353,35056,1,8,0:3:0:0:
42,182,35374,1,8,0:0:0:0:
231,132,35692,6,0,P|317:138|358:181,1,140,2|8,0:0|0:0,0:0:0:0:
449,193,36169,2,0,P|446:252|387:330,1,140,2|8,0:0|0:3,0:0:0:0:
315,362,36646,1,8,0:0:0:0:
263,278,36806,1,2,0:0:0:0:
310,88,37124,1,8,0:3:0:0:
260,172,37283,1,10,0:0:0:0:
83,85,37602,1,8,0:0:0:0:
262,7,37920,1,8,0:0:0:0:
160,174,38238,6,0,P|104:215|37:191,1,140,2|8,0:0|0:0,0:0:0:0:
88,112,38715,2,0,L|115:249,1,140,2|8,0:0|0:3,0:0:0:0:
57,328,39192,1,8,0:0:0:0:
142,376,39352,1,2,0:0:0:0:
332,328,39670,1,8,0:3:0:0:
247,280,39829,1,10,0:0:0:0:
75,183,40148,1,8,0:0:0:0:
235,70,40466,1,8,0:0:0:0:
325,245,40785,5,8,0:0:0:0:
379,234,40944,1,8,0:0:0:0:
433,221,41103,1,8,0:0:0:0:
485,201,41262,1,8,0:0:0:0:
475,145,41421,5,8,0:0:0:0:
418,139,41581,1,8,0:0:0:0:
380,97,41740,1,8,0:0:0:0:
367,42,41899,1,8,0:0:0:0:
304,72,42058,6,0,P|268:82|221:70,1,70,8|8,0:0|0:0,0:0:0:0:
173,46,42376,1,8,0:0:0:0:
148,96,42535,1,8,0:0:0:0:
124,146,42695,1,8,0:0:0:0:
99,196,42854,5,8,0:0:0:0:
53,163,43013,1,8,0:0:0:0:
39,108,43172,1,8,0:0:0:0:
52,53,43331,1,4,0:3:0:0:
159,189,48424,38,0,B|195:149|187:104|187:104|223:91,1,125.999996154785,12|0,0:3|0:0,0:0:0:0:
390,45,49061,1,8,0:0:0:0:
357,219,49379,1,0,0:0:0:0:
297,53,49697,1,8,0:3:0:0:
471,78,50016,2,0,P|475:165|442:219,1,125.999996154785,8|8,0:3|0:0,0:0:0:0:
340,328,50652,1,0,0:0:0:0:
346,152,50970,6,0,P|405:161|460:200,1,125.999996154785,8|0,0:3|0:0,0:0:0:0:
340,328,51607,1,8,0:0:0:0:
208,212,51925,2,0,P|187:150|201:76,1,125.999996154785,0|8,0:0|0:3,0:0:0:0:
20,121,52562,2,0,P|41:178|31:256,1,125.999996154785,8|8,0:3|0:0,0:0:0:0:
192,323,53199,2,0,P|254:292|336:295,1,125.999996154785,0|8,0:0|0:3,0:0:0:0:
396,302,53676,1,0,0:0:0:0:
388,214,53835,2,0,P|315:197|249:200,1,125.999996154785,0|8,0:0|0:0,0:0:0:0:
89,221,54472,5,0,0:0:0:0:
110,46,54790,1,8,0:3:0:0:
89,221,55108,1,8,0:3:0:0:
165,380,55427,1,8,0:0:0:0:
324,301,55745,2,0,P|394:280|509:301,1,188.999994232178
428,342,56382,2,0,P|418:259|439:210,1,125.999996154785,0|8,0:0|0:0,0:0:0:0:
307,93,57018,6,0,P|237:114|122:93,1,188.999994232178
203,52,57655,2,0,P|215:113|198:173,1,125.999996154785,8|8,0:3|0:0,0:0:0:0:
107,324,58291,1,0,0:0:0:0:
74,150,58610,6,0,B|110:190|102:235|102:235|138:248,1,125.999996154785,12|0,0:3|0:0,0:0:0:0:
300,304,59247,1,8,0:0:0:0:
466,363,59565,1,0,0:0:0:0:
426,191,59883,2,0,P|425:131|453:65,1,125.999996154785,8|8,0:3|0:3,0:0:0:0:
278,22,60520,1,8,0:0:0:0:
151,146,60838,6,0,P|222:134|289:153,1,125.999996154785,0|8,0:0|0:3,0:0:0:0:
389,278,61474,1,0,0:0:0:0:
215,313,61793,1,8,0:0:0:0:
273,145,62111,2,0,P|334:132|395:147,1,125.999996154785,0|8,0:0|0:3,0:0:0:0:
501,287,62748,1,8,0:3:0:0:
328,250,63066,2,0,B|274:375,1,125.999996154785,8|0,0:0|0:0,0:0:0:0:
101,365,63703,6,0,L|44:242,1,125.999996154785,8|0,0:3|0:0,0:0:0:0:
57,74,64339,1,8,0:0:0:0:
171,208,64658,1,0,0:0:0:0:
200,34,64976,1,8,0:3:0:0:
302,177,65294,1,8,0:3:0:0:
302,177,65453,2,0,L|336:253,1,62.9999980773926,0|8,0:0|0:0,0:0:0:0:
493,191,65931,1,0,0:0:0:0:
383,52,66249,6,0,P|436:64|485:123,1,125.999996154785,8|0,0:3|0:0,0:0:0:0:
353,237,66886,2,0,P|403:193|404:129,1,125.999996154785,8|0,0:0|0:0,0:0:0:0:
383,52,67363,1,0,0:0:0:0:
303,15,67522,1,8,0:3:0:0:
132,58,67840,1,8,0:3:0:0:
250,189,68159,1,8,0:0:0:0:
213,17,68477,1,0,0:0:0:0:
113,162,68795,6,0,B|88:200|35:212|35:212|71:258,1,125.999996154785,12|0,0:3|0:0,0:0:0:0:
175,367,69432,1,8,0:0:0:0:
249,214,69750,1,0,0:0:0:0:
326,55,70068,1,8,0:3:0:0:
339,231,70387,2,0,P|285:298|238:314,1,125.999996154785,8|8,0:3|0:0,0:0:0:0:
182,149,71024,1,0,0:0:0:0:
339,231,71341,6,0,P|406:223|458:185,1,125.999996154785,8|0,0:3|0:0,0:0:0:0:
353,55,71978,1,8,0:0:0:0:
339,231,72296,2,0,P|273:209|233:165,1,125.999996154785,0|8,0:0|0:3,0:0:0:0:
91,65,72933,2,0,L|57:190,1,125.999996154785,8|8,0:3|0:0,0:0:0:0:
164,327,73570,2,0,L|197:205,1,125.999996154785,0|8,0:0|0:3,0:0:0:0:
224,121,74047,1,0,0:0:0:0:
267,43,74207,2,0,P|214:30|146:80,1,125.999996154785,0|8,0:0|0:0,0:0:0:0:
70,218,74843,5,0,0:0:0:0:
154,64,75161,1,8,0:3:0:0:
227,224,75480,2,0,P|288:235|349:220,1,125.999996154785,8|8,0:3|0:0,0:0:0:0:
512,173,76116,1,0,0:0:0:0:
352,98,76435,2,0,P|336:158|348:220,1,125.999996154785,8|0,0:3|0:0,0:0:0:0:
512,173,77071,1,8,0:0:0:0:
426,326,77389,6,0,P|342:350|243:329,1,188.999994232178
213,246,78026,2,0,P|203:307|167:358,1,125.999996154785,8|8,0:3|0:0,0:0:0:0:
37,237,78663,6,0,P|22:184|30:130,1,94.499997116089
27,116,78981,2,0,P|47:85|54:56,1,62.9999980773926,12|0,0:3|0:0,0:0:0:0:
141,70,79300,2,0,P|153:153|138:203,1,125.999996154785,0|8,0:0|0:0,0:0:0:0:
305,262,79936,1,0,0:0:0:0:
445,155,80254,2,0,P|449:242|416:296,1,125.999996154785,8|8,0:3|0:3,0:0:0:0:
316,377,80891,1,8,0:0:0:0:
292,202,81209,2,0,P|277:161|254:131,1,62.9999980773926
195,92,81527,6,0,P|131:79|59:100,1,125.999996154785,8|0,0:3|0:0,0:0:0:0:
136,254,82164,1,8,0:0:0:0:
306,210,82482,1,0,0:0:0:0:
478,168,82801,1,8,0:3:0:0:
306,210,83119,1,8,0:3:0:0:
478,168,83437,1,8,0:0:0:0:
306,210,83756,1,0,0:0:0:0:
164,105,84074,6,0,P|233:121|302:103,1,125.999996154785,8|0,0:3|0:0,0:0:0:0:
444,34,84710,1,8,0:0:0:0:
357,188,85029,1,0,0:0:0:0:
414,354,85347,1,8,0:3:0:0:
502,201,85665,1,8,0:3:0:0:
444,34,85984,1,8,0:0:0:0:
429,209,86302,1,0,0:0:0:0:
352,369,86620,5,12,0:3:0:0:
245,228,86939,2,0,P|317:218|366:177,1,125.999996154785,0|8,0:0|0:0,0:0:0:0:
460,38,87575,1,0,0:0:0:0:
410,47,87734,1,8,0:0:0:0:
361,58,87893,1,8,0:3:0:0:
190,98,88211,1,8,0:3:0:0:
14,66,88530,5,8,0:0:0:0:
8,116,88689,1,8,0:0:0:0:
35,158,88848,1,8,0:0:0:0:
85,160,89008,1,8,0:0:0:0:
64,256,89167,6,0,B|103:294|139:225|220:251,1,140,12|0,0:3|0:0,0:0:0:0:
299,78,89803,1,8,0:0:0:0:
411,238,90122,1,0,0:0:0:0:
347,312,90281,2,0,P|322:281|314:234,1,70,0|8,0:0|0:3,0:0:0:0:
349,161,90599,1,2,0:0:0:0:
170,242,90917,1,2,0:0:0:0:
203,48,91236,1,2,0:0:0:0:
481,142,91713,5,8,0:3:0:0:
388,314,92031,1,0,0:0:0:0:
379,215,92191,2,0,P|350:222|308:262,1,70,0|8,0:0|0:0,0:0:0:0:
262,326,92509,1,0,0:0:0:0:
262,326,92668,1,0,0:0:0:0:
219,237,92827,2,0,L|185:165,1,70,0|8,0:0|0:0,0:0:0:0:
91,189,93146,2,0,L|78:258,1,70,0|8,0:0|0:3,0:0:0:0:
4,321,93463,2,0,P|30:343|64:353,1,70,0|8,0:0|0:0,0:0:0:0:
162,350,93782,1,0,0:0:0:0:
22,77,94260,6,0,B|61:115|97:46|178:72,1,140,8|0,0:3|0:0,0:0:0:0:
155,262,94896,1,8,0:0:0:0:
310,142,95215,1,0,0:0:0:0:
351,230,95374,2,0,P|384:240|410:263,1,70,0|8,0:0|0:3,0:0:0:0:
339,329,95692,1,2,0:0:0:0:
155,262,96010,1,2,0:0:0:0:
197,70,96329,1,2,0:0:0:0:
478,155,96806,5,8,0:3:0:0:
336,289,97124,1,0,0:0:0:0:
295,96,97443,1,8,0:0:0:0:
424,242,97761,1,0,0:0:0:0:
295,96,98079,1,8,0:3:0:0:
424,242,98398,1,8,0:3:0:0:
263,335,98716,2,0,P|246:256|262:174,1,140,8|0,0:0|0:0,0:0:0:0:
436,121,99352,6,0,B|398:94|362:154|281:102,1,140,12|0,0:3|0:0,0:0:0:0:
381,291,99989,1,8,0:0:0:0:
200,366,100307,1,0,0:0:0:0:
19,287,100626,2,0,P|13:242|20:199,1,70,8|0,0:3|0:0,0:0:0:0:
94,159,100944,2,0,P|170:158|231:130,1,140,8|8,0:3|0:0,0:0:0:0:
394,28,101581,1,0,0:0:0:0:
405,222,101898,5,8,0:3:0:0:
256,355,102217,1,0,0:0:0:0:
165,318,102376,2,0,P|122:327|19:284,1,140,2|2,0:0|0:0,0:0:0:0:
13,201,102853,1,0,0:0:0:0:
207,228,103172,1,8,0:3:0:0:
252,37,103490,1,8,0:3:0:0:
432,116,103809,2,0,P|414:199|360:192,1,140,8|0,0:0|0:0,0:0:0:0:
131,171,104445,6,0,B|153:221|241:148|317:185,1,175,12|0,0:3|0:0,0:0:0:0:
505,307,105082,1,8,0:0:0:0:
440,70,105400,1,0,0:0:0:0:
377,306,105718,1,0,0:0:0:0:
190,146,106037,2,0,P|138:203|204:242,1,175,8|8,0:3|0:0,0:0:0:0:
334,34,106673,1,0,0:0:0:0:
418,317,106992,6,0,L|430:82,1,210.000008010865,12|0,0:3|0:0,0:0:0:0:
307,189,107469,1,8,0:0:0:0:
266,47,107628,1,12,0:3:0:0:
27,220,107947,1,8,0:0:0:0:
302,113,108265,2,0,P|351:120|402:173,1,105.000004005432,4|0,0:3|0:0,0:0:0:0:
342,284,108583,2,0,P|281:291|320:190,1,210.000008010865,8|12,0:1|0:3,0:0:0:0:
434,37,109538,6,0,P|438:88|392:165,1,125.999996154785,12|0,0:3|0:0,0:0:0:0:
267,43,110175,1,8,0:0:0:0:
161,184,110493,1,0,0:0:0:0:
317,102,110811,1,8,0:3:0:0:
485,156,111130,2,0,L|482:286,1,125.999996154785,8|8,0:3|0:0,0:0:0:0:
328,195,111766,2,0,L|328:339,1,125.999996154785,0|8,0:0|0:3,0:0:0:0:
174,233,112403,6,0,B|188:381,1,125.999996154785,0|8,0:0|0:0,0:0:0:0:
235,148,113039,1,0,0:0:0:0:
70,82,113358,1,8,0:3:0:0:
53,257,113676,2,0,P|120:278|172:249,1,125.999996154785,8|8,0:3|0:0,0:0:0:0:
329,324,114313,2,0,P|266:315|229:264,1,125.999996154785,0|8,0:0|3:3,3:0:0:0:
217,182,114790,1,0,0:0:0:0:
283,124,114950,2,0,P|237:93|156:117,1,125.999996154785,0|8,0:0|0:0,0:0:0:0:
108,269,115586,5,0,0:0:0:0:
242,383,115904,1,8,0:3:0:0:
108,269,116222,2,0,L|16:168,1,125.999996154785,8|8,0:3|0:0,0:0:0:0:
196,206,116859,2,0,L|125:64,1,125.999996154785,0|8,0:0|0:3,0:0:0:0:
300,167,117496,2,0,L|273:27,1,125.999996154785,0|8,0:0|0:0,0:0:0:0:
430,107,118132,5,0,0:0:0:0:
433,283,118451,1,8,0:3:0:0:
499,108,118769,1,8,0:3:0:0:
305,136,119087,1,8,0:0:0:0:
494,185,119405,1,0,0:0:0:0:
337,269,119724,6,0,P|257:280|209:264,1,125.999996154785,12|0,0:3|0:0,0:0:0:0:
58,188,120360,1,8,0:0:0:0:
69,364,120679,1,0,0:0:0:0:
215,267,120997,2,0,P|222:198|199:128,1,125.999996154785,8|8,0:3|0:3,0:0:0:0:
96,6,121634,1,8,0:0:0:0:
206,144,121952,2,0,P|223:117|246:96,1,62.9999980773926
330,67,122270,6,0,P|399:77|449:120,1,125.999996154785,8|0,0:3|0:0,0:0:0:0:
476,283,122907,1,8,0:0:0:0:
311,346,123225,1,0,0:0:0:0:
363,176,123544,1,8,0:3:0:0:
311,346,123861,1,8,0:3:0:0:
363,176,124180,1,8,0:0:0:0:
311,346,124498,1,0,0:0:0:0:
140,298,124817,6,0,P|81:174|145:77,1,251.999992309571,8|8,0:3|0:0,0:0:0:0:
296,15,125772,1,0,0:0:0:0:
367,176,126090,1,8,0:3:0:0:
296,15,126408,1,8,0:3:0:0:
367,176,126726,2,0,P|295:197|227:181,1,125.999996154785,8|0,0:0|0:0,0:0:0:0:
75,144,127363,5,4,0:3:0:0:
80,320,127681,1,0,0:0:0:0:
164,164,128000,1,8,0:0:0:0:
7,88,128318,1,0,0:0:0:0:
49,123,128477,1,8,0:0:0:0:
104,123,128636,1,8,0:3:0:0:
260,204,128954,1,8,0:3:0:0:
337,45,129273,5,8,0:0:0:0:
377,83,129432,1,8,0:0:0:0:
417,121,129591,1,8,0:0:0:0:
459,158,129751,1,8,0:0:0:0:
448,256,129910,6,0,B|409:294|373:225|292:251,1,140,12|0,0:3|0:0,0:0:0:0:
223,72,130546,1,8,0:0:0:0:
211,267,130864,1,0,0:0:0:0:
146,341,131024,2,0,P|121:310|113:263,1,70,0|8,0:0|0:3,0:0:0:0:
120,183,131342,2,0,P|145:152|153:105,1,70,0|8,0:0|0:3,0:0:0:0:
55,110,131660,2,0,P|30:79|22:32,1,70,0|8,0:0|0:0,0:0:0:0:
215,14,132138,1,0,0:0:0:0:
405,59,132456,5,8,0:3:0:0:
386,253,132774,1,0,0:0:0:0:
349,161,132934,2,0,P|319:135|270:121,1,70,0|8,0:0|0:0,0:0:0:0:
96,99,133411,2,0,P|122:124|168:137,1,70,0|0,0:0|0:0,0:0:0:0:
210,215,133729,2,0,L|180:293,1,70,8|0,0:0|0:0,0:0:0:0:
105,337,134047,2,0,P|129:361|162:373,1,70,8|0,0:3|0:0,0:0:0:0:
254,338,134366,2,0,L|328:212,1,140,8|0,0:0|0:0,0:0:0:0:
467,82,135003,6,0,B|428:120|392:51|311:77,1,140,8|0,0:3|0:0,0:0:0:0:
150,140,135639,1,8,0:0:0:0:
343,170,135957,2,0,P|332:210|303:243,1,70
259,313,136276,2,0,P|234:282|226:235,1,70,8|0,0:3|0:0,0:0:0:0:
226,155,136594,1,8,0:3:0:0:
215,57,136753,2,0,P|181:67|155:90,1,70,0|8,0:0|0:0,0:0:0:0:
90,274,137230,1,0,0:0:0:0:
272,346,137549,5,8,0:3:0:0:
350,166,137867,1,0,0:0:0:0:
423,100,138026,2,0,P|457:94|497:106,1,70,0|8,0:0|0:0,0:0:0:0:
457,296,138504,1,0,0:0:0:0:
267,338,138822,1,8,0:3:0:0:
76,292,139140,2,0,P|18:205|70:47,1,280,8|0,0:3|0:0,0:0:0:0:
221,171,140095,6,0,B|259:144|295:204|376:152,1,140,12|0,0:3|0:0,0:0:0:0:
508,38,140732,1,8,0:0:0:0:
473,230,141050,2,0,P|443:258|405:271,1,70
320,284,141368,2,0,L|294:199,1,70,8|0,0:3|0:0,0:0:0:0:
272,122,141687,1,8,0:3:0:0:
175,135,141846,2,0,P|131:158|116:175,1,70,0|8,0:0|0:0,0:0:0:0:
228,335,142323,1,0,0:0:0:0:
406,246,142641,5,8,0:3:0:0:
445,53,142960,1,0,0:0:0:0:
498,126,143119,2,0,P|466:141|432:142,1,70,0|8,0:0|0:0,0:0:0:0:
250,70,143596,1,0,0:0:0:0:
272,265,143915,1,8,0:3:0:0:
157,106,144233,1,8,0:3:0:0:
352,93,144551,1,8,0:0:0:0:
157,106,144870,1,0,0:0:0:0:
119,284,145188,6,0,B|141:334|229:261|305:298,1,175,12|0,0:3|0:0,0:0:0:0:
160,79,145825,1,8,0:0:0:0:
390,162,146143,1,0,0:0:0:0:
120,221,146461,2,0,P|96:290|169:278,1,175,8|8,0:3|0:3,0:0:0:0:
342,105,147098,2,0,P|414:93|391:162,1,175,8|0,0:0|0:0,0:0:0:0:
151,323,147734,6,0,L|210:122,1,210.000008010865,12|0,0:3|0:0,0:0:0:0:
257,239,148212,1,8,0:0:0:0:
302,122,148371,2,0,L|360:324,1,210.000008010865,12|8,0:3|0:0,0:0:0:0:
210,121,149008,2,0,P|256:47|302:122,1,210.000008010865,12|0,0:3|0:0,0:0:0:0:
149,233,149644,6,0,P|181:249|215:252,1,70
215,252,150281,6,0,P|256:317|296:252,1,181.999991668702,4|0,0:3|0:0,0:0:0:0:
41,249,150917,2,0,P|54:191|76:158,1,90.9999958343508,8|0,0:0|0:0,0:0:0:0:
154,67,151236,1,8,0:0:0:0:
279,43,151395,6,0,L|391:47,1,90.9999958343508,8|8,0:3|0:3,0:0:0:0:
494,21,151713,1,8,0:0:0:0:
470,146,151872,2,0,L|379:142,1,90.9999958343508,8|0,0:1|0:0,0:0:0:0:
256,141,152191,1,8,0:0:0:0:
256,141,152509,1,2,0:0:0:0:
105,346,152827,6,0,P|114:265|58:297,1,181.999991668702,8|0,0:3|0:0,0:0:0:0:
102,43,153463,2,0,P|89:86|97:130,1,90.9999958343508,8|0,0:0|0:0,0:0:0:0:
192,220,153782,1,8,0:0:0:0:
335,171,153941,6,0,L|359:83,1,90.9999958343508,8|8,0:3|0:3,0:0:0:0:
253,11,154260,1,8,0:0:0:0:
216,132,154419,2,0,L|192:219,1,90.9999958343508,8|0,0:1|0:0,0:0:0:0:
247,334,154737,1,8,0:0:0:0:
373,319,154896,1,8,0:0:0:0:
458,224,155055,1,2,0:0:0:0:
306,18,155374,6,0,P|328:88|314:203,1,181.999991668702,4|0,0:3|0:0,0:0:0:0:
126,363,156010,2,0,L|146:271,1,90.9999958343508,8|0,0:0|0:0,0:0:0:0:
117,149,156329,1,8,0:0:0:0:
129,22,156488,6,0,P|175:32|209:64,1,90.9999958343508,8|8,0:3|0:3,0:0:0:0:
250,180,156806,1,8,0:0:0:0:
368,225,156965,2,0,L|384:126,1,90.9999958343508,8|0,0:1|0:0,0:0:0:0:
372,7,157284,1,8,0:0:0:0:
485,65,157443,1,8,0:1:0:0:
475,191,157602,2,0,L|460:293,1,90.9999958343508,2|0,0:0|0:0,0:0:0:0:
339,316,157920,6,0,P|264:338|305:272,1,181.999991668702,8|0,0:3|0:0,0:0:0:0:
273,17,158557,2,0,P|281:67|267:116,1,90.9999958343508,8|0,0:0|0:0,0:0:0:0:
152,61,158875,2,0,P|84:29|96:103,1,181.999991668702,8|8,0:0|0:3,0:0:0:0:
138,221,159352,5,8,0:0:0:0:
253,275,159512,2,0,L|378:298,1,90.9999958343508,8|0,0:1|0:0,0:0:0:0:
467,317,159830,1,8,0:0:0:0:
414,201,159989,1,8,0:0:0:0:
288,179,160148,1,2,0:0:0:0:
36,215,160466,6,0,P|120:251|210:233,1,181.999991668702,4|0,0:3|0:0,0:0:0:0:
374,42,161103,2,0,P|354:95|317:137,1,90.9999958343508,8|0,0:0|0:0,0:0:0:0:
208,96,161421,1,8,0:0:0:0:
86,142,161581,6,0,P|53:173|36:215,1,90.9999958343508,8|8,0:1|0:3,0:0:0:0:
68,338,161899,1,8,0:0:0:0:
157,247,162058,2,0,P|196:273|251:281,1,90.9999958343508,8|0,0:1|0:0,0:0:0:0:
364,261,162376,1,4,0:3:0:0:
382,135,162535,2,0,B|261:155|252:151|206:121,1,181.999991668702,4|8,0:3|0:1,0:0:0:0:
310,45,163013,2,0,B|430:24|439:28|485:58,1,181.999991668702,2|2,0:0|0:0,0:0:0:0:
471,312,163650,6,0,P|435:284|415:239,1,90.9999958343508,8|0,0:0|0:0,0:0:0:0:
399,117,163968,1,8,0:0:0:0:
273,138,164127,2,0,L|169:156,1,90.9999958343508,8|8,0:3|0:3,0:0:0:0:
63,109,164445,1,8,0:0:0:0:
91,233,164604,2,0,P|141:263|186:259,1,90.9999958343508,8|0,0:1|0:0,0:0:0:0:
299,244,164923,1,4,0:3:0:0:
392,330,165082,2,0,P|414:228|385:142,1,181.999991668702,4|0,0:3|0:0,0:0:0:0:
280,95,165559,6,0,P|226:43|212:116,1,181.999991668702,2|2,0:0|0:0,0:0:0:0:
467,111,166196,2,0,P|435:142|392:155,1,90.9999958343508,8|0,0:0|0:0,0:0:0:0:
287,226,166514,1,8,0:0:0:0:
161,246,166673,6,0,P|117:258|85:289,1,90.9999958343508,8|8,0:3|0:3,0:0:0:0:
178,378,166992,1,8,0:0:0:0:
303,357,167151,2,0,P|291:313|260:281,1,90.9999958343508,8|0,0:1|0:0,0:0:0:0:
243,152,167469,2,0,L|269:62,2,90.9999958343508,8|8|2,0:0|0:3|0:0,0:0:0:0:
146,365,168106,6,0,L|121:276,1,90.9999958343508,4|0,0:3|0:0,0:0:0:0:
90,154,168424,1,0,0:0:0:0:
61,29,168583,2,0,P|116:27|150:41,1,90.9999958343508,8|8,3:0|0:1,0:0:0:0:
260,102,168901,1,0,0:0:0:0:
375,43,169061,2,0,P|425:13|413:95,1,181.999991668702,8|8,0:0|0:3,0:0:0:0:
364,212,169538,6,0,P|358:265|371:311,1,90.9999958343508,8|8,0:0|0:1,0:0:0:0:
114,341,170016,1,8,0:0:0:0:
189,238,170175,1,8,0:0:0:0:
123,128,170334,1,8,0:0:0:0:
376,150,170652,6,0,P|440:191|375:231,1,181.999991668702,4|0,0:3|0:0,0:0:0:0:
182,63,171288,2,0,P|135:68|87:97,1,90.9999958343508,8|0,0:0|0:0,0:0:0:0:
32,198,171607,1,8,0:0:0:0:
119,290,171766,6,0,L|231:294,1,90.9999958343508,8|8,0:3|0:3,0:0:0:0:
318,360,172084,1,8,0:0:0:0:
378,248,172243,2,0,L|287:244,1,90.9999958343508,8|0,0:1|0:0,0:0:0:0:
170,192,172562,1,8,0:0:0:0:
226,77,172721,1,8,0:0:0:0:
353,79,172880,1,2,0:0:0:0:
440,318,173199,6,0,P|513:324|477:259,1,181.999991668702,8|0,0:3|0:0,0:0:0:0:
222,235,173834,2,0,P|209:278|217:322,1,90.9999958343508,8|0,0:0|0:0,0:0:0:0:
337,277,174153,1,8,0:0:0:0:
319,150,174312,6,0,P|283:118|231:109,1,90.9999958343508,0|8,0:0|0:3,0:0:0:0:
222,235,174631,1,8,0:0:0:0:
337,277,174790,2,0,P|383:264|419:225,1,90.9999958343508,8|0,0:1|0:0,0:0:0:0:
322,153,175108,1,8,0:0:0:0:
322,153,175426,1,2,0:0:0:0:
64,135,175745,6,0,L|123:332,1,181.999991668702,4|0,0:3|0:0,0:0:0:0:
367,348,176381,2,0,L|387:256,1,90.9999958343508,8|0,0:0|0:0,0:0:0:0:
409,133,176700,1,8,0:0:0:0:
291,181,176859,6,0,P|276:214|273:289,1,90.9999958343508,0|8,0:0|0:3,0:0:0:0:
367,348,177177,1,8,0:0:0:0:
394,222,177336,2,0,L|410:123,1,90.9999958343508,8|0,0:1|0:0,0:0:0:0:
314,44,177655,1,8,0:0:0:0:
314,44,177973,2,0,P|263:52|225:77,1,90.9999958343508,8|8,0:0|0:1,0:0:0:0:
165,182,178291,6,0,P|164:270|110:354,1,181.999991668702,8|8,0:3|0:0,0:0:0:0:
33,106,178928,2,0,P|26:156|38:207,1,90.9999958343508,8|0,0:0|0:0,0:0:0:0:
165,182,179246,2,0,P|254:183|331:230,1,181.999991668702,8|8,0:3|0:3,0:0:0:0:
440,295,179723,5,8,0:0:0:0:
444,166,179883,2,0,L|424:76,1,90.9999958343508,8|0,0:1|0:0,0:0:0:0:
313,14,180201,1,8,0:0:0:0:
213,92,180360,1,8,0:0:0:0:
96,41,180519,1,2,0:0:0:0:
29,150,180679,1,8,0:0:0:0:
145,201,180838,6,0,P|232:222|312:167,1,181.999991668702,4|0,0:3|0:0,0:0:0:0:
484,357,181474,2,0,P|493:296|484:235,1,90.9999958343508,8|0,0:0|0:0,0:0:0:0:
449,146,181792,1,8,0:0:0:0:
350,228,181952,6,0,P|319:267|305:309,1,90.9999958343508,8|8,0:1|0:3,0:0:0:0:
420,249,182270,1,8,0:0:0:0:
367,132,182429,2,0,P|337:95|281:76,1,90.9999958343508,8|0,0:1|0:0,0:0:0:0:
176,40,182747,1,4,0:3:0:0:
108,148,182907,2,0,B|88:269|92:278|122:324,1,181.999991668702,4|8,0:3|0:1,0:0:0:0:
198,220,183385,2,0,B|219:100|215:91|185:45,1,181.999991668702,2|2,0:0|0:0,0:0:0:0:
321,259,184021,6,0,L|337:158,1,90.9999958343508,8|0,0:0|0:0,0:0:0:0:
395,57,184339,1,8,0:0:0:0:
274,17,184498,2,0,L|170:35,1,90.9999958343508,8|8,0:3|0:3,0:0:0:0:
57,26,184816,1,8,0:0:0:0:
65,152,184975,2,0,L|160:135,1,90.9999958343508,8|0,0:1|0:0,0:0:0:0:
282,129,185294,1,4,0:3:0:0:
210,223,185453,2,0,P|142:245|26:218,1,181.999991668702,4|0,0:3|0:0,0:0:0:0:
17,96,185931,6,0,P|132:37|209:47,1,181.999991668702,2|2,0:0|0:0,0:0:0:0:
437,36,186567,2,0,P|404:67|361:78,1,90.9999958343508,8|0,0:0|0:0,0:0:0:0:
244,123,186886,1,8,0:0:0:0:
319,230,187045,6,0,P|360:249|386:285,1,90.9999958343508,0|8,0:0|0:3,0:0:0:0:
278,356,187363,1,8,0:0:0:0:
158,314,187522,2,0,P|177:272|213:246,1,90.9999958343508,8|0,0:1|0:0,0:0:0:0:
244,123,187840,2,0,L|231:33,2,90.9999958343508,8|0|2,0:0|0:0|0:0,0:0:0:0:
441,294,188477,6,0,B|451:113,1,181.999991668702,4|2,0:3|0:0,0:0:0:0:
364,18,188955,1,8,0:0:0:0:
325,141,189114,2,0,L|319:243,1,90.9999958343508,8|0,0:1|0:0,0:0:0:0:
197,269,189432,2,0,L|202:178,1,90.9999958343508,8|0,0:0|0:0,0:0:0:0:
81,140,189750,5,8,0:3:0:0:
170,49,189909,1,8,0:0:0:0:
301,51,190069,2,0,P|384:73|396:159,1,181.999991668702,8|8,0:1|0:0,0:0:0:0:
326,265,190546,1,8,0:0:0:0:
206,224,190705,1,8,0:0:0:0:
184,99,190864,1,8,0:0:0:0:
288,160,191024,5,4,0:0:0:0:
263,327,191660,1,0,0:0:0:0:
255,205,192297,1,0,0:0:0:0:
225,310,192933,1,0,0:0:0:0:
186,214,193570,1,0,0:0:0:0:
184,293,194207,1,0,0:0:0:0:
140,231,194843,1,0,0:0:0:0:
142,272,195480,1,0,0:0:0:0:
422,171,196116,5,2,0:0:0:0:
266,171,196753,1,0,0:0:0:0:
402,134,197390,1,0,0:0:0:0:
286,134,198026,1,0,0:0:0:0:
380,93,198663,1,0,0:0:0:0:
307,93,199299,1,0,0:0:0:0:
364,52,199935,1,0,0:0:0:0:
323,52,200573,1,0,0:0:0:0:
30,22,201209,5,2,0:0:0:0:
55,189,201845,1,0,0:0:0:0:
63,67,202482,1,0,0:0:0:0:
93,172,203118,1,0,0:0:0:0:
132,76,203755,1,0,0:0:0:0:
134,155,204392,1,0,0:0:0:0:
178,93,205028,1,0,0:0:0:0:
178,133,205665,1,0,0:0:0:0:
422,213,206302,5,2,0:0:0:0:
266,213,206939,1,0,0:0:0:0:
402,250,207576,1,0,0:0:0:0:
286,250,208212,1,0,0:0:0:0:
380,291,208849,1,0,0:0:0:0:
307,291,209485,1,0,0:0:0:0:
364,332,210121,1,0,0:0:0:0:
323,332,210759,1,0,0:0:0:0:
141,100,211395,6,0,P|137:163|100:173,1,105.000004005432,8|2,0:3|0:0,3:0:0:0:
153,311,212031,1,0,0:0:0:0:
297,280,212350,5,0,0:0:0:0:
370,287,212509,1,0,0:0:0:0:
399,219,212668,1,8,0:0:0:0:
454,82,212986,2,0,P|488:112|459:159,1,105.000004005432,0|0,0:0|0:0,3:0:0:0:
319,188,213623,5,0,0:0:0:0:
245,180,213782,1,0,0:0:0:0:
238,106,213941,1,8,0:3:0:0:
94,139,214260,2,0,P|124:173|171:144,1,105.000004005432,2|8,0:0|0:3,3:0:0:0:
313,117,214896,5,0,0:0:0:0:
255,251,215214,1,8,0:0:0:0:
238,106,215533,1,0,0:0:0:0:
373,162,215851,1,0,0:0:0:0:
401,229,216010,1,0,0:0:0:0:
398,302,216169,1,8,0:3:0:0:
260,354,216488,6,0,P|276:293|260:235,1,105.000004005432,8|2,0:3|0:0,3:0:0:0:
195,125,217124,1,0,0:0:0:0:
127,255,217443,5,0,0:0:0:0:
193,224,217602,1,0,0:0:0:0:
258,191,217761,1,8,0:0:0:0:
369,95,218079,2,0,P|359:139|367:210,1,105.000004005432,0|0,0:0|0:0,3:0:0:0:
401,340,218716,5,0,0:0:0:0:
335,309,218875,1,0,0:0:0:0:
270,276,219034,1,8,0:3:0:0:
159,180,219352,2,0,P|169:224|161:295,1,105.000004005432,0|8,0:0|0:3,3:0:0:0:
45,369,219989,5,0,0:0:0:0:
32,222,220307,1,8,0:0:0:0:
143,125,220626,1,0,0:0:0:0:
121,194,220785,2,0,P|173:189|209:152,1,105.000004005432,0|0,0:0|0:0,3:0:0:0:
279,131,221262,1,0,0:0:0:0:
405,55,221581,6,0,P|398:112|409:174,1,105.000004005432,8|2,0:3|0:0,3:0:0:0:
473,288,222217,1,0,0:0:0:0:
336,342,222536,5,0,0:0:0:0:
265,362,222695,1,0,0:0:0:0:
192,354,222854,1,8,0:0:0:0:
137,304,223013,1,0,0:0:0:0:
199,265,223172,2,0,P|249:289|307:274,1,105.000004005432
362,150,223809,5,0,0:0:0:0:
299,111,223968,1,0,0:0:0:0:
227,98,224127,1,8,0:3:0:0:
161,131,224286,1,0,0:0:0:0:
209,186,224445,2,0,P|264:176|316:207,1,105.000004005432,2|8,0:0|0:3,0:0:0:0:
397,312,225082,1,0,0:0:0:0:
306,196,225400,5,8,0:0:0:0:
221,75,225718,1,0,0:0:0:0:
75,88,226037,1,0,0:0:0:0:
56,158,226196,1,0,0:0:0:0:
66,230,226355,1,8,0:3:0:0:
191,309,226673,6,0,P|207:265|194:206,1,105.000004005432,8|2,0:3|0:0,3:0:0:0:
223,65,227309,1,0,0:0:0:0:
287,197,227628,5,0,0:0:0:0:
354,168,227787,1,0,0:0:0:0:
387,102,227946,1,8,0:0:0:0:
474,219,228264,2,0,P|466:171|482:114,1,105.000004005432,0|0,0:0|0:0,3:0:0:0:
335,91,228901,5,0,0:0:0:0:
285,145,229060,1,0,0:0:0:0:
212,156,229219,1,8,0:3:0:0:
292,278,229538,2,0,P|249:254|190:249,1,105.000004005432,0|8,0:0|0:3,3:0:0:0:
88,351,230175,5,0,0:0:0:0:
20,220,230493,1,8,0:0:0:0:
40,365,230811,1,0,0:0:0:0:
229,313,231130,1,8,0:0:0:0:
248,260,231289,1,8,0:0:0:0:
267,207,231448,1,8,0:0:0:0:
287,154,231607,1,8,0:0:0:0:
382,133,231766,5,4,0:0:0:0:
217,25,232085,1,0,0:0:0:0:
74,158,232403,1,8,0:0:0:0:
137,343,232721,1,0,0:0:0:0:
172,251,232880,1,0,0:0:0:0:
256,202,233039,6,0,P|294:200|334:209,1,70,8|0,0:3|0:0,0:0:0:0:
418,241,233358,2,0,L|449:163,1,70,8|0,0:3|0:0,0:0:0:0:
422,80,233676,2,0,P|368:61|277:57,1,140,8|0,0:0|0:0,0:0:0:0:
100,119,234313,5,8,0:3:0:0:
143,310,234632,1,0,0:0:0:0:
190,119,234950,1,8,0:0:0:0:
124,191,235108,1,0,0:0:0:0:
219,214,235268,1,0,0:0:0:0:
280,137,235427,1,0,0:0:0:0:
377,144,235586,6,0,L|398:231,1,70,8|0,0:3|0:0,0:0:0:0:
457,286,235905,2,0,L|476:354,1,70,8|0,0:3|0:0,0:0:0:0:
379,341,236222,1,8,0:0:0:0:
477,171,236541,1,0,0:0:0:0:
359,14,236859,5,4,0:0:0:0:
308,203,237178,1,0,0:0:0:0:
220,27,237496,1,8,0:0:0:0:
171,112,237655,1,0,0:0:0:0:
85,64,237814,1,0,0:0:0:0:
36,149,237973,1,0,0:0:0:0:
44,246,238132,6,0,P|79:275|114:289,1,70,8|0,0:3|0:0,0:0:0:0:
190,243,238451,2,0,P|228:260|258:286,1,70,8|0,0:3|0:0,0:0:0:0:
337,321,238769,2,0,L|337:174,1,140,8|0,0:0|0:0,0:0:0:0:
201,39,239405,5,8,0:3:0:0:
393,79,239724,1,0,0:0:0:0:
424,272,240042,1,8,0:0:0:0:
356,342,240201,1,0,0:0:0:0:
261,327,240360,1,0,0:0:0:0:
228,233,240519,1,0,0:0:0:0:
325,248,240679,5,8,0:3:0:0:
301,53,240997,1,8,0:0:0:0:
245,133,241156,1,8,0:0:0:0:
76,33,241474,1,8,0:0:0:0:
105,127,241634,1,8,0:0:0:0:
162,334,241952,5,4,0:0:0:0:
176,113,242271,1,0,0:0:0:0:
41,205,242589,1,4,0:3:0:0:
111,286,242748,1,0,0:0:0:0:
218,292,242907,1,0,0:0:0:0:
297,219,243066,1,0,0:0:0:0:
380,286,243225,6,0,P|400:245|399:196,1,77.0000023498536,8|0,0:3|0:0,0:0:0:0:
360,115,243543,2,0,P|398:115|434:101,1,77.0000023498536
366,17,243862,2,0,P|318:16|214:53,1,154.000004699707,6|0,0:3|0:0,0:0:0:0:
208,265,244498,5,8,0:3:0:0:
6,186,244817,1,0,0:0:0:0:
156,32,245135,1,4,0:3:0:0:
190,134,245294,1,0,0:0:0:0:
139,229,245453,1,0,0:0:0:0:
102,127,245612,1,0,0:0:0:0:
156,32,245772,6,0,L|243:43,1,77.0000023498536,8|0,0:3|0:0,0:0:0:0:
304,121,246090,2,0,L|393:133,1,77.0000023498536,0|0,0:0|0:0,0:0:0:0:
471,189,246409,2,0,P|468:274|440:342,1,154.000004699707,6|0,0:3|0:0,0:0:0:0:
266,214,247045,5,8,0:3:0:0:
92,342,247364,1,0,0:0:0:0:
53,129,247682,1,4,0:3:0:0:
135,197,247841,1,0,0:0:0:0:
239,172,248000,1,0,0:0:0:0:
281,86,248159,1,0,0:0:0:0:
187,32,248318,6,0,P|171:69|172:106,1,77.0000023498536,8|0,0:3|0:0,0:0:0:0:
194,211,248636,2,0,L|225:313,1,77.0000023498536
147,368,248955,2,0,P|88:338|36:262,1,154.000004699707,4|0,0:3|0:0,0:0:0:0:
117,74,249591,5,4,0:0:0:0:
221,279,249909,1,0,0:0:0:0:
176,47,250228,1,6,0:3:0:0:
283,256,250546,1,2,0:3:0:0:
87,126,250864,6,0,P|161:167|253:143,1,167.999994873047,2|0,0:3|0:0,0:0:0:0:
473,122,251501,1,6,0:3:0:0:
410,348,251819,1,0,0:0:0:0:
403,112,252138,5,2,0:3:0:0:
346,340,252456,1,0,0:0:0:0:
339,105,252774,1,4,0:3:0:0:
279,332,253092,1,2,0:3:0:0:
272,96,253411,2,0,P|226:184|225:274,1,167.999994873047,2|2,0:3|0:3,0:0:0:0:
456,262,254047,1,4,0:3:0:0:
330,62,254366,1,2,0:3:0:0:
311,295,254684,6,0,P|262:249|232:152,1,167.999994873047,0|0,0:0|0:0,0:0:0:0:
449,65,255320,1,4,0:3:0:0:
379,290,255639,1,0,0:0:0:0:
180,163,255957,2,0,P|171:229|106:317,1,167.999994873047,2|2,0:3|0:3,0:0:0:0:
118,75,256593,1,6,0:3:0:0:
244,274,256912,1,2,0:3:0:0:
39,159,257230,5,4,0:0:0:0:
91,366,257549,1,8,0:3:0:0:
139,156,257867,1,4,0:3:0:0:
175,113,258026,1,8,0:3:0:0:
223,85,258185,1,2,0:3:0:0:
278,80,258344,1,4,0:3:0:0:
333,91,258504,6,0,P|361:111|376:128,1,55.9999982910157,2|8,0:3|0:3,0:0:0:0:
264,237,258822,2,0,L|264:292,2,55.9999982910157,8|8|8,0:3|0:3|0:3,0:0:0:0:
222,130,259140,2,0,P|194:150|179:167,1,55.9999982910157,8|0,0:0|0:0,0:0:0:0:
102,302,259459,2,0,L|102:357,2,55.9999982910157,8|8|8,0:3|0:3|0:3,0:0:0:0:
72,192,259777,2,0,L|56:141,1,41.9999987182618,4|2,0:3|0:0,0:0:0:0:
362,150,261687,22,0,P|330:134|296:131,1,70
296,131,262323,6,0,P|255:66|215:132,1,181.999991668702,4|0,0:3|0:0,0:0:0:0:
467,164,262959,2,0,P|444:218|416:247,1,90.9999958343508,8|0,0:0|0:0,0:0:0:0:
315,311,263278,1,8,0:0:0:0:
173,320,263437,6,0,L|189:227,1,90.9999958343508,8|8,0:3|0:3,0:0:0:0:
134,115,263755,1,8,0:0:0:0:
260,105,263914,2,0,L|333:34,1,90.9999958343508,8|0,0:1|0:0,0:0:0:0:
438,100,264233,1,8,0:0:0:0:
438,100,264551,1,2,0:0:0:0:
277,297,264869,6,0,P|196:306|228:250,1,181.999991668702,8|0,0:3|0:0,0:0:0:0:
473,307,265505,2,0,P|420:307|371:275,1,90.9999958343508,8|0,0:0|0:0,0:0:0:0:
363,164,265824,1,8,0:0:0:0:
236,149,265983,6,0,P|201:110|194:68,1,90.9999958343508,8|8,0:3|0:3,0:0:0:0:
321,50,266302,1,8,0:0:0:0:
363,164,266461,2,0,L|288:239,1,90.9999958343508,8|0,0:1|0:0,0:0:0:0:
209,319,266779,1,8,0:0:0:0:
111,237,266938,1,8,0:0:0:0:
74,106,267097,1,2,0:0:0:0:
299,228,267416,6,0,P|235:168|204:66,1,181.999991668702,4|0,0:3|0:0,0:0:0:0:
455,38,268052,2,0,P|445:86|457:159,1,90.9999958343508,8|0,0:0|0:0,0:0:0:0:
480,251,268371,1,8,0:0:0:0:
386,337,268530,6,0,P|397:272|389:230,1,90.9999958343508,8|8,0:3|0:3,0:0:0:0:
363,124,268848,1,8,0:0:0:0:
245,76,269007,2,0,P|240:119|248:177,1,90.9999958343508,8|0,0:1|0:0,0:0:0:0:
275,290,269326,1,8,0:0:0:0:
166,356,269485,1,8,0:1:0:0:
114,239,269644,2,0,P|115:205|99:137,1,90.9999958343508,2|0,0:0|0:0,0:0:0:0:
159,35,269962,6,0,P|231:19|202:87,1,181.999991668702,8|0,0:3|0:0,0:0:0:0:
113,327,270599,2,0,P|104:282|114:238,1,90.9999958343508,8|0,0:0|0:0,0:0:0:0:
230,285,270917,2,0,P|298:318|288:244,1,181.999991668702,8|8,0:0|0:3,0:0:0:0:
199,153,271394,5,8,0:0:0:0:
278,52,271554,2,0,L|365:116,1,90.9999958343508,8|0,0:1|0:0,0:0:0:0:
469,57,271872,1,8,0:0:0:0:
488,182,272031,1,8,0:0:0:0:
370,232,272191,1,2,0:0:0:0:
129,135,272508,6,0,P|113:223|148:305,1,181.999991668702,4|0,0:3|0:0,0:0:0:0:
400,345,273145,2,0,L|405:237,1,90.9999958343508,8|0,0:0|0:0,0:0:0:0:
416,127,273463,1,8,0:0:0:0:
290,154,273623,6,0,P|242:159|201:175,1,90.9999958343508,8|8,0:1|0:3,0:0:0:0:
142,286,273941,1,8,0:0:0:0:
15,274,274100,2,0,L|20:166,1,90.9999958343508,8|0,0:1|0:0,0:0:0:0:
29,56,274418,1,4,0:3:0:0:
155,45,274577,2,0,B|275:22|284:26|331:55,1,181.999991668702,4|8,0:3|0:1,0:0:0:0:
256,159,275055,2,0,B|233:279|237:288|266:335,1,181.999991668702,2|2,0:0|0:0,0:0:0:0:
403,119,275692,6,0,P|378:162|365:217,1,90.9999958343508,8|0,0:0|0:0,0:0:0:0:
392,326,276010,1,8,0:0:0:0:
265,334,276169,2,0,L|175:318,1,90.9999958343508,8|8,0:3|0:3,0:0:0:0:
52,350,276487,1,8,0:0:0:0:
87,227,276647,2,0,P|137:197|179:193,1,90.9999958343508,8|0,0:1|0:0,0:0:0:0:
295,200,276965,1,4,0:3:0:0:
387,112,277124,2,0,P|409:214|380:300,1,181.999991668702,4|0,0:3|0:0,0:0:0:0:
294,374,277602,6,0,P|272:286|294:199,1,181.999991668702,2|2,0:0|0:0,0:0:0:0:
80,62,278238,2,0,P|146:82|190:65,1,90.9999958343508,8|0,0:0|0:0,0:0:0:0:
284,31,278556,1,8,0:0:0:0:
411,15,278716,6,0,P|455:11|496:30,1,90.9999958343508,8|8,0:3|0:3,0:0:0:0:
436,142,279034,1,8,0:0:0:0:
308,134,279193,2,0,P|296:178|265:210,1,90.9999958343508,8|0,0:1|0:0,0:0:0:0:
152,270,279511,2,0,L|172:360,2,90.9999958343508,8|8|2,0:0|0:3|0:0,0:0:0:0:
63,30,280148,6,0,L|79:129,1,90.9999958343508,4|0,0:3|0:0,0:0:0:0:
70,246,280466,1,0,0:0:0:0:
156,152,280625,2,0,P|211:144|246:149,1,90.9999958343508,8|8,0:0|0:1,0:0:0:0:
368,183,280943,1,0,0:0:0:0:
414,302,281103,2,0,B|324:346|332:262|228:309,1,181.999991668702,8|8,0:0|0:3,0:0:0:0:
122,356,281580,6,0,P|116:303|129:257,1,90.9999958343508,8|8,0:0|0:1,0:0:0:0:
233,35,282058,1,8,0:0:0:0:
118,91,282217,1,8,0:0:0:0:
43,194,282376,1,8,0:0:0:0:
283,276,282694,6,0,P|357:293|340:218,1,181.999991668702,4|0,0:3|0:0,0:0:0:0:
156,41,283330,2,0,L|236:129,1,90.9999958343508,8|0,0:0|0:0,0:0:0:0:
185,232,283649,1,8,0:0:0:0:
95,142,283808,6,0,L|20:61,1,90.9999958343508,8|8,0:3|0:3,0:0:0:0:
156,41,284126,1,8,0:0:0:0:
278,7,284286,2,0,L|358:95,1,90.9999958343508,8|0,0:1|0:0,0:0:0:0:
297,192,284604,1,8,0:0:0:0:
254,311,284763,1,8,0:0:0:0:
161,222,284923,1,2,0:0:0:0:
406,168,285241,6,0,P|465:180|402:237,1,181.999991668702,8|0,0:3|0:0,0:0:0:0:
154,253,285878,2,0,P|142:209|153:165,1,90.9999958343508,8|0,0:0|0:0,0:0:0:0:
270,206,286195,1,8,0:0:0:0:
322,321,286354,6,0,P|276:335|224:322,1,90.9999958343508,0|8,0:0|0:3,0:0:0:0:
113,367,286673,1,8,0:0:0:0:
23,274,286833,2,0,P|9:231|13:179,1,90.9999958343508,0|0,0:0|0:0,0:0:0:0:
65,71,287150,1,8,0:0:0:0:
65,71,287468,1,2,0:0:0:0:
289,193,287787,6,0,P|257:259|222:194,1,181.999991668702,4|0,0:3|0:0,0:0:0:0:
419,32,288423,2,0,L|436:126,1,90.9999958343508,8|0,0:0|0:0,0:0:0:0:
464,246,288742,1,8,0:0:0:0:
372,334,288901,6,0,P|336:362|292:371,1,90.9999958343508,0|8,0:0|0:3,0:0:0:0:
182,307,289219,1,8,0:0:0:0:
61,347,289378,2,0,P|32:314|18:267,1,90.9999958343508,8|0,0:1|0:0,0:0:0:0:
15,141,289697,1,8,0:0:0:0:
244,29,290016,2,0,L|258:128,1,90.9999958343508,8|8,0:0|0:1,0:0:0:0:
290,241,290333,6,0,P|381:218|473:247,1,181.999991668702,8|8,0:3|0:0,0:0:0:0:
212,284,290970,2,0,P|205:234|217:183,1,90.9999958343508,8|0,0:0|0:0,0:0:0:0:
300,102,291289,2,0,P|213:78|126:101,1,181.999991668702,8|0,0:3|0:0,0:0:0:0:
36,189,291765,5,8,0:0:0:0:
123,283,291925,2,0,P|167:292|212:283,1,90.9999958343508,8|0,0:1|0:0,0:0:0:0:
329,234,292243,1,8,0:0:0:0:
439,297,292402,1,8,0:0:0:0:
450,170,292561,1,2,0:0:0:0:
337,108,292721,1,8,0:0:0:0:
225,168,292880,6,0,P|147:180|74:112,1,181.999991668702,4|0,0:3|0:0,0:0:0:0:
337,108,293516,2,0,P|348:161|333:221,1,90.9999958343508,8|0,0:0|0:0,0:0:0:0:
293,314,293834,1,8,0:0:0:0:
412,360,293994,6,0,L|432:266,1,90.9999958343508,8|8,0:1|0:3,0:0:0:0:
460,147,294312,1,8,0:0:0:0:
337,108,294471,2,0,P|290:109|249:128,1,90.9999958343508,8|0,0:1|0:0,0:0:0:0:
162,218,294789,1,4,0:3:0:0:
221,331,294949,2,0,B|343:340|351:335|395:301,1,181.999991668702,4|8,0:3|0:1,0:0:0:0:
312,203,295427,2,0,B|280:85|283:75|309:27,1,181.999991668702,2|2,0:0|0:0,0:0:0:0:
55,41,296063,6,0,P|42:80|54:147,1,90.9999958343508,8|0,0:0|0:0,0:0:0:0:
71,253,296381,1,8,0:0:0:0:
191,292,296540,2,0,L|295:274,1,90.9999958343508,8|8,0:3|0:3,0:0:0:0:
408,283,296858,1,8,0:0:0:0:
400,157,297017,2,0,L|305:174,1,90.9999958343508,8|0,0:1|0:0,0:0:0:0:
182,168,297336,1,4,0:3:0:0:
89,80,297495,2,0,P|169:42|260:67,1,181.999991668702,4|0,0:3|0:0,0:0:0:0:
182,168,297973,6,0,P|100:205|14:182,1,181.999991668702,2|2,0:0|0:0,0:0:0:0:
263,234,298609,2,0,P|315:250|357:245,1,90.9999958343508,8|0,0:0|0:0,0:0:0:0:
464,186,298928,1,8,0:0:0:0:
419,66,299087,6,0,L|339:13,1,90.9999958343508,0|8,0:0|0:3,0:0:0:0:
242,93,299405,1,8,0:0:0:0:
127,36,299565,2,0,L|61:98,1,90.9999958343508,8|0,0:1|0:0,0:0:0:0:
119,211,299883,2,0,L|84:300,2,90.9999958343508,8|0|2,0:0|0:0|0:0,0:0:0:0:
347,98,300519,6,0,B|406:285,1,181.999991668702,4|2,0:3|0:0,0:0:0:0:
315,366,300997,1,8,0:0:0:0:
187,371,301156,2,0,P|206:294|299:235,1,181.999991668702,8|8,0:1|0:0,0:0:0:0:
53,133,301793,6,0,P|88:190|128:212,1,90.9999958343508,8|8,0:3|0:0,0:0:0:0:
225,155,302111,2,0,P|304:142|401:177,1,181.999991668702,8|8,0:1|0:0,0:0:0:0:
412,301,302588,1,8,0:0:0:0:
290,340,302747,1,8,0:0:0:0:
182,271,302906,1,8,0:0:0:0:
301,235,303066,6,0,L|321:63,1,167.999994873047,4|0,0:3|0:0,0:0:0:0:
87,30,303703,1,8,0:0:0:0:
42,260,304021,1,0,0:0:0:0:
104,159,304181,1,0,0:0:0:0:
159,261,304339,2,0,P|196:275|251:263,1,83.9999974365235,4|0,0:3|0:0,0:0:0:0:
336,202,304657,2,0,P|422:186|512:216,1,167.999994873047,4|0,0:3|0:0,0:0:0:0:
346,37,305295,1,8,0:0:0:0:
197,218,305612,6,0,P|141:197|30:231,1,167.999994873047,8|0,0:3|0:0,0:0:0:0:
257,275,306249,1,8,0:0:0:0:
472,223,306567,2,0,P|394:195|315:217,1,167.999994873047,4|8,0:3|0:0,0:0:0:0:
257,114,307045,1,8,0:0:0:0:
197,217,307204,1,8,0:1:0:0:
27,54,307522,1,8,0:0:0:0:
12,109,307681,1,8,0:0:0:0:
13,166,307840,1,8,0:0:0:0:
33,219,308000,1,8,0:0:0:0:
114,134,308159,6,0,P|211:152|291:129,1,167.999994873047,4|0,0:3|0:0,0:0:0:0:
486,28,308796,1,8,0:0:0:0:
429,256,309114,1,0,0:0:0:0:
393,143,309273,1,8,0:0:0:0:
332,244,309432,1,8,0:1:0:0:
321,9,309750,1,8,0:3:0:0:
332,244,310069,1,4,0:3:0:0:
92,269,310705,6,0,L|69:77,2,167.999994873047,8|8|8,0:1|0:0|0:0,0:0:0:0:
319,330,311660,1,4,0:3:0:0:
286,97,311978,1,8,0:1:0:0:
222,196,312138,1,8,0:0:0:0:
222,196,312615,1,8,0:0:0:0:
222,196,312933,1,8,0:1:0:0:
402,77,313252,6,0,P|413:148|399:239,1,154.000004699707,4|0,0:3|0:0,0:0:0:0:
247,380,313889,1,8,0:0:0:0:
88,234,314207,1,0,0:0:0:0:
173,299,314366,1,8,0:0:0:0:
250,223,314525,1,4,0:3:0:0:
157,28,314843,2,0,L|166:188,1,154.000004699707,4|0,0:3|0:0,0:0:0:0:
279,366,315481,1,8,0:0:0:0:
354,165,315798,6,0,L|368:333,1,154.000004699707,8|0,0:3|0:0,0:0:0:0:
156,366,316435,1,8,0:0:0:0:
39,184,316753,2,0,L|56:342,1,154.000004699707,4|0,0:3|0:0,0:0:0:0:
156,366,317231,1,8,0:0:0:0:
233,291,317390,1,8,0:1:0:0:
446,265,317708,1,8,0:0:0:0:
411,163,317867,1,8,0:0:0:0:
426,56,318026,1,8,0:1:0:0:
212,66,318344,6,0,P|213:146|184:220,1,154.000004699707,4|0,0:3|0:0,0:0:0:0:
328,50,318981,1,8,0:0:0:0:
113,32,319299,1,0,0:0:0:0:
88,137,319459,1,8,0:0:0:0:
108,242,319618,1,8,0:1:0:0:
311,312,319936,2,0,P|310:232|338:158,1,154.000004699707,8|0,0:1|0:0,0:0:0:0:
195,328,320573,1,4,0:3:0:0:
256,121,320891,5,8,0:3:0:0:
355,305,321209,2,0,P|387:283|412:254,2,77.0000023498536,2|8|2,0:0|0:0|0:0,0:0:0:0:
256,305,321846,6,0,B|214:200|113:277|94:126|146:73|219:63|256:122|256:122|292:63|365:73|417:126|398:277|297:200|256:305,1,700,4|0,0:3|0:0,0:0:0:0:
376,95,345280,6,0,P|378:147|364:197,1,105.000004005432,2|2,0:3|0:0,3:0:0:0:
245,285,346131,1,2,0:0:0:0:
127,197,346557,2,0,P|113:147|115:95,1,105.000004005432,2|2,0:1|0:0,3:0:0:0:
245,176,347408,1,2,0:0:0:0:
379,237,347833,38,0,L|378:161,1,70.0000026702882,2|0,0:3|0:0,3:0:0:0:
379,117,348259,1,2,0:0:0:0:
245,176,348685,1,2,0:0:0:0:
111,117,349110,2,0,L|112:193,1,70.0000026702882,2|0,0:1|0:0,3:0:0:0:
111,237,349536,1,2,0:0:0:0:
245,176,349962,1,0,0:0:0:0:
373,105,350387,5,2,0:3:0:0:
375,202,350670,1,0,0:0:0:0:
329,182,350813,1,2,0:0:0:0:
245,303,351239,1,2,0:0:0:0:
118,230,351663,1,2,0:1:0:0:
116,133,351946,1,0,0:0:0:0:
162,153,352089,1,2,0:0:0:0:
245,32,352514,1,2,0:0:0:0:
187,167,352940,37,2,0:3:0:0:
275,208,353224,1,0,0:0:0:0:
323,210,353365,2,0,P|361:203|393:180,1,70.0000026702882,2|0,0:0|0:0,3:0:0:0:
424,154,353791,1,2,0:0:0:0:
304,68,354216,1,2,0:1:0:0:
216,109,354500,1,0,0:0:0:0:
168,111,354642,2,0,P|130:104|98:81,1,70.0000026702882,2|0,0:0|0:0,3:0:0:0:
67,55,355067,1,2,0:0:0:0:
122,243,355493,6,0,P|195:221|256:244,1,140,2|2,0:3|0:0,3:0:0:0:
329,303,356131,1,0,0:0:0:0:
426,310,356344,1,2,0:0:0:0:
470,222,356557,1,0,0:0:0:0:
441,129,356770,37,2,0:1:0:0:
245,112,357195,2,0,P|260:179|314:220,1,140,2|2,0:0|0:0,3:0:0:0:
343,125,357833,1,0,0:0:0:0:
307,33,358046,6,0,P|244:7|181:33,1,140,2|2,0:3|0:0,3:0:0:0:
152,128,358685,1,0,0:0:0:0:
152,225,358897,1,2,0:0:0:0:
53,225,359110,1,0,0:0:0:0:
53,323,359323,37,2,0:1:0:0:
246,367,359748,2,0,B|308:368|356:330,1,105,2|2,0:0|0:0,3:0:0:0:
391,353,360174,2,0,P|423:357|410:335,1,70,10|0,0:3|0:0,0:0:0:0:
427,242,360599,6,0,P|430:185|374:120,1,140,2|2,0:3|0:0,3:0:0:0:
335,211,361238,1,0,0:0:0:0:
249,163,361450,1,2,0:0:0:0:
290,73,361663,1,0,0:0:0:0:
196,42,361876,37,2,0:1:0:0:
55,176,362301,2,0,P|57:245|105:294,1,140,2|2,0:0|0:0,3:0:0:0:
149,206,362939,1,0,0:0:0:0:
231,260,363153,5,2,0:3:0:0:
231,260,363578,1,2,0:0:0:0:
301,192,363791,1,0,0:0:0:0:
345,104,364004,1,2,0:0:0:0:
388,192,364217,1,0,0:0:0:0:
460,257,364429,38,0,P|479:222|482:167,1,70,2|0,0:1|0:0,3:0:0:0:
460,97,364855,1,2,0:0:0:0:
378,42,365068,2,0,P|352:27|354:56,1,70,10|0,0:3|0:0,0:0:0:0:
373,152,365493,1,0,0:0:0:0:
275,142,365706,6,0,P|242:128|202:85,1,70,2|0,0:3|0:0,3:0:0:0:
149,34,366131,1,2,0:0:0:0:
98,118,366344,1,8,0:1:0:0:
87,215,366557,1,2,0:0:0:0:
131,302,366770,1,0,0:0:0:0:
217,348,366983,37,2,0:1:0:0:
231,251,367195,1,8,0:1:0:0:
326,272,367408,1,2,0:0:0:0:
357,179,367621,1,8,0:1:0:0:
357,179,368046,1,8,0:1:0:0:
274,126,368259,6,0,B|204:101|205:164|117:117,1,140,2|2,0:3|0:0,3:0:0:0:
76,50,368898,1,8,0:1:0:0:
172,34,369110,1,2,0:0:0:0:
137,126,369323,1,0,0:0:0:0:
104,218,369536,38,0,P|100:253|111:310,1,70,2|0,0:1|0:0,3:0:0:0:
141,320,369855,1,8,0:1:0:0:
141,320,369961,2,0,B|223:303|223:303|255:322,1,105,2|0,0:0|0:3,3:0:0:0:
280,343,370387,2,0,P|291:369|308:346,1,70,10|0,0:3|0:0,0:0:0:0:
404,325,370812,6,0,P|425:237|402:175,1,140,2|2,3:3|0:0,3:0:0:0:
317,215,371450,1,8,0:1:0:0:
238,274,371663,1,2,0:0:0:0:
155,221,371876,1,0,0:0:0:0:
80,284,372089,37,2,0:1:0:0:
163,338,372302,1,8,0:1:0:0:
238,274,372514,1,2,0:0:0:0:
331,246,372727,2,0,L|317:215,2,35,8|8|2,0:1|0:3|0:0,0:0:0:0:
410,304,373152,1,8,0:1:0:0:
471,227,373366,5,2,0:3:0:0:
409,41,373791,1,2,0:0:0:0:
488,101,374004,2,0,P|430:138|363:128,1,140,8|0,0:1|0:0,3:0:0:0:
409,41,374642,2,0,P|341:30|284:68,1,140,2|0,0:1|0:0,3:0:0:0:
236,162,375280,38,2,P|250:211|261:161,1,140,10|0,0:3|0:0,0:0:0:0:
31,87,375919,6,0,P|24:141|44:196,1,87.5,4|0,0:1|0:0,3:0:0:0:
95,277,376344,1,2,0:0:0:0:
297,138,376770,1,2,0:0:0:0:
356,244,376982,1,0,0:0:0:0:
470,287,377195,2,0,P|477:233|457:178,1,87.5,2|0,0:1|0:0,3:0:0:0:
406,97,377620,1,2,0:0:0:0:
271,301,378046,1,2,0:0:0:0:
95,129,378472,38,0,L|104:245,1,87.5,2|2,0:1|0:1,3:0:0:0:
204,283,378897,2,0,L|197:195,1,87.5,2|0,0:0|0:0,3:0:0:0:
293,119,379323,1,2,0:0:0:0:
293,241,379535,1,0,0:0:0:0:
398,178,379748,2,0,L|393:303,1,87.5,2|2,0:1|0:1,3:0:0:0:
486,347,380174,2,0,L|489:259,1,87.5,2|2,0:0|0:1,3:0:0:0:
497,137,380599,1,2,0:0:0:0:
253,106,381025,6,0,P|288:137|336:147,1,87.5,4|0,0:1|0:0,3:0:0:0:
344,25,381450,1,2,0:0:0:0:
218,235,381876,1,2,0:0:0:0:
122,158,382088,1,0,0:0:0:0:
28,238,382302,2,0,P|63:269|111:279,1,87.5,2|0,0:1|0:0,3:0:0:0:
122,158,382727,1,2,0:0:0:0:
0,370,383152,1,2,0:0:0:0:
122,368,383365,1,0,0:0:0:0:
244,361,383578,38,0,P|294:343|325:301,1,87.5,2|2,0:1|0:1,3:0:0:0:
224,236,384004,2,0,L|203:150,1,87.5,2|0,0:0|0:0,3:0:0:0:
270,47,384429,2,0,L|298:163,1,87.5,2|0,0:0|0:0,3:0:0:0:
324,250,384855,1,2,0:0:0:0:
253,350,385068,1,2,0:1:0:0:
138,306,385280,1,2,0:0:0:0:
106,187,385493,1,2,0:1:0:0:
175,86,385705,1,2,0:0:0:0:
290,132,385919,1,2,0:0:0:0:
218,230,386131,6,0,P|257:250|301:252,1,87.5,4|0,0:1|0:0,3:0:0:0:
404,186,386557,1,2,0:0:0:0:
169,118,386982,1,2,0:0:0:0:
290,132,387195,1,0,0:0:0:0:
301,252,387408,2,0,P|257:250|219:231,1,87.5,2|0,0:1|0:0,3:0:0:0:
169,118,387833,1,2,0:0:0:0:
404,186,388259,1,2,0:0:0:0:
224,352,388685,38,0,L|252:252,1,87.5,2|2,0:1|0:1,3:0:0:0:
153,189,389110,2,0,L|176:104,1,87.5,2|0,0:0|0:0,3:0:0:0:
272,185,389536,1,2,0:0:0:0:
368,258,389747,1,0,0:0:0:0:
411,142,389961,2,0,P|456:154|506:134,1,87.5,2|0,0:1|0:0,3:0:0:0:
455,25,390387,2,0,P|413:13|371:25,1,87.5,2|0,0:1|0:0,3:0:0:0:
276,101,390812,1,2,0:1:0:0:
195,8,391025,1,0,0:0:0:0:
123,106,391237,6,0,P|138:186|174:145,1,175,4|2,0:1|0:0,3:0:0:0:
244,51,391876,1,0,0:0:0:0:
244,51,392302,1,0,0:0:0:0:
297,152,392514,2,0,P|332:185|382:198,1,87.5,2|0,0:1|0:0,3:0:0:0:
392,76,392940,1,0,0:0:0:0:
469,171,393153,1,0,0:0:0:0:
271,314,393578,1,0,0:0:0:0:
246,194,393791,38,0,L|246:100,1,87.5,2|0,0:1|0:0,3:0:0:0:
147,33,394215,1,2,0:0:0:0:
147,278,394642,1,2,0:0:0:0:
54,199,394855,1,0,0:0:0:0:
54,322,395067,1,2,0:1:0:0:
146,136,395280,5,12,0:3:0:0:
347,136,395492,1,8,0:0:0:0:
246,205,395705,1,8,0:3:0:0:
313,306,395919,1,8,0:1:0:0:
270,330,396025,1,8,0:1:0:0:
222,330,396131,1,8,0:1:0:0:
179,306,396238,1,8,0:1:0:0:
147,268,396344,38,0,P|74:206|0:267,1,210.000008010865,4|0,0:3|0:0,3:0:0:0:
0,267,396982,1,2,0:0:0:0:
147,268,397195,1,0,0:0:0:0:
245,159,397408,1,8,0:1:0:0:
344,268,397621,2,0,P|417:205|492:266,1,210.000008010865,8|8,0:0|0:3,3:0:0:0:
462,122,398259,2,0,P|410:113|359:125,1,105.000004005432,2|8,0:0|0:1,3:0:0:0:
245,218,398685,5,8,0:3:0:0:
132,125,398897,2,0,P|81:113|30:122,1,105.000004005432,8|0,0:3|0:0,3:0:0:0:
4,162,399216,1,8,0:3:0:0:
1,209,399323,1,0,0:0:0:0:
19,349,399536,2,0,L|130:298,1,105.000004005432,2|0,0:0|0:0,3:0:0:0:
245,237,399961,1,8,0:1:0:0:
278,93,400174,2,0,P|245:17|213:93,1,210.000008010865,8|0,0:0|0:0,3:0:0:0:
245,237,400812,1,2,0:0:0:0:
375,305,401025,2,0,L|470:348,1,105.000004005432,8|8,0:1|0:1,3:0:0:0:
472,253,401450,38,0,P|410:178|473:104,1,210.000008010865,8|8,0:3|0:3,3:0:0:0:
328,127,402089,2,0,P|316:177|328:228,1,105.000004005432,2|0,0:0|0:0,3:0:0:0:
405,354,402515,1,8,0:1:0:0:
257,357,402727,2,0,L|117:357,1,105.000004005432,8|0,0:0|0:0,3:0:0:0:
4,357,403153,1,8,0:3:0:0:
163,126,403578,6,0,P|175:177|163:228,1,105.000004005432,8|8,0:1|0:3,3:0:0:0:
18,252,404004,2,0,P|80:178|19:104,1,210.000008010865,8|0,0:3|0:0,3:0:0:0:
140,22,404642,2,0,L|245:22,1,105.000004005432,2|0,0:0|0:0,3:0:0:0:
392,22,405068,1,8,0:1:0:0:
502,118,405280,2,0,P|463:155|410:169,1,105.000004005432,8|0,0:0|0:0,3:0:0:0:
173,339,405919,37,2,0:0:0:0:
151,194,406131,1,8,0:3:0:0:
293,230,406344,1,8,0:1:0:0:
318,84,406557,2,0,P|243:21|170:84,1,210.000008010865,4|0,0:3|0:0,3:0:0:0:
193,230,407195,1,2,0:0:0:0:
335,194,407408,1,0,0:0:0:0:
310,339,407621,1,8,0:1:0:0:
168,303,407833,2,0,P|107:227|172:155,1,210.000008010865,8|0,0:0|0:0,3:0:0:0:
295,76,408472,2,0,P|244:62|194:75,1,105.000004005432,2|8,0:0|0:1,3:0:0:0:
318,155,408897,5,8,0:3:0:0:
300,301,409110,2,0,L|195:301,1,105.000004005432,8|0,0:3|0:0,3:0:0:0:
161,267,409429,1,8,0:3:0:0:
127,233,409536,1,0,0:0:0:0:
25,129,409748,2,0,L|132:129,1,105.000004005432,2|0,0:0|0:0,3:0:0:0:
277,129,410174,1,8,0:1:0:0:
214,263,410387,2,0,P|245:339|278:263,1,210.000008010865,8|8,0:0|0:3,3:0:0:0:
216,129,411025,1,2,0:0:0:0:
363,129,411238,2,8,L|468:129,1,105.000004005432,8|8,0:1|0:1,0:1:0:0:
492,275,411663,38,0,P|429:355|328:365,1,210.000008010865,8|8,0:3|0:3,0:0:0:0:
422,251,412302,2,0,P|395:290|334:289,1,105.000004005432,2|0,0:0|0:0,0:0:0:0:
245,180,412728,1,8,0:1:0:0:
150,292,412940,2,0,P|99:290|69:250,1,105.000004005432,8|0,0:0|0:0,0:0:0:0:
165,364,413365,2,0,P|63:355|-1:275,1,210.000008010865,8|8,0:3|0:1,0:0:0:0:
124,8,414216,6,0,L|124:126,1,105.000004005432,8|0,0:3|0:0,3:0:0:0:
124,160,414536,1,8,0:3:0:0:
124,207,414642,1,0,0:0:0:0:
215,322,414855,2,0,L|215:217,1,105.000004005432,2|0,0:0|0:0,3:0:0:0:
215,69,415281,1,8,0:1:0:0:
361,69,415493,2,0,L|361:322,1,210.000008010865,8|0,0:0|0:0,3:0:0:0:
277,157,416131,2,0,L|277:367,1,210.000008010865,2|8,0:0|0:1,3:0:0:0:
194,259,416770,38,0,B|112:229|113:290|22:254,1,175,4|0,0:3|0:0,3:0:0:0:
72,142,417408,1,2,0:0:0:0:
123,30,417621,1,8,0:0:0:0:
171,141,417833,2,0,P|193:129|214:105,2,43.75,8|0|8,0:1|0:0|0:1,3:0:0:0:
292,75,418472,6,0,P|305:116|341:141,1,87.5,8|2,0:3|0:0,3:0:0:0:
452,191,418897,1,8,0:0:0:0:
340,244,419110,2,0,L|307:293,1,43.75,8|0,0:1|0:0,3:0:0:0:
287,308,419323,38,0,P|244:316|201:309,1,87.5,8|8,0:3|0:1,3:0:0:0:
174,280,419642,2,0,L|149:243,1,43.75,8|0,0:3|0:0,3:0:0:0:
60,191,419961,1,2,0:0:0:0:
127,88,420174,1,8,0:0:0:0:
245,56,420387,2,0,L|245:7,2,43.75,8|0|8,0:1|0:0|0:1,3:0:0:0:
288,297,421025,6,0,P|245:306|203:296,1,87.5,8|2,0:3|0:0,3:0:0:0:
114,212,421450,1,8,0:0:0:0:
73,327,421663,1,8,0:1:0:0:
28,212,421876,38,0,P|36:145|77:85,1,131.25,4|0,0:1|0:0,3:0:0:0:
53,36,422302,2,0,P|87:63|129:77,1,87.5,0|2,0:0|0:0,3:0:0:0:
245,39,422727,1,8,0:0:0:0:
354,94,422940,1,8,0:1:0:0:
474,68,423153,6,0,P|466:135|425:195,1,131.25,8|0,0:1|0:0,3:0:0:0:
448,243,423579,2,0,P|413:216|372:202,1,87.5,8|2,0:3|0:0,3:0:0:0:
250,191,424004,1,8,0:0:0:0:
132,225,424217,1,8,0:1:0:0:
187,336,424429,38,0,P|146:350|51:321,1,131.25,8|8,0:3|0:3,3:0:0:0:
8,360,424855,2,0,P|33:316|38:276,1,87.5,0|2,0:0|0:0,3:0:0:0:
27,157,425280,1,8,0:0:0:0:
132,225,425493,1,8,0:1:0:0:
187,336,425706,6,0,P|228:350|323:321,1,131.25,8|0,0:1|0:0,3:0:0:0:
366,359,426132,2,0,P|344:315|342:274,1,87.5,8|2,0:3|0:0,3:0:0:0:
352,155,426557,1,8,0:0:0:0:
242,208,426770,1,8,0:1:0:0:
129,255,426982,38,0,L|77:124,1,131.25,4|0,0:1|0:0,3:0:0:0:
37,89,427408,2,0,B|83:99|83:99|133:83,1,87.5,0|2,0:0|0:0,3:0:0:0:
241,61,427833,1,8,0:0:0:0:
280,177,428046,1,8,0:1:0:0:
374,255,428259,6,0,L|426:124,1,131.25,8|0,0:1|0:0,3:0:0:0:
466,89,428685,2,0,B|420:99|420:99|370:83,1,87.5,8|2,0:3|0:0,3:0:0:0:
262,61,429110,1,8,0:0:0:0:
223,177,429323,1,8,0:1:0:0:
245,297,429536,38,0,P|315:256|340:206,1,131.25,8|0,0:3|0:0,3:0:0:0:
399,213,429962,2,0,P|354:180|337:142,1,87.5,0|0,0:0|0:0,3:0:0:0:
449,96,430387,1,8,0:0:0:0:
350,23,430600,1,8,0:1:0:0:
245,87,430812,6,0,P|175:128|150:178,1,131.25,8|0,0:1|0:0,3:0:0:0:
91,171,431238,2,0,P|136:204|153:242,1,87.5,8|2,0:3|0:0,3:0:0:0:
41,288,431663,1,8,0:0:0:0:
140,361,431876,1,8,0:1:0:0:
245,297,432089,38,0,L|391:297,1,131.25,4|0,0:1|0:0,3:0:0:0:
437,305,432515,2,0,B|399:284|399:284|399:239,1,87.5,0|2,0:0|0:0,3:0:0:0:
445,126,432940,1,8,0:0:0:0:
357,39,433153,1,8,0:1:0:0:
245,87,433365,6,0,L|99:87,1,131.25,8|0,0:1|0:0,3:0:0:0:
53,79,433791,2,0,B|90:99|90:99|90:144,1,87.5,8|2,0:3|0:0,3:0:0:0:
45,258,434216,1,8,0:0:0:0:
133,345,434429,1,8,0:1:0:0:
239,283,434642,38,0,P|312:278|374:284,1,131.25,8|8,0:3|0:3,3:0:0:0:
406,321,435068,2,0,P|448:327|491:319,1,87.5,0|2,0:0|0:0,3:0:0:0:
448,224,435493,1,8,0:0:0:0:
365,158,435706,1,8,0:1:0:0:
264,127,435919,6,0,P|191:122|129:128,1,131.25,8|0,0:1|0:0,3:0:0:0:
97,165,436345,2,0,P|54:171|11:163,1,87.5,8|2,0:3|0:0,3:0:0:0:
55,68,436770,1,8,0:0:0:0:
138,13,436983,1,8,0:1:0:0:
245,13,437195,37,4,0:1:0:0:
