osu file format v14

[General]
AudioFilename: audio.mp3
AudioLeadIn: 0
PreviewTime: 97666
Countdown: 0
SampleSet: Soft
StackLeniency: 0.7
Mode: 0
LetterboxInBreaks: 0
WidescreenStoryboard: 1

[Editor]
DistanceSpacing: 1.3
BeatDivisor: 4
GridSize: 4
TimelineZoom: 2.2

[Metadata]
Title:Ooki na Hane de! (Cut Ver.)
TitleUnicode:おおきなはねで!(Cut Ver.)
Artist:Numtack05
ArtistUnicode:Numtack05
Creator:Mafumafu
Version:neonat's Hard
Source:osu!
Tags:mappers' mappers guild featured artist fa version vocaloid プーチンP シリーズ putinp putin-p series kagamine rin 鏡音リン With big wings big rush regraz noffy l3nny neonat japanese electronic
BeatmapID:2653416
BeatmapSetID:1075635

[Difficulty]
HPDrainRate:5
CircleSize:4
OverallDifficulty:6
ApproachRate:7
SliderMultiplier:1.5
SliderTickRate:1

[Events]
//Background and Video events
0,0,"with_big_wings.jpg",0,0
//Break Periods
//Storyboard Layer 0 (Background)
//Storyboard Layer 1 (Fail)
//Storyboard Layer 2 (Pass)
//Storyboard Layer 3 (Foreground)
//Storyboard Layer 4 (Overlay)
//Storyboard Sound Samples

[TimingPoints]
84,439.56043956044,4,2,71,45,1,0
14149,-100,4,2,71,55,0,0
28215,-100,4,2,71,67,0,0
28875,-100,4,2,72,67,0,0
29534,-100,4,2,71,67,0,0
29974,-100,4,2,72,67,0,0
30413,-100,4,2,71,67,0,0
30633,-100,4,2,72,67,0,0
31292,-100,4,2,71,67,0,0
31732,-100,4,2,72,67,0,0
32171,-100,4,2,71,67,0,0
32501,-100,4,2,72,67,0,0
33051,-100,4,2,71,67,0,0
33490,-100,4,2,72,67,0,0
33930,-100,4,2,71,67,0,0
34369,-100,4,2,72,67,0,0
34809,-100,4,2,71,67,0,0
35029,-100,4,2,72,67,0,0
35248,-100,4,2,71,67,0,0
35908,-100,4,2,72,67,0,0
36567,-100,4,2,71,67,0,0
37007,-100,4,2,72,67,0,0
37446,-100,4,2,71,67,0,0
37666,-100,4,2,72,67,0,0
38325,-100,4,2,71,67,0,0
38765,-100,4,2,72,67,0,0
39204,-100,4,2,71,67,0,0
39534,-100,4,2,72,67,0,0
40084,-100,4,2,71,67,0,0
40523,-100,4,2,72,67,0,0
40963,-100,4,2,71,67,0,0
41402,-100,4,2,72,67,0,0
42281,-111.111111111111,4,2,71,55,0,0
98545,-100,4,2,72,78,0,1
111732,-100,4,2,72,78,0,0
112611,-100,4,2,72,78,0,1
126677,-100,4,2,72,67,0,0
140743,-133.333333333333,4,2,71,55,0,0
141182,-133.333333333333,4,2,71,55,0,0
141622,-133.333333333333,4,2,71,55,0,0
142062,-133.333333333333,4,2,71,55,0,0
142501,-133.333333333333,4,2,71,55,0,0
142941,-133.333333333333,4,2,71,55,0,0

[Colours]
Combo1 : 15,133,251
Combo2 : 69,117,133
Combo3 : 227,45,182

[HitObjects]
123,192,28215,5,4,0:2:0:0:
171,125,28435,2,0,B|210:128|210:128|268:102,1,75,0|8,0:0|0:2,0:0:0:0:
318,80,28875,2,0,P|359:91|394:203,1,150,4|4,0:3|0:3,0:0:0:0:
365,256,29534,1,8,0:2:0:0:
215,326,29974,1,4,0:3:0:0:
146,281,30193,2,0,B|138:246|138:246|150:192,1,75,0|8,0:0|0:2,0:0:0:0:
187,135,30633,1,4,0:3:0:0:
153,59,30853,2,0,B|88:69|88:69|-3:52,1,150,2|8,0:3|0:2,0:0:0:0:
234,48,31732,5,4,0:3:0:0:
314,67,31952,2,0,B|353:72|353:72|394:64,1,75,0|8,0:0|0:2,0:0:0:0:
468,47,32391,1,0,0:0:0:0:
450,127,32611,2,0,B|438:202|438:202|473:285,1,150,4|8,0:3|0:2,0:0:0:0:
304,347,33490,1,4,0:3:0:0:
221,338,33710,2,0,L|136:329,1,75,0|8,0:0|0:2,0:0:0:0:
82,277,34149,1,0,0:0:0:0:
82,277,34259,1,0,0:0:0:0:
82,277,34369,2,0,P|68:234|84:115,1,150,4|8,0:3|0:2,0:0:0:0:
230,191,35248,5,4,0:2:0:0:
309,214,35468,2,0,B|347:220|347:220|407:202,1,75,0|8,0:0|0:2,0:0:0:0:
445,156,35908,2,0,P|465:109|390:39,1,150,4|4,0:3|0:3,0:0:0:0:
325,49,36567,1,8,0:2:0:0:
169,105,37007,1,4,0:3:0:0:
222,167,37226,2,0,P|229:209|214:265,1,75,0|8,0:0|0:2,0:0:0:0:
176,308,37666,1,4,0:3:0:0:
95,326,37886,2,0,L|252:353,1,150,2|8,0:3|0:2,0:0:0:0:
406,329,38765,5,4,0:3:0:0:
467,274,38985,2,0,B|475:236|475:236|461:178,1,75,0|8,0:0|0:2,0:0:0:0:
428,127,39424,1,0,0:0:0:0:
347,147,39644,2,0,B|266:162|266:162|173:145,1,150,4|8,0:3|0:2,0:0:0:0:
72,44,40523,1,4,0:3:0:0:
123,108,40743,2,0,P|126:140|109:194,1,75,0|8,0:0|0:2,0:0:0:0:
46,226,41182,1,0,0:0:0:0:
46,226,41292,1,0,0:0:0:0:
46,226,41402,2,0,P|43:258|60:312,1,75,4|0,0:3|0:0,0:0:0:0:
128,334,41842,1,4,0:3:0:0:
128,334,42281,5,4,0:2:0:0:
289,349,42721,2,0,L|435:357,1,134.999995880127,2|2,0:2|0:2,0:0:0:0:
461,284,43380,2,0,L|307:275,1,134.999995880127,2|2,0:2|0:2,0:0:0:0:
247,256,44040,2,0,P|206:218|189:132,1,134.999995880127,4|2,0:3|0:2,0:0:0:0:
247,89,44699,2,0,P|288:127|305:213,1,134.999995880127,2|2,0:2|0:2,0:0:0:0:
178,300,45578,1,2,0:2:0:0:
178,300,45798,6,0,P|127:304|42:248,1,134.999995880127,6|0,0:3|0:0,0:0:0:0:
28,188,46457,1,2,0:2:0:0:
50,103,46677,1,2,0:2:0:0:
116,46,46897,2,0,L|182:54,2,67.4999979400635
140,130,47556,2,0,P|232:126|255:6,1,202.499993820191,6|0,0:3|0:0,0:0:0:0:
182,54,48435,1,2,0:2:0:0:
464,190,49314,5,6,0:3:0:0:
303,118,49754,2,0,B|214:133|214:133|146:113,1,134.999995880127,2|2,0:2|0:2,0:0:0:0:
157,207,50413,2,0,B|205:222|205:222|313:202,1,134.999995880127,2|2,0:2|0:2,0:0:0:0:
375,221,51073,2,0,P|398:259|392:348,1,134.999995880127,0|2,0:0|0:2,0:0:0:0:
304,347,51732,2,0,L|152:333,1,134.999995880127,2|2,0:2|0:2,0:0:0:0:
82,326,52391,1,0,0:0:0:0:
36,146,52831,6,0,P|102:151|172:101,1,134.999995880127,6|0,0:3|0:0,0:0:0:0:
198,38,53490,1,2,0:2:0:0:
288,105,53710,2,0,L|429:97,1,134.999995880127,2|0,0:2|0:0,0:0:0:0:
494,147,54369,1,2,0:2:0:0:
414,240,54589,2,0,L|259:231,1,134.999995880127,6|0,0:3|0:0,0:0:0:0:
193,252,55248,1,2,0:2:0:0:
90,178,55468,2,0,P|79:143|127:57,1,134.999995880127,2|2,0:2|0:2,0:0:0:0:
209,56,56127,1,2,0:2:0:0:
278,109,56347,5,6,0:3:0:0:
176,252,56787,2,0,L|166:331,1,67.4999979400635,2|2,0:2|0:2,0:0:0:0:
253,300,57226,2,0,L|274:368,1,67.4999979400635,10|0,0:2|0:0,0:0:0:0:
359,345,57666,2,0,P|432:319|455:252,1,134.999995880127,2|4,0:2|0:3,0:0:0:0:
478,186,58325,1,2,0:2:0:0:
466,98,58545,2,0,L|472:22,1,67.4999979400635,2|2,0:2|0:2,0:0:0:0:
385,52,58985,2,0,L|379:128,1,67.4999979400635,6|4,0:3|0:3,0:0:0:0:
305,166,59424,1,8,0:2:0:0:
156,72,59864,5,6,0:3:0:0:
71,94,60084,2,0,L|-17:87,2,67.4999979400635,2|10|2,0:2|0:2|0:2,0:0:0:0:
131,157,60743,2,0,P|138:191|125:235,1,67.4999979400635,2|4,0:2|0:3,0:0:0:0:
57,269,61182,2,0,P|121:256|205:288,1,134.999995880127,10|4,0:2|0:3,0:0:0:0:
262,319,61842,1,2,0:2:0:0:
349,316,62062,2,0,P|381:298|398:263,1,67.4999979400635,2|2,0:2|0:2,0:0:0:0:
369,188,62501,2,0,P|352:149|369:54,1,134.999995880127,10|6,0:2|0:3,0:0:0:0:
440,15,63160,1,2,0:2:0:0:
440,102,63380,5,6,0:3:0:0:
314,133,63600,2,0,B|227:142|227:142|159:129,1,134.999995880127,2|2,0:2|0:2,0:0:0:0:
211,224,64259,2,0,L|356:209,1,134.999995880127,10|2,0:2|0:2,0:0:0:0:
130,67,65358,1,2,0:2:0:0:
58,16,65578,1,2,0:2:0:0:
41,102,65798,1,2,0:2:0:0:
113,153,66018,2,0,L|191:148,1,67.4999979400635,10|0,0:2|0:0,0:0:0:0:
268,188,66457,2,0,L|354:182,1,67.4999979400635,6|0,0:3|0:0,0:0:0:0:
445,200,66897,6,0,P|485:184|506:74,1,134.999995880127,6|0,0:3|0:0,0:0:0:0:
461,35,67556,1,2,0:2:0:0:
343,51,67776,2,0,B|324:122|324:122|339:205,1,134.999995880127,10|0,0:2|0:0,0:0:0:0:
367,264,68435,1,2,0:2:0:0:
274,347,68655,2,0,B|195:335,1,67.4999979400635,6|0,0:3|0:0,0:0:0:0:
487,360,69314,1,2,0:2:0:0:
361,361,69534,2,0,B|282:349,1,67.4999979400635,6|8,0:3|0:2,0:0:0:0:
207,336,69974,1,2,0:2:0:0:
49,163,70413,5,4,0:2:0:0:
201,184,70853,2,0,L|337:194,1,134.999995880127,2|10,0:2|0:2,0:0:0:0:
340,281,71512,2,0,L|205:271,1,134.999995880127,2|2,0:2|0:2,0:0:0:0:
128,313,72171,2,0,P|78:301|32:223,1,134.999995880127,4|2,0:3|0:2,0:0:0:0:
91,168,72831,2,0,P|95:121|26:37,1,134.999995880127,2|0,0:2|0:0,0:0:0:0:
243,132,73710,1,0,0:0:0:0:
243,132,73930,6,0,P|305:138|392:131,1,134.999995880127,6|0,0:3|0:0,0:0:0:0:
438,70,74589,1,2,0:2:0:0:
498,133,74809,1,8,0:2:0:0:
483,219,75029,2,0,L|477:300,2,67.4999979400635,0|4|0,0:0|0:3|0:0,0:0:0:0:
398,243,75688,2,0,L|402:175,2,67.4999979400635,6|8|4,0:3|0:2|0:3,0:0:0:0:
260,352,76567,2,0,P|192:365|113:340,1,134.999995880127,6|8,0:3|0:2,0:0:0:0:
8,221,77446,5,6,0:3:0:0:
166,145,77886,2,0,P|196:208|161:289,1,134.999995880127,2|10,0:2|0:2,0:0:0:0:
106,213,78545,2,0,P|76:150|111:69,1,134.999995880127,2|2,0:2|0:2,0:0:0:0:
175,60,79204,2,0,B|253:68|253:68|329:51,1,134.999995880127,4|2,0:3|0:2,0:0:0:0:
392,28,79864,2,0,P|419:57|421:175,1,134.999995880127,2|2,0:2|0:2,0:0:0:0:
367,207,80523,1,4,0:3:0:0:
186,130,80963,6,0,P|157:137|115:228,1,134.999995880127,6|0,0:3|0:0,0:0:0:0:
142,307,81622,1,2,0:2:0:0:
35,360,81842,2,0,P|12:329|-2:236,1,134.999995880127,10|0,0:2|0:0,0:0:0:0:
33,155,82501,1,2,0:2:0:0:
144,126,82721,2,0,P|208:140|277:120,1,134.999995880127,6|0,0:3|0:0,0:0:0:0:
333,57,83380,1,2,0:2:0:0:
430,127,83600,1,6,0:3:0:0:
422,24,83820,1,8,0:2:0:0:
351,132,84040,2,0,P|345:164|349:215,1,67.4999979400635,6|2,0:3|0:2,0:0:0:0:
397,269,84479,5,6,0:3:0:0:
252,369,84919,2,0,L|185:360,1,67.4999979400635,2|2,0:2|0:2,0:0:0:0:
132,289,85358,2,0,L|214:282,1,67.4999979400635,10|0,0:2|0:0,0:0:0:0:
280,248,85798,2,0,P|295:209|266:107,1,134.999995880127,2|4,0:2|0:3,0:0:0:0:
197,80,86457,1,2,0:2:0:0:
128,135,86677,2,0,L|45:128,1,67.4999979400635,2|2,0:2|0:2,0:0:0:0:
19,51,87116,2,0,L|102:44,1,67.4999979400635,6|4,0:3|0:3,0:0:0:0:
166,9,87556,1,8,0:2:0:0:
397,122,87996,5,6,0:3:0:0:
480,97,88215,2,0,L|502:24,2,67.4999979400635,2|2|2,0:2|0:2|0:2,0:0:0:0:
407,46,88875,2,0,L|328:37,1,67.4999979400635,6|6,0:3|0:3,0:0:0:0:
265,84,89314,2,0,P|248:126|285:233,1,134.999995880127,8|4,0:2|0:3,0:0:0:0:
350,235,89974,1,2,0:2:0:0:
452,271,90193,2,0,P|475:306|473:353,1,67.4999979400635,2|2,0:2|0:2,0:0:0:0:
389,333,90633,2,0,B|339:358|303:320|254:354,1,134.999995880127,10|6,0:2|0:3,0:0:0:0:
171,365,91292,6,0,P|125:345|86:264,2,134.999995880127,2|2|2,0:2|0:2|0:2,0:0:0:0:
179,269,92391,2,0,L|179:196,1,67.4999979400635,10|0,0:2|0:0,0:0:0:0:
101,132,92831,2,0,L|103:222,1,67.4999979400635,2|0,0:2|0:0,0:0:0:0:
20,231,93270,1,4,0:3:0:0:
90,283,93490,1,2,0:2:0:0:
173,254,93710,2,0,L|252:246,1,67.4999979400635,2|2,0:2|0:2,0:0:0:0:
303,307,94149,2,0,B|386:311|386:311|448:275,1,134.999995880127,10|6,0:2|0:3,0:0:0:0:
339,99,95029,6,0,P|332:49|421:13,1,134.999995880127,6|0,0:3|0:0,0:0:0:0:
482,14,95688,1,2,0:2:0:0:
461,120,95908,2,0,B|452:201|452:201|475:271,1,134.999995880127,10|0,0:2|0:0,0:0:0:0:
502,333,96567,1,2,0:2:0:0:
405,316,96787,2,0,L|312:308,1,67.4999979400635,6|0,0:3|0:0,0:0:0:0:
305,323,97116,2,0,L|223:315,1,67.4999979400635
202,298,97446,1,0,0:0:0:0:
260,188,97666,5,0,0:0:0:0:
260,188,98105,1,0,0:0:0:0:
260,188,98545,6,0,P|294:151|297:103,1,75,4|0,0:2|0:0,0:0:0:0:
296,78,98875,2,0,L|203:70,1,75,4|0,0:3|0:0,0:0:0:0:
172,67,99204,1,0,0:0:0:0:
106,151,99424,2,0,L|187:144,1,75,4|4,0:3|0:3,0:0:0:0:
299,127,99864,2,0,L|337:136,2,37.5,8|0|0,0:2|0:0|0:0,0:0:0:0:
232,218,100303,6,0,P|224:255|245:310,1,75,4|8,0:3|0:2,0:0:0:0:
271,320,100633,2,0,L|352:312,1,75,4|0,0:3|0:0,0:0:0:0:
394,305,100963,1,0,0:0:0:0:
446,208,101182,2,0,L|464:115,1,75,4|4,0:3|0:3,0:0:0:0:
404,53,101622,1,8,0:2:0:0:
308,72,101842,1,8,0:2:0:0:
308,72,101952,1,8,0:2:0:0:
308,72,102062,6,0,P|268:88|219:90,1,75,4|0,0:3|0:0,0:0:0:0:
197,61,102391,2,0,P|155:62|119:77,1,75,4|0,0:3|0:0,0:0:0:0:
85,103,102721,1,0,0:0:0:0:
80,217,102941,2,0,P|128:217|163:189,1,75,4|4,0:3|0:3,0:0:0:0:
240,165,103380,1,8,0:2:0:0:
333,191,103600,1,0,0:0:0:0:
361,298,103820,6,0,L|345:353,2,37.5,4|0|4,0:3|0:0|0:3,0:0:0:0:
445,249,104259,2,0,L|483:162,1,75,8|0,0:2|0:0,0:0:0:0:
393,126,104699,2,0,L|405:33,1,75,4|4,0:3|0:3,0:0:0:0:
307,73,105138,2,0,L|277:-5,1,75,4|8,0:3|0:2,0:0:0:0:
198,73,105578,6,0,P|146:80|109:66,1,75,4|0,0:2|0:0,0:0:0:0:
80,52,105908,2,0,P|51:75|39:131,1,75,4|0,0:3|0:0,0:0:0:0:
35,158,106237,1,0,0:0:0:0:
146,197,106457,2,0,L|241:179,1,75,4|4,0:3|0:3,0:0:0:0:
314,157,106897,2,0,L|366:162,2,37.5,8|0|0,0:2|0:0|0:0,0:0:0:0:
274,249,107336,6,0,P|264:286|276:324,1,75,4|8,0:3|0:2,0:0:0:0:
293,365,107666,2,0,L|187:368,1,75,4|0,0:3|0:0,0:0:0:0:
169,359,107996,1,0,0:0:0:0:
65,373,108215,2,0,L|-8:346,1,75,4|4,0:3|0:3,0:0:0:0:
15,251,108655,1,8,0:2:0:0:
2,154,108875,1,8,0:2:0:0:
2,154,108985,1,8,0:2:0:0:
2,154,109094,6,0,P|63:160|90:148,1,75,4|0,0:3|0:0,0:0:0:0:
108,120,109424,2,0,L|192:122,1,75,4|0,0:3|0:0,0:0:0:0:
231,126,109754,1,0,0:0:0:0:
330,164,109974,2,0,P|368:141|382:89,1,75,4|4,0:3|0:3,0:0:0:0:
340,25,110413,2,0,P|386:30|438:11,1,75,8|0,0:2|0:0,0:0:0:0:
493,80,110853,6,0,L|516:123,2,37.5,4|0|4,0:3|0:0|0:3,0:0:0:0:
436,160,111292,2,0,L|430:241,1,75,8|0,0:2|0:0,0:0:0:0:
360,303,111732,1,4,0:3:0:0:
144,19,112611,6,0,L|126:106,1,75,4|0,0:2|0:0,0:0:0:0:
157,132,112941,2,0,L|169:222,1,75,4|0,0:3|0:0,0:0:0:0:
144,249,113270,1,0,0:0:0:0:
26,278,113490,2,0,P|14:317|24:371,1,75,4|4,0:3|0:3,0:0:0:0:
111,376,113930,2,0,L|165:381,2,37.5,8|0|0,0:2|0:0|0:0,0:0:0:0:
202,308,114369,6,0,L|287:302,1,75,4|8,0:3|0:2,0:0:0:0:
324,313,114699,2,0,B|355:304|370:322|413:301,1,75,4|0,0:3|0:0,0:0:0:0:
438,279,115029,1,0,0:0:0:0:
409,185,115248,2,0,P|401:149|423:89,1,75,4|4,0:3|0:3,0:0:0:0:
474,39,115688,1,8,0:2:0:0:
381,8,115908,1,8,0:2:0:0:
381,8,116018,1,8,0:2:0:0:
381,8,116127,6,0,P|336:26|291:23,1,75,4|0,0:3|0:0,0:0:0:0:
261,19,116457,2,0,P|212:11|167:20,1,75,4|0,0:3|0:0,0:0:0:0:
141,33,116787,1,0,0:0:0:0:
217,111,117007,2,0,P|230:146|221:202,1,75,4|4,0:3|0:3,0:0:0:0:
132,161,117446,2,0,P|130:198|143:233,1,75,8|0,0:2|0:0,0:0:0:0:
227,283,117886,6,0,L|281:295,2,37.5,4|0|4,0:3|0:0|0:3,0:0:0:0:
122,341,118325,2,0,L|221:364,1,75,8|0,0:2|0:0,0:0:0:0:
293,357,118765,2,0,L|366:340,1,75,4|4,0:3|0:3,0:0:0:0:
460,314,119204,1,4,0:3:0:0:
257,190,119644,6,0,P|236:138|246:91,1,75,4|0,0:2|0:0,0:0:0:0:
279,95,119974,2,0,L|369:102,1,75,4|0,0:3|0:0,0:0:0:0:
386,64,120303,1,0,0:0:0:0:
293,7,120523,2,0,L|202:0,1,75,4|4,0:3|0:3,0:0:0:0:
124,31,120963,2,0,L|69:22,2,37.5,8|0|0,0:2|0:0|0:0,0:0:0:0:
52,106,121402,6,0,L|36:196,1,75,4|8,0:3|0:2,0:0:0:0:
70,217,121732,2,0,L|52:298,1,75,4|0,0:3|0:0,0:0:0:0:
65,337,122062,1,0,0:0:0:0:
174,322,122281,2,0,P|210:313|274:333,1,75,4|4,0:3|0:3,0:0:0:0:
336,358,122721,1,8,0:2:0:0:
429,329,122941,1,8,0:2:0:0:
429,329,123051,1,8,0:2:0:0:
429,329,123160,6,0,P|474:286|483:253,1,75,4|0,0:3|0:0,0:0:0:0:
463,228,123490,2,0,P|474:183|499:146,1,75,4|0,0:3|0:0,0:0:0:0:
498,110,123820,1,0,0:0:0:0:
428,40,124040,2,0,L|437:4,2,37.5,4|8|4,0:3|0:2|0:3,0:0:0:0:
391,130,124479,2,0,B|352:140|352:140|290:138,1,75,8|0,0:2|0:0,0:0:0:0:
268,129,124809,1,8,0:2:0:0:
268,129,124919,6,0,L|212:119,2,37.5,4|0|4,0:3|0:0|0:3,0:0:0:0:
255,32,125358,2,0,L|168:14,1,75,8|0,0:2|0:0,0:0:0:0:
133,6,125688,1,8,0:2:0:0:
133,6,125798,2,0,L|86:18,2,37.5,4|8|4,0:3|0:2|0:3,0:0:0:0:
105,99,126237,2,0,L|86:199,1,75,4|8,0:3|0:2,0:0:0:0:
102,220,126567,1,8,0:2:0:0:
102,220,126677,6,0,P|154:237|234:207,2,112.5,4|4|4,0:2|0:3|0:3,0:0:0:0:
158,140,127556,2,0,L|260:122,1,75,8|4,0:2|0:3,0:0:0:0:
318,173,127996,2,0,L|391:159,1,75,8|8,0:2|0:2,0:0:0:0:
459,89,128435,6,0,P|460:40|417:-5,2,112.5,4|4|0,0:3|0:3|0:0,0:0:0:0:
484,183,129314,2,0,L|499:260,1,75,8|0,0:2|0:0,0:0:0:0:
470,350,129754,1,4,0:3:0:0:
380,310,129974,1,8,0:2:0:0:
289,346,130193,6,0,L|172:342,2,112.5,4|4|4,0:3|0:3|0:3,0:0:0:0:
380,310,131073,2,0,P|396:264|388:206,1,75,8|8,0:2|0:2,0:0:0:0:
377,193,131402,1,8,0:2:0:0:
377,193,131512,2,0,L|290:183,1,75,8|4,0:2|0:3,0:0:0:0:
214,140,131952,6,0,L|81:148,2,112.5,4|4|4,0:3|0:3|0:3,0:0:0:0:
281,69,132831,2,0,L|328:64,3,37.5,8|0|8|8,0:2|0:0|0:2|0:2,0:0:0:0:
366,57,133270,2,0,L|441:48,1,75,8|8,0:2|0:3,0:0:0:0:
489,39,133600,1,8,0:3:0:0:
489,39,133710,6,0,P|506:84|493:169,2,112.5,4|4|4,0:3|0:3|0:3,0:0:0:0:
412,137,134589,2,0,P|408:188|421:229,1,75,8|8,0:2|0:2,0:0:0:0:
487,274,135029,2,0,P|491:325|478:366,1,75,8|8,0:2|0:3,0:0:0:0:
389,361,135468,5,12,0:3:0:0:
389,361,135578,2,0,L|292:351,1,75,8|8,0:3|0:3,0:0:0:0:
273,325,135908,2,0,L|179:326,1,75,0|8,0:0|0:2,0:0:0:0:
104,247,136347,2,0,L|187:250,1,75,4|4,0:3|0:3,0:0:0:0:
267,207,136787,1,8,0:2:0:0:
295,113,137007,1,8,0:2:0:0:
361,42,137226,6,0,B|450:53|450:53|487:40,2,112.5,4|4|0,0:3|0:3|0:0,0:0:0:0:
264,25,138105,2,0,P|220:17|170:33,1,75,8|8,0:2|0:2,0:0:0:0:
144,40,138435,1,8,0:2:0:0:
144,40,138545,2,0,P|152:84|146:120,1,75,8|8,0:2|0:2,0:0:0:0:
85,189,138985,6,0,P|79:231|92:275,1,75,4|8,0:3|0:2,0:0:0:0:
124,292,139314,1,4,0:3:0:0:
124,292,139424,2,0,L|214:278,1,75,8|4,0:2|0:3,0:0:0:0:
294,262,139864,2,0,L|338:253,3,37.5,4|0|8|8,0:3|0:0|0:2|0:2,0:0:0:0:
351,210,140303,2,0,L|257:228,1,75,8|4,0:2|0:3,0:0:0:0:
256,192,140743,12,2,144259,0:2:0:0:
