osu file format v14

[General]
AudioFilename: audio.mp3
AudioLeadIn: 0
PreviewTime: 97666
Countdown: 0
SampleSet: Soft
StackLeniency: 0.7
Mode: 0
LetterboxInBreaks: 0
WidescreenStoryboard: 0

[Editor]
DistanceSpacing: 1.5
BeatDivisor: 4
GridSize: 32
TimelineZoom: 2.2

[Metadata]
Title:Ooki na Hane de! (Cut Ver.)
TitleUnicode:おおきなはねで!(Cut Ver.)
Artist:Numtack05
ArtistUnicode:Numtack05
Creator:Mafumafu
Version:Tsubasa
Source:osu!
Tags:mappers' mappers guild featured artist fa version vocaloid プーチンP シリーズ putinp putin-p series kagamine rin 鏡音リン With big wings big rush regraz noffy l3nny neonat japanese electronic
BeatmapID:2250717
BeatmapSetID:1075635

[Difficulty]
HPDrainRate:6
CircleSize:4.5
OverallDifficulty:7.2
ApproachRate:8.6
SliderMultiplier:1.8
SliderTickRate:1

[Events]
//Background and Video events
0,0,"with_big_wings.jpg",0,0
//Break Periods
//Storyboard Layer 0 (Background)
//Storyboard Layer 1 (Fail)
//Storyboard Layer 2 (Pass)
//Storyboard Layer 3 (Foreground)
//Storyboard Layer 4 (Overlay)
//Storyboard Sound Samples

[TimingPoints]
84,439.56043956044,4,2,71,45,1,0
14149,-100,4,2,71,55,0,0
28215,-100,4,2,71,67,0,0
28875,-100,4,2,72,67,0,0
29534,-100,4,2,71,67,0,0
29974,-100,4,2,72,67,0,0
30413,-100,4,2,71,67,0,0
30633,-100,4,2,72,67,0,0
31292,-100,4,2,71,67,0,0
31732,-100,4,2,72,67,0,0
32171,-100,4,2,71,67,0,0
32501,-100,4,2,72,67,0,0
33051,-100,4,2,71,67,0,0
33490,-100,4,2,72,67,0,0
33930,-100,4,2,71,67,0,0
34369,-100,4,2,72,67,0,0
34809,-100,4,2,71,67,0,0
35029,-100,4,2,72,67,0,0
35248,-100,4,2,71,67,0,0
35908,-100,4,2,72,67,0,0
36567,-100,4,2,71,67,0,0
37007,-100,4,2,72,67,0,0
37446,-100,4,2,71,67,0,0
37666,-100,4,2,72,67,0,0
38325,-100,4,2,71,67,0,0
38765,-100,4,2,72,67,0,0
39204,-100,4,2,71,67,0,0
39534,-100,4,2,72,67,0,0
40084,-100,4,2,71,67,0,0
40523,-100,4,2,72,67,0,0
40963,-100,4,2,71,67,0,0
41402,-100,4,2,72,67,0,0
42281,-166.666666666667,4,2,71,55,0,0
98545,-100,4,2,72,78,0,1
111732,-100,4,2,72,78,0,0
112611,-100,4,2,72,78,0,1
126677,-100,4,2,72,67,0,0
140743,-133.333333333333,4,2,71,55,0,0

[Colours]
Combo1 : 15,133,251
Combo2 : 69,117,133
Combo3 : 227,45,182

[HitObjects]
51,43,28215,6,0,P|71:76|68:142,1,90,4|0,0:2|0:0,0:0:0:0:
53,173,28545,1,0,0:0:0:0:
53,173,28655,2,0,P|115:165|163:175,1,90,8|4,0:2|0:3,0:0:0:0:
225,58,29094,2,0,P|301:51|332:151,1,180,2|8,0:3|0:2,0:0:0:0:
282,199,29754,1,0,0:0:0:0:
167,307,29974,6,0,P|108:303|55:315,1,90,4|0,0:3|0:0,0:0:0:0:
44,328,30303,1,0,0:0:0:0:
44,328,30413,2,0,L|50:222,1,90,8|4,0:2|0:3,0:0:0:0:
63,62,30853,2,0,P|116:36|168:137,1,180,2|8,0:3|0:2,0:0:0:0:
221,181,31512,1,0,0:0:0:0:
373,134,31732,6,0,L|256:130,1,90,4|0,0:3|0:0,0:0:0:0:
260,149,32062,1,0,0:0:0:0:
260,149,32171,2,0,P|251:215|268:251,1,90,8|0,0:2|0:0,0:0:0:0:
455,300,32611,2,0,P|482:225|449:116,1,180,4|8,0:3|0:2,0:0:0:0:
406,63,33270,1,0,0:0:0:0:
247,84,33490,6,0,P|179:93|146:63,1,90,4|0,0:3|0:0,0:0:0:0:
144,39,33820,1,0,0:0:0:0:
144,39,33930,2,0,P|91:63|52:56,1,90,8|0,0:2|0:0,0:0:0:0:
21,179,34369,1,4,0:3:0:0:
21,179,34589,1,4,0:3:0:0:
77,338,34809,2,0,L|81:238,1,90,8|4,0:2|0:3,0:0:0:0:
205,161,35248,6,0,P|129:159|102:178,1,90,4|0,0:2|0:0,0:0:0:0:
92,179,35578,1,0,0:0:0:0:
92,179,35688,2,0,P|94:117|85:77,1,90,8|4,0:2|0:3,0:0:0:0:
199,36,36127,2,0,P|290:27|379:38,1,180,2|8,0:3|0:2,0:0:0:0:
452,97,36787,1,0,0:0:0:0:
344,156,37007,6,0,P|285:159|249:147,1,90,4|0,0:3|0:0,0:0:0:0:
220,136,37336,1,0,0:0:0:0:
220,136,37446,2,0,P|234:194|226:244,1,90,8|4,0:2|0:3,0:0:0:0:
88,309,37886,2,0,L|282:299,1,180,2|8,0:3|0:2,0:0:0:0:
335,348,38545,1,0,0:0:0:0:
405,221,38765,6,0,L|392:115,1,90,4|0,0:3|0:0,0:0:0:0:
416,101,39094,1,0,0:0:0:0:
416,101,39204,2,0,P|348:106|310:77,1,90,8|0,0:2|0:0,0:0:0:0:
212,42,39644,2,0,P|122:50|100:142,1,180,4|8,0:3|0:2,0:0:0:0:
160,182,40303,1,0,0:0:0:0:
67,309,40523,6,0,P|120:287|162:292,1,90,4|0,0:3|0:0,0:0:0:0:
168,322,40853,1,0,0:0:0:0:
168,322,40963,2,0,P|209:350|261:349,1,90,8|0,0:2|0:0,0:0:0:0:
395,301,41402,1,4,0:3:0:0:
151,289,41842,1,4,0:3:0:0:
224,197,42062,1,4,0:3:0:0:
125,83,42281,6,0,L|118:209,1,107.999996704102,4|2,0:2|0:2,0:0:0:0:
248,234,43160,1,2,0:2:0:0:
248,234,43380,2,0,L|250:125,1,107.999996704102,2|2,0:2|0:2,0:0:0:0:
249,48,44040,2,0,P|297:26|347:45,1,107.999996704102,4|2,0:3|0:2,0:0:0:0:
403,102,44699,2,0,L|410:211,2,107.999996704102,2|2|2,0:2|0:2|0:2,0:0:0:0:
453,41,45798,5,6,0:3:0:0:
245,32,46457,1,2,0:2:0:0:
245,32,46677,2,0,P|204:49|130:32,1,107.999996704102,2|0,0:2|0:0,0:0:0:0:
64,34,47336,1,0,0:0:0:0:
64,34,47556,2,0,L|69:104,2,53.9999983520508,6|0|0,0:3|0:0|0:0,0:0:0:0:
66,184,48435,2,0,P|112:177|166:226,1,107.999996704102,2|0,0:2|0:0,0:0:0:0:
158,288,49094,1,0,0:0:0:0:
158,288,49314,6,0,P|92:300|41:328,2,107.999996704102,6|2|2,0:3|0:2|0:2,0:0:0:0:
227,323,50413,2,0,P|296:339|333:319,1,107.999996704102,2|2,0:2|0:2,0:0:0:0:
382,266,51073,2,0,L|368:135,1,107.999996704102,0|2,0:0|0:2,0:0:0:0:
423,102,51732,1,2,0:2:0:0:
290,45,52171,2,0,P|248:73|184:59,1,107.999996704102,2|2,0:2|0:2,0:0:0:0:
130,28,52831,6,0,L|17:37,1,107.999996704102,6|0,0:3|0:0,0:0:0:0:
29,111,53490,1,2,0:2:0:0:
29,111,53710,2,0,P|39:169|29:236,1,107.999996704102,2|0,0:2|0:0,0:0:0:0:
101,254,54369,1,2,0:2:0:0:
171,221,54589,2,0,P|166:167|176:114,1,107.999996704102,6|0,0:3|0:0,0:0:0:0:
237,63,55248,1,2,0:2:0:0:
237,63,55468,2,0,P|288:52|346:69,1,107.999996704102,2|2,0:2|0:2,0:0:0:0:
393,120,56127,1,2,0:2:0:0:
393,120,56347,5,6,0:3:0:0:
392,252,56787,2,0,L|464:251,1,53.9999983520508,2|2,0:2|0:2,0:0:0:0:
461,322,57226,2,0,P|436:348|362:336,1,107.999996704102,10|2,0:2|0:2,0:0:0:0:
294,320,57886,1,0,0:0:0:0:
294,320,58105,2,0,L|219:323,1,53.9999983520508,4|2,0:3|0:2,0:0:0:0:
150,240,58545,1,2,0:2:0:0:
159,260,58655,2,0,P|163:312|150:329,1,53.9999983520508,8|0,0:2|0:0,0:0:0:0:
151,327,58985,2,0,L|80:338,2,53.9999983520508,6|4|8,0:3|0:3|0:2,0:0:0:0:
90,143,59864,6,0,P|148:145|188:93,1,107.999996704102,6|10,0:3|0:2,0:0:0:0:
176,72,60413,2,0,L|254:77,1,53.9999983520508,4|4,0:3|0:3,0:0:0:0:
270,79,60743,1,2,0:2:0:0:
345,33,60963,1,4,0:3:0:0:
409,89,61182,2,0,P|456:79|478:81,1,53.9999983520508,10|0,0:2|0:0,0:0:0:0:
487,154,61622,1,4,0:3:0:0:
410,281,62062,1,2,0:0:0:0:
399,303,62171,2,0,P|442:306|474:321,1,53.9999983520508,4|0,0:3|0:0,0:0:0:0:
475,336,62501,2,0,P|425:321|368:321,1,107.999996704102,10|6,0:2|0:3,0:0:0:0:
304,352,63160,1,2,0:2:0:0:
304,352,63380,6,0,P|264:350|231:361,1,53.9999983520508,6|2,0:3|0:2,0:0:0:0:
103,350,64040,1,2,0:2:0:0:
103,350,64259,2,0,L|30:353,1,53.9999983520508,10|0,0:2|0:0,0:0:0:0:
47,276,64699,2,0,L|100:273,1,53.9999983520508,2|0,0:2|0:0,0:0:0:0:
159,220,65138,1,4,0:3:0:0:
224,261,65358,2,0,P|261:262|288:242,1,53.9999983520508,2|0,0:0|0:0,0:0:0:0:
289,235,65688,2,0,L|277:166,1,53.9999983520508,4|0,0:3|0:0,0:0:0:0:
293,155,66018,2,0,P|349:137|393:154,1,107.999996704102,10|6,0:2|0:3,0:0:0:0:
442,93,66677,1,0,0:0:0:0:
393,35,66897,6,0,P|315:39|279:7,1,107.999996704102,6|0,0:3|0:0,0:0:0:0:
223,57,67556,1,2,0:2:0:0:
223,57,67776,2,0,P|145:53|109:85,1,107.999996704102,10|0,0:2|0:0,0:0:0:0:
58,109,68435,1,2,0:2:0:0:
124,145,68655,2,0,L|135:265,1,107.999996704102,6|0,0:3|0:0,0:0:0:0:
86,310,69314,1,2,0:2:0:0:
86,310,69534,2,0,P|43:307|22:310,2,53.9999983520508,6|8|2,0:3|0:2|0:2,0:0:0:0:
238,265,70413,6,0,P|305:264|323:210,1,107.999996704102,4|2,0:2|0:2,0:0:0:0:
320,160,71073,1,0,0:0:0:0:
320,160,71292,2,0,L|393:162,1,53.9999983520508,10|2,0:2|0:2,0:0:0:0:
438,109,71732,1,0,0:0:0:0:
438,109,71952,1,2,0:2:0:0:
397,39,72171,6,0,P|362:36|341:20,1,53.9999983520508,4|0,0:3|0:0,0:0:0:0:
324,34,72501,1,0,0:0:0:0:
303,41,72611,1,2,0:0:0:0:
216,82,72831,2,0,P|223:129|217:196,1,107.999996704102,2|0,0:2|0:0,0:0:0:0:
139,189,73490,2,0,L|74:186,1,53.9999983520508
29,290,73930,6,0,P|82:309|125:296,1,80.9999975280763,6|0,0:3|0:0,0:0:0:0:
130,292,74369,2,0,L|126:251,2,26.9999991760254
201,301,74809,2,0,P|263:292|314:318,1,107.999996704102,8|4,0:2|0:3,0:0:0:0:
375,347,75468,1,0,0:0:0:0:
437,294,75688,2,0,L|432:224,2,53.9999983520508,6|8|4,0:3|0:2|0:3,0:0:0:0:
422,153,76567,2,0,P|374:161|340:131,1,80.9999975280763,6|4,0:3|0:3,0:0:0:0:
322,115,77007,2,0,L|324:38,1,53.9999983520508,8|0,0:2|0:0,0:0:0:0:
200,40,77446,6,0,P|148:31|84:46,1,107.999996704102,6|2,0:3|0:2,0:0:0:0:
42,100,78105,1,0,0:0:0:0:
42,100,78325,2,0,P|73:146|79:204,1,107.999996704102,10|0,0:2|0:0,0:0:0:0:
39,261,78985,1,2,0:2:0:0:
39,261,79204,2,0,P|80:272|131:321,1,107.999996704102,4|2,0:3|0:2,0:0:0:0:
130,336,79754,2,0,P|174:329|200:337,1,53.9999983520508,4|0,0:3|0:0,0:0:0:0:
208,336,80084,2,0,L|201:263,1,53.9999983520508,8|2,0:2|0:2,0:0:0:0:
240,216,80523,2,0,P|291:216|312:228,1,53.9999983520508,4|0,0:3|0:0,0:0:0:0:
369,220,80963,6,0,P|412:199|412:123,1,107.999996704102,6|0,0:3|0:0,0:0:0:0:
402,65,81622,1,2,0:2:0:0:
402,65,81842,2,0,B|349:51|345:90|293:79,1,107.999996704102,10|0,0:2|0:0,0:0:0:0:
234,33,82501,1,2,0:2:0:0:
234,33,82721,2,0,P|257:75|242:142,1,107.999996704102,6|0,0:3|0:0,0:0:0:0:
229,155,83270,1,4,0:3:0:0:
229,155,83380,1,2,0:2:0:0:
155,123,83600,2,0,L|77:120,1,53.9999983520508,6|8,0:3|0:2,0:0:0:0:
50,177,84040,2,0,P|61:211|56:243,1,53.9999983520508,6|2,0:3|0:2,0:0:0:0:
50,306,84479,6,0,P|91:327|160:292,1,107.999996704102,6|2,0:3|0:2,0:0:0:0:
185,242,85138,1,2,0:2:0:0:
185,242,85358,2,0,L|174:126,1,107.999996704102,10|2,0:2|0:2,0:0:0:0:
162,58,86018,1,0,0:0:0:0:
236,42,86237,2,0,P|265:55|297:54,1,53.9999983520508,4|2,0:3|0:2,0:0:0:0:
364,38,86677,1,0,0:0:0:0:
359,58,86787,2,0,P|403:60|430:75,1,53.9999983520508,8|0,0:0|0:0,0:0:0:0:
434,62,87116,2,0,P|429:104|435:128,2,53.9999983520508,6|4|8,0:3|0:3|0:2,0:0:0:0:
475,238,87996,6,0,P|419:235|377:284,1,107.999996704102,6|2,0:3|0:2,0:0:0:0:
398,298,88545,2,0,L|325:289,1,53.9999983520508,4|0,0:3|0:0,0:0:0:0:
308,306,88875,1,6,0:3:0:0:
245,259,89094,1,6,0:3:0:0:
188,309,89314,2,0,P|149:326|115:322,1,53.9999983520508,8|0,0:2|0:0,0:0:0:0:
72,282,89754,2,0,L|77:162,1,107.999996704102,4|2,0:3|0:2,0:0:0:0:
102,156,90303,1,4,0:3:0:0:
102,156,90413,1,2,0:2:0:0:
157,90,90633,2,0,P|208:83|250:131,1,107.999996704102,10|6,0:2|0:3,0:0:0:0:
225,191,91292,1,2,0:2:0:0:
225,191,91512,6,0,L|294:190,1,53.9999983520508,6|2,0:3|0:2,0:0:0:0:
274,266,91952,2,0,L|220:266,1,53.9999983520508,0|2,0:0|0:2,0:0:0:0:
150,241,92391,2,0,P|130:291|162:344,1,107.999996704102,10|2,0:2|0:2,0:0:0:0:
230,343,93051,1,0,0:0:0:0:
288,296,93270,2,0,L|292:248,2,26.9999991760254,4|0|0,0:3|0:0|0:0,0:0:0:0:
341,349,93710,1,2,0:2:0:0:
341,349,93930,1,2,0:2:0:0:
416,326,94149,2,0,P|437:279|426:206,1,107.999996704102,10|6,0:2|0:3,0:0:0:0:
394,153,94809,1,0,0:0:0:0:
394,153,95029,6,0,P|347:175|274:164,1,107.999996704102,6|0,0:3|0:0,0:0:0:0:
281,92,95688,1,2,0:2:0:0:
281,92,95908,2,0,P|328:70|401:81,1,107.999996704102,10|0,0:2|0:0,0:0:0:0:
455,101,96567,1,2,0:2:0:0:
455,101,96787,2,0,L|450:173,1,53.9999983520508,6|0,0:3|0:0,0:0:0:0:
477,187,97116,2,0,L|473:254,1,53.9999983520508,2|4,0:0|0:3,0:0:0:0:
491,272,97446,1,2,0:0:0:0:
491,272,97666,1,0,0:0:0:0:
61,108,98545,6,0,P|135:99|154:59,1,90,4|0,0:2|0:0,0:0:0:0:
177,29,98875,1,4,0:3:0:0:
177,29,98985,1,8,0:2:0:0:
259,90,99204,2,0,L|325:86,1,45,0|8,0:0|0:2,0:0:0:0:
378,81,99424,1,4,0:3:0:0:
374,123,99534,1,8,0:2:0:0:
369,159,99644,1,4,0:3:0:0:
476,63,99864,1,8,0:2:0:0:
303,87,100084,2,0,L|253:92,1,45,0|8,0:0|0:2,0:0:0:0:
159,130,100303,5,0,0:0:0:0:
154,94,100413,1,8,0:2:0:0:
150,52,100523,1,8,0:2:0:0:
121,209,100743,2,0,P|179:215|223:182,1,90,8|0,0:2|0:0,0:0:0:0:
230,173,101073,1,8,0:2:0:0:
230,173,101182,2,0,L|285:181,1,45,4|8,0:3|0:2,0:0:0:0:
321,187,101402,1,4,0:3:0:0:
384,119,101622,1,8,0:2:0:0:
434,305,101842,1,8,0:2:0:0:
440,267,101952,1,8,0:2:0:0:
443,233,102062,6,0,P|363:234|358:319,1,180,4|8,0:3|0:2,0:0:0:0:
265,234,102721,2,0,L|208:233,1,45,0|8,0:0|0:2,0:0:0:0:
142,217,102941,1,4,0:3:0:0:
144,257,103051,1,8,0:2:0:0:
144,299,103160,1,4,0:3:0:0:
24,175,103380,2,0,P|95:155|105:121,1,90,8|0,0:2|0:0,0:0:0:0:
83,75,103710,1,8,0:2:0:0:
83,75,103820,6,0,P|137:77|171:112,1,90,4|4,0:3|0:3,0:0:0:0:
26,24,104259,1,8,0:2:0:0:
218,28,104479,1,0,0:0:0:0:
218,28,104589,1,8,0:2:0:0:
218,28,104699,2,0,L|281:29,1,45,4|8,0:3|0:2,0:0:0:0:
315,107,104919,2,0,L|253:108,1,45,4|8,0:3|0:2,0:0:0:0:
164,168,105138,2,0,P|154:220|173:265,1,90,4|8,0:3|0:2,0:0:0:0:
228,286,105468,1,8,0:2:0:0:
294,272,105578,6,0,P|215:269|121:320,1,180,4|8,0:2|0:2,0:0:0:0:
26,149,106237,2,0,L|84:154,1,45,0|8,0:0|0:2,0:0:0:0:
157,197,106457,1,4,0:3:0:0:
151,149,106567,1,8,0:2:0:0:
143,104,106677,1,4,0:3:0:0:
40,44,106897,1,8,0:2:0:0:
212,60,107116,2,0,L|270:55,1,45,0|8,0:0|0:2,0:0:0:0:
343,12,107336,5,0,0:0:0:0:
337,60,107446,1,8,0:2:0:0:
329,105,107556,1,8,0:2:0:0:
226,165,107776,1,8,0:2:0:0:
151,304,107996,2,0,L|93:309,1,45,0|8,0:0|0:2,0:0:0:0:
20,352,108216,1,4,0:3:0:0:
26,304,108326,1,8,0:2:0:0:
34,259,108436,1,4,0:3:0:0:
137,199,108656,1,8,0:2:0:0:
302,269,108875,1,8,0:2:0:0:
302,269,108985,1,8,0:2:0:0:
302,269,109094,6,0,P|362:286|388:189,1,180,4|8,0:3|0:2,0:0:0:0:
252,118,109754,2,0,L|257:181,1,45,0|8,0:0|0:2,0:0:0:0:
178,163,109974,1,4,0:3:0:0:
138,158,110084,1,8,0:2:0:0:
95,150,110193,1,4,0:3:0:0:
222,235,110413,1,8,0:2:0:0:
44,217,110633,1,0,0:0:0:0:
44,217,110743,1,8,0:2:0:0:
44,217,110853,6,0,P|81:277|86:333,1,90,4|4,0:3|0:3,0:0:0:0:
125,355,111182,1,0,0:0:0:0:
125,355,111292,2,0,P|175:339|239:341,1,90,8|0,0:2|0:0,0:0:0:0:
282,358,111622,1,8,0:2:0:0:
282,358,111732,1,4,0:3:0:0:
376,333,112611,6,0,P|359:266|385:148,1,180,4|8,0:2|0:2,0:0:0:0:
183,117,113270,2,0,L|249:116,1,45,0|8,0:0|0:2,0:0:0:0:
298,160,113490,1,4,0:3:0:0:
301,124,113600,1,8,0:2:0:0:
306,84,113710,1,4,0:3:0:0:
217,196,113930,1,8,0:2:0:0:
409,272,114149,2,0,L|343:271,1,45,0|8,0:0|0:2,0:0:0:0:
294,315,114369,5,0,0:0:0:0:
291,279,114479,1,8,0:2:0:0:
286,239,114589,1,8,0:2:0:0:
375,351,114809,1,8,0:2:0:0:
375,193,115029,2,0,L|441:192,1,45,0|8,0:0|0:2,0:0:0:0:
490,236,115249,1,4,0:3:0:0:
493,200,115359,1,8,0:2:0:0:
498,160,115469,1,4,0:3:0:0:
409,272,115689,1,8,0:2:0:0:
199,256,115908,2,0,L|244:252,1,45,8|8,0:2|0:2,0:0:0:0:
125,261,116127,6,0,P|77:235|122:134,1,180,4|8,0:3|0:2,0:0:0:0:
255,174,116787,2,0,L|257:113,1,45,0|8,0:0|0:2,0:0:0:0:
245,55,117007,1,4,0:3:0:0:
209,59,117116,1,8,0:2:0:0:
178,62,117226,1,4,0:3:0:0:
339,50,117446,1,8,0:2:0:0:
455,152,117666,1,0,0:0:0:0:
455,152,117776,1,8,0:2:0:0:
455,152,117886,6,0,P|371:148|348:244,1,180,4|8,0:3|0:2,0:0:0:0:
469,270,118545,2,0,L|475:211,1,45,0|8,0:0|0:2,0:0:0:0:
448,151,118765,1,4,0:3:0:0:
446,120,118875,1,8,0:2:0:0:
491,98,118985,1,4,0:3:0:0:
488,61,119094,1,8,0:2:0:0:
443,34,119204,2,0,P|388:21|323:42,1,90,4|8,0:3|0:2,0:0:0:0:
314,82,119534,1,8,0:2:0:0:
250,52,119644,6,0,P|175:84|93:22,1,180,4|8,0:2|0:2,0:0:0:0:
38,175,120303,2,0,L|87:167,1,45,0|8,0:0|0:2,0:0:0:0:
165,232,120523,1,4,0:3:0:0:
170,185,120633,1,8,0:2:0:0:
176,137,120743,1,4,0:3:0:0:
25,91,120963,1,8,0:2:0:0:
176,137,121182,2,0,L|225:129,1,45,0|8,0:0|0:2,0:0:0:0:
303,194,121402,5,0,0:0:0:0:
308,147,121512,1,8,0:2:0:0:
314,99,121622,1,8,0:2:0:0:
163,53,121842,1,8,0:2:0:0:
314,99,122062,2,0,L|363:91,1,45,0|8,0:0|0:2,0:0:0:0:
441,156,122282,1,4,0:3:0:0:
446,109,122392,1,8,0:2:0:0:
452,61,122502,1,4,0:3:0:0:
301,15,122722,1,8,0:2:0:0:
169,94,122941,1,8,0:2:0:0:
169,94,123051,1,8,0:2:0:0:
169,94,123160,6,0,P|97:126|176:161,1,180,4|8,0:3|0:2,0:0:0:0:
285,193,123820,2,0,L|235:194,1,45,0|8,0:0|0:2,0:0:0:0:
164,258,124040,1,4,0:3:0:0:
166,215,124149,1,8,0:2:0:0:
166,171,124259,1,4,0:3:0:0:
102,299,124479,1,8,0:2:0:0:
74,114,124699,2,0,L|124:115,1,45,0|8,0:0|0:2,0:0:0:0:
199,179,124919,5,4,0:3:0:0:
197,136,125028,1,0,0:0:0:0:
197,92,125138,1,4,0:3:0:0:
275,226,125358,1,8,0:2:0:0:
387,171,125578,2,0,L|319:170,1,45,0|8,0:0|0:2,0:0:0:0:
270,86,125798,2,0,L|349:91,1,45,4|8,0:3|0:2,0:0:0:0:
407,25,126018,1,4,0:3:0:0:
401,53,126127,1,8,0:2:0:0:
395,82,126237,1,4,0:3:0:0:
486,195,126457,1,8,0:2:0:0:
502,235,126567,1,8,0:2:0:0:
484,282,126677,6,0,B|372:255|385:378|226:353,1,270,4|4,0:2|0:3,0:0:0:0:
176,183,127556,2,0,P|154:141|172:89,1,90,8|4,0:2|0:3,0:0:0:0:
236,130,127996,1,8,0:2:0:0:
251,286,128215,1,8,0:2:0:0:
251,286,128325,1,0,0:0:0:0:
251,286,128435,1,4,0:3:0:0:
85,313,128655,6,0,L|292:298,1,180,8|0,0:2|0:0,0:0:0:0:
324,148,129314,2,0,P|375:172|393:212,1,90
392,234,129644,1,8,0:2:0:0:
392,234,129754,1,4,0:3:0:0:
263,300,129974,1,8,0:2:0:0:
333,165,130193,6,0,L|353:-11,2,135,4|4|4,0:3|0:3|0:3,0:0:0:0:
176,71,131073,2,0,P|108:67|92:81,1,90,8|8,0:2|0:2,0:0:0:0:
73,105,131402,1,8,0:2:0:0:
73,105,131512,1,8,0:2:0:0:
192,174,131732,1,4,0:3:0:0:
32,244,131952,6,0,P|47:296|46:340,1,90,4|0,0:3|0:0,0:0:0:0:
33,355,132281,1,4,0:3:0:0:
33,355,132391,2,0,P|85:345|126:349,1,90,0|4,0:0|0:3,0:0:0:0:
226,285,132831,1,8,0:2:0:0:
226,285,132941,1,0,0:0:0:0:
226,285,133051,2,0,L|222:358,1,45,8|8,0:2|0:2,0:0:0:0:
293,356,133270,1,8,0:2:0:0:
323,355,133380,1,8,0:2:0:0:
353,355,133490,1,8,0:3:0:0:
383,354,133600,1,8,0:3:0:0:
409,353,133710,6,0,P|445:309|376:206,1,180,4|4,0:3|0:3,0:0:0:0:
317,178,134369,1,4,0:3:0:0:
317,178,134589,2,0,P|243:203|213:196,1,90,8|8,0:2|0:2,0:0:0:0:
209,170,134919,1,8,0:2:0:0:
209,170,135029,2,0,L|217:117,1,45,8|4,0:2|0:3,0:0:0:0:
133,90,135248,2,0,L|141:147,1,45,8|0,0:3|0:0,0:0:0:0:
62,175,135468,5,12,0:3:0:0:
62,175,135578,2,0,P|36:224|53:270,1,90,8|8,0:3|0:3,0:0:0:0:
67,281,135908,1,0,0:0:0:0:
173,263,136127,2,0,L|234:270,1,45,8|0,0:2|0:0,0:0:0:0:
287,279,136347,1,4,0:3:0:0:
251,148,136567,1,4,0:3:0:0:
107,214,136787,2,0,P|59:201|24:217,1,90,8|8,0:2|0:2,0:0:0:0:
12,226,137116,1,8,0:2:0:0:
12,226,137226,6,0,L|8:157,1,45,4|8,0:3|0:2,0:0:0:0:
95,88,137446,2,0,L|95:140,1,45,4|0,0:3|0:0,0:0:0:0:
178,174,137666,1,8,0:2:0:0:
178,174,137886,1,0,0:0:0:0:
266,66,138106,2,0,L|365:66,1,90,4|4,0:3|0:3,0:0:0:0:
348,102,138435,1,8,0:2:0:0:
341,137,138545,1,8,0:2:0:0:
459,116,138765,1,8,0:2:0:0:
317,217,138985,6,0,P|385:204|408:178,1,90,4|8,0:3|0:2,0:0:0:0:
407,154,139314,1,4,0:3:0:0:
407,154,139424,2,0,P|405:211|421:259,1,90,8|4,0:2|0:3,0:0:0:0:
222,150,139864,2,0,L|168:141,1,45,4|0,0:3|0:0,0:0:0:0:
101,194,140084,1,8,0:2:0:0:
97,144,140193,1,8,0:2:0:0:
94,100,140303,1,8,0:2:0:0:
172,229,140523,1,4,0:3:0:0:
9,127,140743,5,6,0:2:0:0:
287,126,141622,2,0,P|334:136|416:95,1,135.000005149842,2|2,0:2|0:2,0:0:0:0:
456,40,142281,1,0,0:0:0:0:
456,40,142501,2,0,P|443:146|464:248,1,202.500007724762,2|0,0:2|0:0,0:0:0:0:
475,320,143380,2,0,B|409:316|410:355|342:348,1,135.000005149842,2|2,0:2|0:2,0:0:0:0:
265,348,144040,1,0,0:0:0:0:
265,348,144259,6,0,P|197:294|274:248,1,202.500007724762,2|0,0:2|0:0,0:0:0:0:
352,249,145138,2,0,P|373:220|362:124,1,135.000005149842,2|0,0:2|0:0,0:0:0:0:
304,70,145798,1,2,0:2:0:0:
304,70,146018,2,0,P|241:107|102:86,1,202.500007724762,2|0,0:2|0:0,0:0:0:0:
61,47,146897,1,2,0:2:0:0:
38,240,147336,1,2,0:2:0:0:
38,240,147556,1,2,0:2:0:0:
34,344,147776,6,0,B|134:354|148:262|236:298,1,202.500007724762,2|0,0:2|0:0,0:0:0:0:
293,342,148655,2,0,P|352:354|421:305,1,135.000005149842,2|0,0:2|0:0,0:0:0:0:
429,235,149314,1,0,0:0:0:0:
429,235,149534,2,0,P|331:219|242:283,1,202.500007724762,2|0,0:2|0:0,0:0:0:0:
184,330,150413,2,0,P|145:348|51:305,1,135.000005149842,2|0,0:2|0:0,0:0:0:0:
41,238,151073,1,0,0:0:0:0:
41,238,151292,6,0,L|46:18,1,202.500007724762,2|0,0:2|0:0,0:0:0:0:
132,71,152171,2,0,P|194:59|249:125,1,135.000005149842,2|0,0:2|0:0,0:0:0:0:
233,179,152831,1,0,0:0:0:0:
233,179,153051,2,0,B|180:205|128:186|128:186|130:240|90:270,1,202.500007724762,2|0,0:2|0:0,0:0:0:0:
141,331,153930,2,0,P|190:329|237:342,2,67.5000025749208,2|0|2,0:2|0:0|0:2,0:0:0:0:
