osu file format v14

[General]
AudioFilename: audio.mp3
AudioLeadIn: 0
PreviewTime: 28588
Countdown: 1
SampleSet: Normal
StackLeniency: 0.7
Mode: 0
LetterboxInBreaks: 0
EpilepsyWarning: 1
WidescreenStoryboard: 1

[Editor]
Bookmarks: 15255,30493,45731,60969,76207,83826
DistanceSpacing: 0.75
BeatDivisor: 4
GridSize: 32
TimelineZoom: 0.8

[Metadata]
Title:Ikari
TitleUnicode:いかり
Artist:Numtack05
ArtistUnicode:Numtack05
Creator:Noffy
Version:Regraz's Hard
Source:
Tags:Regraz Mafumafu Ataraxia Vocaloid Anger Anchor 初音ミ Hatsune Miku クプーチンp シリーズ putinp putin-p series Japanese Novelty Rock
BeatmapID:2166613
BeatmapSetID:1031812

[Difficulty]
HPDrainRate:5
CircleSize:3.7
OverallDifficulty:6
ApproachRate:7
SliderMultiplier:1.6
SliderTickRate:1

[Events]
//Background and Video events
0,0,"anchor or anger.png",0,0
//Break Periods
//Storyboard Layer 0 (Background)
//Storyboard Layer 1 (Fail)
//Storyboard Layer 2 (Pass)
//Storyboard Layer 3 (Foreground)
//Storyboard Layer 4 (Overlay)
//Storyboard Sound Samples

[TimingPoints]
17,476.190476190476,4,2,10,70,1,0
17,-100,4,2,10,70,0,0
15255,-100,4,2,20,80,0,0
29540,-100,4,2,22,80,0,0
30493,-100,4,1,30,100,0,1
38112,-100,4,1,35,100,0,1
45731,-100,4,2,40,100,0,1
47636,-100,4,2,41,100,0,1
48588,-100,4,2,42,100,0,1
49540,-100,4,2,43,100,0,1
51445,-100,4,2,44,100,0,1
52397,-100,4,2,45,100,0,1
53350,-100,4,2,40,100,0,1
55255,-100,4,2,41,100,0,1
56207,-100,4,2,42,100,0,1
57159,-100,4,2,43,100,0,1
59064,-100,4,2,44,100,0,1
60016,-100,3,2,0,100,0,0
60017,-100,3,2,45,100,0,0
60493,-100,3,2,40,100,0,0
60969,-100,3,2,51,100,0,0
61445,-100,3,2,50,100,0,0
62635,-100,3,2,50,100,0,0
62874,-100,3,2,51,100,0,0
63350,-100,3,2,50,100,0,0
64540,-100,3,2,50,100,0,0
64778,-100,3,2,51,100,0,0
65254,-100,3,2,50,100,0,0
65493,-100,3,2,50,100,0,0
65731,-100,3,2,50,100,0,0
66683,-100,3,2,51,100,0,0
66921,-100,3,2,50,80,0,0
67159,-100,3,2,50,100,0,0
67636,-100,3,2,51,100,0,0
67874,-100,3,2,50,80,0,0
68112,-100,3,2,50,100,0,0
68588,-100,3,2,51,100,0,0
69064,-100,3,2,50,100,0,0
70254,-100,3,2,50,100,0,0
70493,-100,3,2,51,100,0,0
70969,-100,3,2,50,100,0,0
72159,-100,3,2,50,100,0,0
72397,-100,3,2,51,100,0,0
72873,-100,3,2,50,100,0,0
73112,-100,3,2,50,100,0,0
73350,-100,3,2,50,100,0,0
74064,-100,3,2,50,100,0,0
74302,-100,3,2,51,100,0,0
74540,-100,3,2,50,80,0,0
74778,-100,3,2,50,100,0,0
75255,-100,3,2,51,100,0,0
75493,-100,3,2,50,80,0,0
75731,-100,3,2,50,100,0,0
76207,-100,3,2,60,100,0,0
76683,-100,3,2,61,70,0,0
77159,-100,3,2,60,100,0,0
77635,-100,3,2,61,70,0,0
78112,-100,3,2,60,100,0,0
78588,-100,3,2,61,70,0,0
79064,-100,3,2,60,100,0,0
79540,-100,3,2,61,70,0,0
80016,-100,3,2,60,100,0,0
80492,-100,3,2,61,70,0,0
80969,-100,3,2,60,100,0,0
81445,-100,3,2,61,70,0,0
81921,-100,3,2,60,100,0,0
82159,-100,3,2,61,70,0,0
82397,-100,3,2,60,100,0,0
82635,-100,3,2,61,70,0,0
82874,-100,3,2,60,100,0,0
83112,-100,3,2,61,70,0,0
83350,-100,3,2,60,100,0,0

[Colours]
Combo1 : 108,108,108
Combo2 : 114,205,187
Combo3 : 176,189,83
Combo4 : 175,95,90
Combo5 : 230,230,230

[HitObjects]
336,76,17,53,0,1:0:0:0:
336,76,255,2,2,L|440:63,2,80,2|10|0,0:3|0:0|0:3,0:0:0:0:
242,54,969,2,2,P|246:111|243:236,2,160,0|10|0,1:0|0:0|1:0,0:0:0:0:
149,27,2159,5,2,0:3:0:0:
149,27,2397,2,2,P|105:48|52:50,1,80,10|0,0:0|0:3,0:0:0:0:
28,136,2874,2,0,P|19:234|23:278,2,120,8|2|8,1:3|0:3|0:2,0:0:0:0:
74,51,3826,53,0,1:2:0:0:
143,117,4064,2,2,L|233:113,1,80,2|10,0:3|0:0,0:0:0:0:
291,46,4540,1,0,0:3:0:0:
385,63,4778,2,2,P|417:137|385:231,1,160,0|10,1:0|0:0,0:3:0:0:
312,254,5493,1,2,0:3:0:0:
392,305,5731,6,2,L|496:298,1,80,0|2,1:0|0:3,0:3:0:0:
479,206,6207,2,2,L|399:211,1,80,10|2,0:0|0:3,0:0:0:0:
312,254,6683,2,0,P|262:256|180:290,2,120,4|2|8,1:3|0:3|0:2,0:0:0:0:
399,211,7636,53,0,1:0:0:0:
399,211,7874,2,2,L|409:112,2,80,2|10|0,0:3|0:0|0:3,0:0:0:0:
313,254,8588,2,2,P|241:240|208:159,2,160,0|10|0,1:0|0:0|1:0,0:0:0:0:
306,158,9778,5,2,0:3:0:0:
280,65,10016,2,2,P|211:75|184:94,1,80,10|0,0:0|0:3,0:0:0:0:
119,127,10493,2,0,P|56:131|-6:71,2,120,8|2|8,1:3|0:3|0:2,0:0:0:0:
207,166,11445,53,0,1:2:0:0:
207,166,11683,2,2,L|201:260,2,80,2|10|0,0:3|0:0|0:3,0:0:0:0:
213,70,12397,2,2,P|290:69|330:155,1,160,0|10,1:0|0:0,0:3:0:0:
336,229,13112,1,2,0:3:0:0:
336,229,13350,6,2,L|437:219,1,80,0|2,1:0|0:3,0:3:0:0:
420,316,13826,2,2,L|333:324,1,80,10|2,0:0|0:3,0:0:0:0:
260,269,14302,2,0,B|286:223|286:223|276:136,2,120,4|2|8,1:3|0:3|0:2,0:0:0:0:
170,305,15255,53,2,1:2:0:0:
170,305,15493,2,0,L|75:299,2,80,2|8|0,3:2|0:1|1:0,0:0:0:0:
249,359,16207,1,0,3:2:0:0:
249,359,16445,2,0,P|345:346|389:358,2,120,2|2|2,1:2|1:2|1:2,0:0:0:0:
170,305,17397,6,0,L|176:193,1,80,2|8,3:2|0:1,0:0:0:0:
183,129,17874,1,0,1:0:0:0:
183,129,18112,1,0,3:0:0:0:
95,167,18350,2,0,P|46:198|42:271,2,120,2|2|2,1:2|1:2|1:3,0:0:0:0:
36,90,19302,54,0,L|22:1,2,80,2|8|0,3:3|0:1|1:0,0:0:0:0:
124,53,20016,1,0,3:2:0:0:
210,95,20255,2,0,L|362:85,2,120,2|2|2,1:3|1:3|1:1,0:3:0:0:
140,161,21207,22,0,P|135:239|147:271,1,80,2|10,1:0|1:1,0:1:0:0:
216,290,21683,1,2,1:2:0:0:
216,290,21921,2,0,L|324:277,1,80,2|2,1:0|1:0,0:1:0:0:
380,323,22397,1,10,0:1:0:0:
380,323,22636,1,2,1:0:0:0:
465,279,22874,38,0,L|460:103,1,160,2|8,1:2|0:1,0:0:0:0:
406,40,23588,1,0,1:0:0:0:
406,40,23826,1,0,3:2:0:0:
326,93,24064,2,0,P|275:84|185:89,2,120,2|2|2,1:2|1:2|1:2,0:0:0:0:
354,184,25016,5,2,3:2:0:0:
354,184,25255,2,0,L|471:171,1,80,8|0,0:1|1:0,0:0:0:0:
490,252,25731,1,0,3:0:0:0:
420,318,25969,2,0,L|280:301,2,120,2|2|2,1:2|1:2|1:3,0:0:0:0:
490,252,26921,54,0,P|497:199|490:159,1,80,2|8,3:3|0:1,0:0:0:0:
432,98,27397,1,0,1:0:0:0:
432,98,27636,1,0,3:2:0:0:
352,151,27874,2,0,P|291:144|197:144,2,120,2|2|2,1:3|1:3|1:1,0:3:0:0:
416,222,28826,22,0,L|409:301,1,80,2|10,1:0|1:1,0:1:0:0:
315,319,29302,1,2,1:2:0:0:
229,276,29540,1,10,0:1:0:0:
143,319,29778,1,10,0:1:0:0:
48,302,30016,38,0,L|32:238,1,40,10|8,0:1|0:1,0:0:0:0:
29,234,30255,1,10,0:1:0:0:
22,206,30374,1,8,0:1:0:0:
17,181,30493,38,0,P|74:173|114:72,1,160,4|8,0:1|0:0,0:0:0:0:
233,81,31207,1,0,0:0:0:0:
233,81,31445,2,0,L|408:72,1,160,0|8,0:0|0:0,0:0:0:0:
462,145,32159,1,0,0:0:0:0:
462,145,32397,6,0,P|473:216|461:248,2,80,0|0|8,0:0|0:0|0:0,0:0:0:0:
400,72,33112,1,0,0:0:0:0:
336,143,33350,2,0,L|344:328,1,160,0|8,0:0|0:0,0:0:0:0:
424,354,34064,1,0,0:0:0:0:
342,302,34302,38,0,P|235:302|176:325,1,160,4|8,0:2|0:0,0:0:0:0:
97,284,35016,1,0,0:0:0:0:
97,284,35255,2,0,P|147:210|226:168,1,160,0|8,0:0|0:0,0:0:0:0:
299,195,35969,1,0,0:0:0:0:
299,195,36207,6,0,P|301:245|327:283,2,80,0|0|8,0:0|1:0|0:0,0:0:0:0:
361,122,36921,1,0,0:0:0:0:
436,181,37159,2,0,L|421:353,1,160,0|8,0:0|0:0,0:0:0:0:
512,314,37874,1,0,0:0:0:0:
422,340,38112,6,0,P|357:327|254:340,2,160,4|8|0,0:1|0:0|0:0,0:0:0:0:
512,314,39302,1,0,0:0:0:0:
512,314,39540,2,0,L|506:218,1,80,8|0,0:0|0:0,0:0:0:0:
425,183,40016,38,0,L|432:88,1,80,0|0,3:2|0:0,0:0:0:0:
351,48,40493,2,0,P|282:60|252:49,1,80,8|0,0:0|3:0,0:0:0:0:
184,21,40969,2,0,L|82:29,1,80,0|0,3:2|0:0,0:0:0:0:
8,33,41445,1,8,0:0:0:0:
8,33,41683,1,0,3:0:0:0:
16,128,41921,6,0,L|182:114,1,160,4|8,0:2|0:0,0:0:0:0:
263,154,42636,1,0,0:0:0:0:
263,154,42874,2,0,P|280:266|248:320,1,160,0|8,0:0|0:0,0:0:0:0:
169,331,43588,1,0,0:0:0:0:
169,331,43826,6,0,L|77:327,2,80,0|0|8,0:0|0:0|0:0,0:0:0:0:
200,240,44540,1,0,0:0:0:0:
224,147,44778,2,0,P|328:144|381:183,1,160,0|8,0:0|0:0,0:0:0:0:
371,173,45731,38,0,L|378:81,2,80,4|0|8,1:0|1:0|1:0,0:0:0:0:
295,232,46445,2,0,L|301:311,2,80,0|0|0,1:0|1:0|1:0,0:0:0:0:
216,176,47159,1,8,1:0:0:0:
216,176,47397,1,0,1:0:0:0:
216,176,47636,6,0,L|223:84,2,80,0|0|8,1:0|1:0|1:0,0:0:0:0:
140,235,48350,2,0,L|146:314,2,80,0|0|0,1:0|1:0|1:0,0:0:0:0:
61,179,49064,1,8,1:0:0:0:
61,179,49302,1,0,1:0:0:0:
110,96,49540,6,0,P|186:112|204:132,1,80,0|0,1:0|1:0,0:0:0:0:
211,204,50016,2,0,P|287:188|305:168,1,80,8|0,1:0|1:0,0:0:0:0:
321,98,50493,2,0,P|397:114|415:134,1,80,0|0,1:0|1:0,0:0:0:0:
453,190,50969,1,8,1:0:0:0:
453,190,51207,1,0,1:0:0:0:
453,190,51445,38,0,L|441:298,1,80,0|0,1:0|1:0,0:0:0:0:
363,321,51921,2,0,L|354:241,1,80,8|0,1:0|1:0,0:0:0:0:
273,189,52397,2,0,L|261:297,1,80,0|0,1:0|1:0,0:0:0:0:
190,330,52874,1,8,1:0:0:0:
190,330,53112,1,0,1:0:0:0:
190,330,53350,6,0,P|119:307|87:307,1,80,0|0,1:0|1:0,0:0:0:0:
58,228,53826,2,0,P|119:202|152:205,1,80,8|0,1:0|1:0,0:0:0:0:
194,129,54302,2,0,P|123:106|91:106,1,80,0|0,1:0|1:0,0:0:0:0:
22,94,54778,1,8,1:0:0:0:
22,94,55016,1,0,1:0:0:0:
22,94,55255,6,0,L|40:190,1,80,0|0,1:0|1:0,0:0:0:0:
115,227,55731,2,0,L|130:134,1,80,8|0,1:0|1:0,0:0:0:0:
203,89,56207,2,0,L|221:185,1,80,0|0,1:0|1:0,0:0:0:0:
307,201,56683,1,8,1:0:0:0:
307,201,56921,1,0,1:0:0:0:
307,201,57159,38,0,P|371:178|405:146,1,80,0|0,1:0|1:0,0:0:0:0:
381,74,57636,2,0,P|329:30|284:16,1,80,8|0,1:0|1:0,0:0:0:0:
233,70,58112,2,0,P|220:136|231:182,1,80,0|0,1:0|1:0,0:0:0:0:
150,212,58588,1,8,1:0:0:0:
150,212,58826,1,0,1:0:0:0:
150,212,59064,6,0,P|86:189|52:157,1,80,0|0,1:0|1:0,0:0:0:0:
77,85,59541,2,0,P|128:41|173:27,1,80,8|0,1:0|1:0,0:0:0:0:
224,81,60017,2,0,P|236:147|225:193,2,80,0|0|8,1:0|1:0|1:1,0:0:0:0:
309,37,60731,1,0,1:0:0:0:
309,37,60969,6,0,P|377:58|470:29,2,160,2|10|2,3:2|0:0|3:2,0:0:0:0:
125,94,62397,2,0,L|232:87,1,80,10|0,0:0|0:0,0:0:0:0:
183,182,62874,38,0,P|115:203|22:174,2,160,2|10|2,3:2|0:0|3:2,0:0:0:0:
367,239,64302,2,0,L|260:232,1,80,10|0,0:0|0:0,0:0:0:0:
195,262,64778,6,0,P|183:174|200:92,1,160,2|10,3:2|0:0,0:0:0:0:
289,82,65493,1,0,0:0:0:0:
382,57,65731,2,0,P|394:135|382:214,1,160,2|10,3:2|0:0,0:0:0:0:
214,122,66683,6,0,L|101:126,1,80,2|2,3:2|0:2,0:0:0:0:
90,210,67159,2,0,L|203:214,1,80,10|2,3:2|0:2,0:0:0:0:
259,248,67636,1,2,3:2:0:0:
271,343,67874,1,2,3:2:0:0:
366,334,68112,1,10,3:2:0:0:
354,239,68350,1,2,0:2:0:0:
435,187,68588,38,0,P|439:119|434:6,2,160,2|10|2,3:2|0:0|3:2,0:0:0:0:
246,151,70016,2,0,L|325:144,1,80,10|0,0:0|0:0,0:0:0:0:
420,129,70493,6,0,P|424:197|419:310,2,160,2|10|2,3:2|0:0|3:2,0:0:0:0:
231,165,71921,2,0,L|310:171,1,80,10|0,0:0|0:0,0:0:0:0:
297,266,72397,6,0,P|195:269|115:296,1,160,2|10,3:2|0:0,0:0:0:0:
56,236,73112,1,0,0:0:0:0:
56,236,73350,2,0,P|101:285|143:390,1,160,2|10,3:2|0:0,0:0:0:0:
224,325,74064,1,0,0:0:0:0:
224,325,74302,38,0,L|341:331,1,80,2|2,3:2|0:2,0:0:0:0:
399,334,74778,2,0,L|400:242,1,80,10|2,3:2|0:2,0:0:0:0:
398,157,75255,1,2,3:2:0:0:
302,156,75493,1,2,3:2:0:0:
206,157,75731,1,10,3:2:0:0:
110,158,75969,1,2,0:2:0:0:
79,248,76207,38,2,P|18:260|-17:280,2,80,0|0|8,1:0|3:0|0:0,2:2:0:0:
217,115,77159,2,2,P|278:127|313:147,2,80,0|0|8,1:0|3:0|0:0,2:0:0:0:
344,259,78112,6,2,L|334:370,2,80,0|0|8,1:0|3:0|0:0,2:0:0:0:
199,132,79064,2,2,L|189:21,2,80,0|0|8,1:0|3:0|0:0,2:0:0:0:
84,285,80016,54,2,P|22:270|-21:283,2,80,0|0|8,1:0|3:0|0:0,2:0:0:0:
276,287,80969,2,2,P|338:302|381:289,2,80,0|0|8,1:0|3:0|0:0,2:0:0:0:
122,172,81921,6,2,L|112:67,1,80,0|0,1:0|2:0,2:0:0:0:
250,26,82397,2,2,L|242:105,1,80,0|0,1:0|2:0,2:0:0:0:
369,163,82874,1,0,1:0:0:0:
369,163,83112,1,0,0:0:0:0:
463,83,83350,1,0,1:0:0:0:
491,209,83588,53,0,1:0:0:0:
