osu file format v14

[General]
AudioFilename: audio.mp3
AudioLeadIn: 0
PreviewTime: 64976
Countdown: 0
SampleSet: Normal
StackLeniency: 0.7
Mode: 1
LetterboxInBreaks: 0
WidescreenStoryboard: 1

[Editor]
Bookmarks: 34097,50097,66097,86097,102097,118097,138097,154097,170097
DistanceSpacing: 0.9
BeatDivisor: 6
GridSize: 32
TimelineZoom: 1.1

[Metadata]
Title:Hajimari da ne!
TitleUnicode:はじまりだね!
Artist:Numtack05
ArtistUnicode:Numtack05
Creator:Jonarwhal
Version:Jonkin's Oni
Source:
Tags:it's the start beginning vocaloid kagamine rin 鏡音リン プーチンp vulkin mappers' guild mg mpg japanese swing jazz username105 jonawaga fa featured artist putinp
BeatmapID:2611408
BeatmapSetID:1256677

[Difficulty]
HPDrainRate:6.5
CircleSize:3
OverallDifficulty:6
ApproachRate:5
SliderMultiplier:1.4
SliderTickRate:1

[Events]
//Background and Video events
0,0,"Kagamine.Rin.full.404444.jpg",0,100
//Break Periods
//Storyboard Layer 0 (Background)
//Storyboard Layer 1 (Fail)
//Storyboard Layer 2 (Pass)
//Storyboard Layer 3 (Foreground)
//Storyboard Layer 4 (Overlay)
//Storyboard Sound Samples

[TimingPoints]
2060,500,4,1,0,45,1,0
85997,-100,4,1,0,55,0,0
86060,500,4,1,0,55,1,1
118060,-100,4,1,0,55,0,0
138060,500,4,1,0,55,1,1
170060,-100,4,1,0,55,0,0

[HitObjects]
256,192,16560,5,8,0:0:0:0:
256,192,17060,1,8,0:0:0:0:
256,192,17393,1,0,0:0:0:0:
256,192,17893,1,8,0:0:0:0:
256,192,18060,1,4,0:0:0:0:
256,192,18560,1,8,0:0:0:0:
256,192,18893,1,8,0:0:0:0:
256,192,19060,1,0,0:0:0:0:
256,192,19560,1,0,0:0:0:0:
256,192,19893,1,8,0:0:0:0:
256,192,20060,1,0,0:0:0:0:
256,192,20560,1,8,0:0:0:0:
256,192,20893,1,8,0:0:0:0:
256,192,21060,1,0,0:0:0:0:
256,192,21560,1,8,0:0:0:0:
256,192,21726,1,8,0:0:0:0:
256,192,21893,1,0,0:0:0:0:
256,192,22060,1,0,0:0:0:0:
256,192,22560,1,8,0:0:0:0:
256,192,22893,1,8,0:0:0:0:
256,192,23060,1,0,0:0:0:0:
256,192,23393,1,8,0:0:0:0:
256,192,23560,1,8,0:0:0:0:
256,192,23893,1,8,0:0:0:0:
256,192,24060,1,0,0:0:0:0:
256,192,24560,1,8,0:0:0:0:
256,192,24893,1,8,0:0:0:0:
256,192,25060,1,0,0:0:0:0:
256,192,25393,1,8,0:0:0:0:
256,192,25560,1,8,0:0:0:0:
256,192,25726,1,0,0:0:0:0:
256,192,25893,1,0,0:0:0:0:
256,192,26060,1,8,0:0:0:0:
256,192,26226,1,0,0:0:0:0:
256,192,26393,1,0,0:0:0:0:
256,192,26893,1,8,0:0:0:0:
256,192,27060,1,0,0:0:0:0:
256,192,27393,1,8,0:0:0:0:
256,192,27560,1,8,0:0:0:0:
256,192,27893,1,8,0:0:0:0:
256,192,28060,1,0,0:0:0:0:
256,192,28560,1,8,0:0:0:0:
256,192,28726,1,0,0:0:0:0:
256,192,28893,1,8,0:0:0:0:
256,192,29060,1,8,0:0:0:0:
256,192,29393,1,0,0:0:0:0:
256,192,29560,1,0,0:0:0:0:
256,192,29893,1,8,0:0:0:0:
256,192,30393,1,0,0:0:0:0:
256,192,30893,1,8,0:0:0:0:
256,192,31393,1,0,0:0:0:0:
256,192,31560,1,8,0:0:0:0:
256,192,31893,1,0,0:0:0:0:
256,192,32560,1,8,0:0:0:0:
256,192,32893,1,8,0:0:0:0:
256,192,33060,1,0,0:0:0:0:
256,192,33393,1,0,0:0:0:0:
256,192,33560,1,8,0:0:0:0:
256,192,33893,1,0,0:0:0:0:
256,192,34060,1,4,0:0:0:0:
256,192,34560,1,0,0:0:0:0:
256,192,35060,1,0,0:0:0:0:
256,192,35393,1,8,0:0:0:0:
256,192,35560,1,8,0:0:0:0:
256,192,35893,1,8,0:0:0:0:
256,192,36560,1,8,0:0:0:0:
256,192,37060,1,0,0:0:0:0:
256,192,37560,1,8,0:0:0:0:
256,192,37893,1,0,0:0:0:0:
256,192,38060,1,0,0:0:0:0:
256,192,38560,1,0,0:0:0:0:
256,192,38810,1,8,0:0:0:0:
256,192,38935,1,8,0:0:0:0:
256,192,39060,1,0,0:0:0:0:
256,192,39560,1,8,0:0:0:0:
256,192,39893,1,8,0:0:0:0:
256,192,40060,1,0,0:0:0:0:
256,192,40560,1,8,0:0:0:0:
256,192,41060,1,0,0:0:0:0:
256,192,41560,1,8,0:0:0:0:
256,192,41893,1,8,0:0:0:0:
256,192,42060,1,0,0:0:0:0:
256,192,42560,1,0,0:0:0:0:
256,192,42893,1,0,0:0:0:0:
256,192,43060,1,0,0:0:0:0:
256,192,43393,1,8,0:0:0:0:
256,192,43560,1,8,0:0:0:0:
256,192,43893,1,8,0:0:0:0:
256,192,44560,1,0,0:0:0:0:
256,192,44893,1,8,0:0:0:0:
256,192,45060,1,0,0:0:0:0:
256,192,45393,1,0,0:0:0:0:
256,192,45560,1,8,0:0:0:0:
256,192,45893,1,8,0:0:0:0:
256,192,46060,1,8,0:0:0:0:
256,192,46560,1,8,0:0:0:0:
256,192,46893,1,0,0:0:0:0:
256,192,47060,1,0,0:0:0:0:
256,192,47393,1,0,0:0:0:0:
256,192,47560,1,8,0:0:0:0:
256,192,47893,1,0,0:0:0:0:
256,192,48393,1,8,0:0:0:0:
256,192,48560,1,8,0:0:0:0:
256,192,48893,1,8,0:0:0:0:
256,192,49060,1,0,0:0:0:0:
256,192,49393,1,8,0:0:0:0:
256,192,49560,1,0,0:0:0:0:
256,192,49893,1,8,0:0:0:0:
256,192,50060,5,8,0:0:0:0:
256,192,50560,1,0,0:0:0:0:
256,192,50893,1,0,0:0:0:0:
256,192,51060,1,0,0:0:0:0:
256,192,51393,1,8,0:0:0:0:
256,192,51560,1,0,0:0:0:0:
256,192,51893,1,8,0:0:0:0:
256,192,52560,1,0,0:0:0:0:
256,192,53060,1,8,0:0:0:0:
256,192,53393,1,0,0:0:0:0:
256,192,53560,1,8,0:0:0:0:
256,192,53893,1,8,0:0:0:0:
256,192,54060,1,8,0:0:0:0:
256,192,54560,1,0,0:0:0:0:
256,192,54810,1,8,0:0:0:0:
256,192,54935,1,8,0:0:0:0:
256,192,55060,1,0,0:0:0:0:
256,192,55560,1,8,0:0:0:0:
256,192,55893,1,8,0:0:0:0:
256,192,56060,1,0,0:0:0:0:
256,192,56393,1,0,0:0:0:0:
256,192,56560,1,8,0:0:0:0:
256,192,56893,1,8,0:0:0:0:
256,192,57060,1,0,0:0:0:0:
256,192,57226,1,0,0:0:0:0:
256,192,57393,1,0,0:0:0:0:
256,192,57560,1,8,0:0:0:0:
256,192,57893,1,8,0:0:0:0:
256,192,58060,1,4,0:0:0:0:
256,192,58560,1,8,0:0:0:0:
256,192,58893,1,0,0:0:0:0:
256,192,59060,1,0,0:0:0:0:
256,192,59393,1,8,0:0:0:0:
256,192,59560,1,0,0:0:0:0:
256,192,59893,1,8,0:0:0:0:
256,192,60560,1,8,0:0:0:0:
256,192,60893,1,0,0:0:0:0:
256,192,61060,1,8,0:0:0:0:
256,192,61560,1,8,0:0:0:0:
256,192,61893,1,0,0:0:0:0:
256,192,62060,1,8,0:0:0:0:
256,192,62560,1,8,0:0:0:0:
256,192,62893,1,0,0:0:0:0:
256,192,63060,1,0,0:0:0:0:
256,192,63393,1,8,0:0:0:0:
256,192,63560,1,0,0:0:0:0:
256,192,63893,1,8,0:0:0:0:
256,192,64560,1,0,0:0:0:0:
256,192,64893,1,0,0:0:0:0:
256,192,65060,1,8,0:0:0:0:
256,192,65560,1,0,0:0:0:0:
256,192,65893,1,0,0:0:0:0:
256,192,66060,1,12,0:0:0:0:
256,192,66560,1,8,0:0:0:0:
256,192,66893,1,0,0:0:0:0:
256,192,67060,1,8,0:0:0:0:
256,192,67560,1,0,0:0:0:0:
256,192,67893,1,8,0:0:0:0:
256,192,68060,1,8,0:0:0:0:
256,192,68393,1,0,0:0:0:0:
256,192,68560,1,8,0:0:0:0:
256,192,68893,1,8,0:0:0:0:
256,192,69310,1,0,0:0:0:0:
256,192,69560,1,0,0:0:0:0:
256,192,69893,1,0,0:0:0:0:
256,192,70060,1,8,0:0:0:0:
256,192,70560,1,8,0:0:0:0:
256,192,70893,1,0,0:0:0:0:
256,192,71060,1,8,0:0:0:0:
256,192,71560,1,8,0:0:0:0:
256,192,71893,1,8,0:0:0:0:
256,192,72060,1,0,0:0:0:0:
256,192,72393,1,0,0:0:0:0:
256,192,72560,1,0,0:0:0:0:
256,192,72893,1,8,0:0:0:0:
256,192,73310,1,0,0:0:0:0:
256,192,73560,1,8,0:0:0:0:
256,192,73893,1,0,0:0:0:0:
256,192,74060,1,12,0:0:0:0:
256,192,74560,1,8,0:0:0:0:
256,192,74893,1,0,0:0:0:0:
256,192,75060,1,8,0:0:0:0:
256,192,75560,1,0,0:0:0:0:
256,192,75893,1,8,0:0:0:0:
256,192,76060,1,8,0:0:0:0:
256,192,76393,1,0,0:0:0:0:
256,192,76560,1,8,0:0:0:0:
256,192,76893,1,8,0:0:0:0:
256,192,77310,1,0,0:0:0:0:
256,192,77560,1,0,0:0:0:0:
256,192,77893,1,0,0:0:0:0:
256,192,78060,1,12,0:0:0:0:
256,192,78560,1,8,0:0:0:0:
256,192,78893,1,8,0:0:0:0:
256,192,79060,1,8,0:0:0:0:
256,192,79393,1,0,0:0:0:0:
256,192,79560,1,8,0:0:0:0:
256,192,79726,1,0,0:0:0:0:
256,192,79893,1,0,0:0:0:0:
256,192,80060,1,8,0:0:0:0:
256,192,80560,1,8,0:0:0:0:
256,192,80893,1,8,0:0:0:0:
256,192,81060,1,8,0:0:0:0:
256,192,81393,1,8,0:0:0:0:
256,192,81560,1,0,0:0:0:0:
256,192,81726,1,0,0:0:0:0:
256,192,81893,1,8,0:0:0:0:
256,192,82060,1,0,0:0:0:0:
256,192,82810,1,0,0:0:0:0:
256,192,84060,5,8,0:0:0:0:
256,192,84351,1,0,0:0:0:0:
256,192,84560,1,0,0:0:0:0:
256,192,84851,1,0,0:0:0:0:
256,192,85060,1,0,0:0:0:0:
256,192,85351,1,8,0:0:0:0:
256,192,85560,1,8,0:0:0:0:
256,192,85851,1,0,0:0:0:0:
256,192,86060,5,12,0:0:0:0:
256,192,86560,1,8,0:0:0:0:
256,192,86893,1,0,0:0:0:0:
256,192,87060,1,0,0:0:0:0:
256,192,87560,1,8,0:0:0:0:
256,192,87893,1,0,0:0:0:0:
256,192,88060,1,8,0:0:0:0:
256,192,88560,1,8,0:0:0:0:
256,192,88726,1,8,0:0:0:0:
256,192,88893,1,0,0:0:0:0:
256,192,89060,1,8,0:0:0:0:
256,192,89393,1,8,0:0:0:0:
256,192,89560,1,0,0:0:0:0:
256,192,89893,1,8,0:0:0:0:
256,192,90060,1,8,0:0:0:0:
256,192,90560,1,8,0:0:0:0:
256,192,90893,1,0,0:0:0:0:
256,192,91060,1,8,0:0:0:0:
256,192,91560,1,0,0:0:0:0:
256,192,91893,1,8,0:0:0:0:
256,192,92393,1,8,0:0:0:0:
256,192,92893,1,0,0:0:0:0:
256,192,93060,1,8,0:0:0:0:
256,192,93435,1,0,0:0:0:0:
256,192,93810,1,0,0:0:0:0:
256,192,94060,1,12,0:0:0:0:
256,192,94560,1,0,0:0:0:0:
256,192,94893,1,8,0:0:0:0:
256,192,95060,1,0,0:0:0:0:
256,192,95560,1,8,0:0:0:0:
256,192,95893,1,0,0:0:0:0:
256,192,96060,1,8,0:0:0:0:
256,192,96560,1,0,0:0:0:0:
256,192,96893,1,0,0:0:0:0:
256,192,97060,1,8,0:0:0:0:
256,192,97393,1,8,0:0:0:0:
256,192,97560,1,0,0:0:0:0:
256,192,97893,1,0,0:0:0:0:
256,192,98060,1,8,0:0:0:0:
256,192,98560,1,0,0:0:0:0:
256,192,98893,1,8,0:0:0:0:
256,192,99060,1,8,0:0:0:0:
256,192,99393,1,0,0:0:0:0:
256,192,99560,1,8,0:0:0:0:
256,192,100060,1,8,0:0:0:0:
256,192,100393,1,0,0:0:0:0:
256,192,100560,1,8,0:0:0:0:
256,192,100893,1,8,0:0:0:0:
256,192,101060,1,8,0:0:0:0:
256,192,101226,1,0,0:0:0:0:
256,192,101393,1,8,0:0:0:0:
256,192,101560,1,0,0:0:0:0:
256,192,101893,1,0,0:0:0:0:
256,192,102060,1,12,0:0:0:0:
256,192,102560,1,8,0:0:0:0:
256,192,102893,1,8,0:0:0:0:
256,192,103060,1,0,0:0:0:0:
256,192,103560,1,8,0:0:0:0:
256,192,103893,1,0,0:0:0:0:
256,192,104060,1,8,0:0:0:0:
256,192,104560,1,8,0:0:0:0:
256,192,104726,1,8,0:0:0:0:
256,192,104893,1,0,0:0:0:0:
256,192,105060,1,0,0:0:0:0:
256,192,105393,1,8,0:0:0:0:
256,192,105560,1,8,0:0:0:0:
256,192,105893,1,0,0:0:0:0:
256,192,106060,1,8,0:0:0:0:
256,192,106560,1,8,0:0:0:0:
256,192,106893,1,0,0:0:0:0:
256,192,107060,1,8,0:0:0:0:
256,192,107393,1,8,0:0:0:0:
256,192,107560,1,0,0:0:0:0:
256,192,107893,1,8,0:0:0:0:
256,192,108393,1,8,0:0:0:0:
256,192,108893,1,0,0:0:0:0:
256,192,109060,1,8,0:0:0:0:
256,192,109393,1,8,0:0:0:0:
256,192,109560,1,0,0:0:0:0:
256,192,109893,1,0,0:0:0:0:
256,192,110060,1,12,0:0:0:0:
256,192,110560,1,8,0:0:0:0:
256,192,110893,1,0,0:0:0:0:
256,192,111060,1,0,0:0:0:0:
256,192,111560,1,8,0:0:0:0:
256,192,111893,1,0,0:0:0:0:
256,192,112060,1,8,0:0:0:0:
256,192,112560,1,0,0:0:0:0:
256,192,112893,1,8,0:0:0:0:
256,192,113060,1,0,0:0:0:0:
256,192,113393,1,0,0:0:0:0:
256,192,113560,1,8,0:0:0:0:
256,192,113893,1,8,0:0:0:0:
256,192,114060,1,0,0:0:0:0:
256,192,114560,1,0,0:0:0:0:
256,192,114893,1,8,0:0:0:0:
256,192,115060,1,8,0:0:0:0:
256,192,115393,1,8,0:0:0:0:
256,192,115560,1,0,0:0:0:0:
256,192,115893,1,8,0:0:0:0:
256,192,116393,1,8,0:0:0:0:
256,192,116560,1,0,0:0:0:0:
256,192,116726,1,0,0:0:0:0:
256,192,116893,1,0,0:0:0:0:
256,192,117060,1,8,0:0:0:0:
256,192,117393,1,8,0:0:0:0:
256,192,117560,1,0,0:0:0:0:
256,192,118060,5,12,0:0:0:0:
256,192,118560,1,8,0:0:0:0:
256,192,118893,1,0,0:0:0:0:
256,192,119060,1,8,0:0:0:0:
256,192,119560,1,0,0:0:0:0:
256,192,119893,1,0,0:0:0:0:
256,192,120060,1,8,0:0:0:0:
256,192,120393,1,8,0:0:0:0:
256,192,120560,1,8,0:0:0:0:
256,192,120893,1,0,0:0:0:0:
256,192,121310,1,8,0:0:0:0:
256,192,121560,1,0,0:0:0:0:
256,192,121893,1,0,0:0:0:0:
256,192,122060,1,8,0:0:0:0:
256,192,122560,1,0,0:0:0:0:
256,192,122893,1,0,0:0:0:0:
256,192,123060,1,8,0:0:0:0:
256,192,123560,1,0,0:0:0:0:
256,192,123893,1,0,0:0:0:0:
256,192,124060,1,8,0:0:0:0:
256,192,124393,1,0,0:0:0:0:
256,192,124560,1,8,0:0:0:0:
256,192,124893,1,8,0:0:0:0:
256,192,125310,1,0,0:0:0:0:
256,192,125560,1,0,0:0:0:0:
256,192,125893,1,0,0:0:0:0:
256,192,126060,1,12,0:0:0:0:
256,192,126560,1,8,0:0:0:0:
256,192,126893,1,0,0:0:0:0:
256,192,127060,1,8,0:0:0:0:
256,192,127560,1,0,0:0:0:0:
256,192,127893,1,0,0:0:0:0:
256,192,128060,1,8,0:0:0:0:
256,192,128393,1,8,0:0:0:0:
256,192,128560,1,8,0:0:0:0:
256,192,128893,1,0,0:0:0:0:
256,192,129310,1,8,0:0:0:0:
256,192,129560,1,0,0:0:0:0:
256,192,129893,1,0,0:0:0:0:
256,192,130060,1,12,0:0:0:0:
256,192,130560,1,8,0:0:0:0:
256,192,130893,1,0,0:0:0:0:
256,192,131060,1,8,0:0:0:0:
256,192,131393,1,8,0:0:0:0:
256,192,131560,1,8,0:0:0:0:
256,192,131726,1,0,0:0:0:0:
256,192,131893,1,0,0:0:0:0:
256,192,132060,1,8,0:0:0:0:
256,192,132393,1,0,0:0:0:0:
256,192,132560,1,8,0:0:0:0:
256,192,132726,1,0,0:0:0:0:
256,192,132893,1,0,0:0:0:0:
256,192,133060,1,8,0:0:0:0:
256,192,133393,1,0,0:0:0:0:
256,192,133560,1,0,0:0:0:0:
256,192,133893,1,0,0:0:0:0:
256,192,134060,1,8,0:0:0:0:
256,192,134810,1,0,0:0:0:0:
256,192,136060,1,0,0:0:0:0:
256,192,136351,1,8,0:0:0:0:
256,192,136560,1,0,0:0:0:0:
256,192,136851,1,0,0:0:0:0:
256,192,137060,1,0,0:0:0:0:
256,192,137351,1,8,0:0:0:0:
256,192,137560,1,0,0:0:0:0:
256,192,137851,1,0,0:0:0:0:
256,192,138060,1,12,0:0:0:0:
256,192,138560,1,8,0:0:0:0:
256,192,138893,1,0,0:0:0:0:
256,192,139060,1,0,0:0:0:0:
256,192,139560,1,8,0:0:0:0:
256,192,139893,1,0,0:0:0:0:
256,192,140060,1,8,0:0:0:0:
256,192,140560,1,8,0:0:0:0:
256,192,140726,1,8,0:0:0:0:
256,192,140893,1,8,0:0:0:0:
256,192,141060,1,0,0:0:0:0:
256,192,141393,1,8,0:0:0:0:
256,192,141560,1,8,0:0:0:0:
256,192,141893,1,8,0:0:0:0:
256,192,142060,1,0,0:0:0:0:
256,192,142560,1,8,0:0:0:0:
256,192,142893,1,0,0:0:0:0:
256,192,143060,1,8,0:0:0:0:
256,192,143560,1,0,0:0:0:0:
256,192,143893,1,8,0:0:0:0:
256,192,144393,1,8,0:0:0:0:
256,192,144560,1,0,0:0:0:0:
256,192,144893,1,0,0:0:0:0:
256,192,145060,1,8,0:0:0:0:
256,192,145435,1,0,0:0:0:0:
256,192,145810,1,8,0:0:0:0:
256,192,146060,1,4,0:0:0:0:
256,192,146560,1,8,0:0:0:0:
256,192,146893,1,0,0:0:0:0:
256,192,147060,1,0,0:0:0:0:
256,192,147393,1,0,0:0:0:0:
256,192,147560,1,8,0:0:0:0:
256,192,147893,1,8,0:0:0:0:
256,192,148060,1,0,0:0:0:0:
256,192,148560,1,8,0:0:0:0:
256,192,148893,1,0,0:0:0:0:
256,192,149060,1,0,0:0:0:0:
256,192,149393,1,8,0:0:0:0:
256,192,149560,1,0,0:0:0:0:
256,192,149893,1,0,0:0:0:0:
256,192,150060,1,8,0:0:0:0:
256,192,150560,1,0,0:0:0:0:
256,192,150893,1,0,0:0:0:0:
256,192,151060,1,8,0:0:0:0:
256,192,151393,1,0,0:0:0:0:
256,192,151560,1,0,0:0:0:0:
256,192,152060,1,8,0:0:0:0:
256,192,152393,1,8,0:0:0:0:
256,192,152560,1,0,0:0:0:0:
256,192,152893,1,0,0:0:0:0:
256,192,153060,1,8,0:0:0:0:
256,192,153226,1,0,0:0:0:0:
256,192,153393,1,0,0:0:0:0:
256,192,153560,1,8,0:0:0:0:
256,192,153893,1,0,0:0:0:0:
256,192,154060,5,12,0:0:0:0:
256,192,154560,1,8,0:0:0:0:
256,192,154893,1,0,0:0:0:0:
256,192,155060,1,0,0:0:0:0:
256,192,155560,1,8,0:0:0:0:
256,192,155893,1,0,0:0:0:0:
256,192,156060,1,8,0:0:0:0:
256,192,156560,1,8,0:0:0:0:
256,192,156726,1,0,0:0:0:0:
256,192,156893,1,0,0:0:0:0:
256,192,157060,1,8,0:0:0:0:
256,192,157393,1,8,0:0:0:0:
256,192,157560,1,8,0:0:0:0:
256,192,157893,1,0,0:0:0:0:
256,192,158060,1,8,0:0:0:0:
256,192,158560,1,8,0:0:0:0:
256,192,158893,1,0,0:0:0:0:
256,192,159060,1,8,0:0:0:0:
256,192,159393,1,0,0:0:0:0:
256,192,159560,1,0,0:0:0:0:
256,192,159893,1,8,0:0:0:0:
256,192,160393,1,8,0:0:0:0:
256,192,160893,1,0,0:0:0:0:
256,192,161060,1,8,0:0:0:0:
256,192,161393,1,8,0:0:0:0:
256,192,161560,1,0,0:0:0:0:
256,192,161893,1,0,0:0:0:0:
256,192,162060,1,12,0:0:0:0:
256,192,162560,1,8,0:0:0:0:
256,192,162893,1,8,0:0:0:0:
256,192,163060,1,0,0:0:0:0:
256,192,163560,1,0,0:0:0:0:
256,192,163893,1,0,0:0:0:0:
256,192,164060,1,12,0:0:0:0:
256,192,164560,1,0,0:0:0:0:
256,192,165060,1,8,0:0:0:0:
256,192,165393,1,0,0:0:0:0:
256,192,165560,1,8,0:0:0:0:
256,192,165893,1,8,0:0:0:0:
256,192,166060,1,4,0:0:0:0:
256,192,166560,1,0,0:0:0:0:
256,192,166893,1,0,0:0:0:0:
256,192,167060,1,8,0:0:0:0:
256,192,167393,1,0,0:0:0:0:
256,192,167560,1,0,0:0:0:0:
256,192,167893,1,8,0:0:0:0:
256,192,168393,1,8,0:0:0:0:
256,192,168560,1,0,0:0:0:0:
256,192,168893,1,0,0:0:0:0:
256,192,169060,1,8,0:0:0:0:
256,192,169226,1,0,0:0:0:0:
256,192,169393,1,0,0:0:0:0:
256,192,169560,1,8,0:0:0:0:
256,192,169893,1,8,0:0:0:0:
