osu file format v14

[General]
AudioFilename: audio.mp3
AudioLeadIn: 0
PreviewTime: 64976
Countdown: 0
SampleSet: Normal
StackLeniency: 0.7
Mode: 1
LetterboxInBreaks: 0
WidescreenStoryboard: 0

[Editor]
Bookmarks: 18062,34062,93976,102060,110060
DistanceSpacing: 0.9
BeatDivisor: 6
GridSize: 32
TimelineZoom: 1

[Metadata]
Title:Hajimari da ne!
TitleUnicode:はじまりだね!
Artist:Numtack05
ArtistUnicode:Numtack05
Creator:Jonarwhal
Version:Futsuu
Source:
Tags:it's the start beginning vocaloid kagamine rin 鏡音リン プーチンp vulkin mappers' guild mg mpg japanese swing jazz username105 jonawaga fa featured artist putinp
BeatmapID:2611404
BeatmapSetID:1256677

[Difficulty]
HPDrainRate:7
CircleSize:3
OverallDifficulty:4
ApproachRate:5
SliderMultiplier:1.4
SliderTickRate:1

[Events]
//Background and Video events
0,0,"Kagamine.Rin.full.404444.jpg",0,100
//Break Periods
//Storyboard Layer 0 (Background)
//Storyboard Layer 1 (Fail)
//Storyboard Layer 2 (Pass)
//Storyboard Layer 3 (Foreground)
//Storyboard Layer 4 (Overlay)
//Storyboard Sound Samples

[TimingPoints]
2060,500,4,1,0,45,1,0
85997,-100,4,1,0,55,0,0
86060,500,4,1,0,55,1,1
118060,-100,4,1,0,55,0,0
138060,500,4,1,0,55,1,1
169893,-100,4,1,0,55,0,0

[HitObjects]
256,192,16560,5,8,0:0:0:0:
256,192,17060,1,8,0:0:0:0:
256,192,18060,1,4,0:0:0:0:
256,192,18560,1,0,0:0:0:0:
256,192,19060,1,8,0:0:0:0:
256,192,19560,1,0,0:0:0:0:
256,192,20060,1,0,0:0:0:0:
256,192,20560,1,0,0:0:0:0:
256,192,21060,1,8,0:0:0:0:
256,192,21560,1,8,0:0:0:0:
256,192,21893,1,0,0:0:0:0:
256,192,22060,1,0,0:0:0:0:
256,192,22560,1,0,0:0:0:0:
256,192,23060,1,0,0:0:0:0:
256,192,23393,1,0,0:0:0:0:
256,192,23560,1,0,0:0:0:0:
256,192,23893,1,8,0:0:0:0:
256,192,24560,1,0,0:0:0:0:
256,192,25060,1,0,0:0:0:0:
256,192,25560,1,8,0:0:0:0:
256,192,25893,1,8,0:0:0:0:
256,192,26060,1,8,0:0:0:0:
256,192,26560,1,0,0:0:0:0:
256,192,27060,1,0,0:0:0:0:
256,192,27560,1,0,0:0:0:0:
256,192,28060,1,8,0:0:0:0:
256,192,28560,1,0,0:0:0:0:
256,192,28893,1,0,0:0:0:0:
256,192,29060,1,0,0:0:0:0:
256,192,29893,1,8,0:0:0:0:
256,192,30393,1,0,0:0:0:0:
256,192,30893,1,8,0:0:0:0:
256,192,31560,1,0,0:0:0:0:
256,192,31893,1,0,0:0:0:0:
256,192,32560,1,0,0:0:0:0:
256,192,33060,1,8,0:0:0:0:
256,192,33560,1,8,0:0:0:0:
256,192,34060,1,4,0:0:0:0:
256,192,35393,1,0,0:0:0:0:
256,192,35560,1,0,0:0:0:0:
256,192,35893,1,8,0:0:0:0:
256,192,36560,1,0,0:0:0:0:
256,192,37060,1,0,0:0:0:0:
256,192,37560,1,8,0:0:0:0:
256,192,38060,1,8,0:0:0:0:
256,192,38810,1,8,0:0:0:0:
256,192,39060,1,0,0:0:0:0:
256,192,40060,1,0,0:0:0:0:
256,192,40560,1,0,0:0:0:0:
256,192,41060,1,8,0:0:0:0:
256,192,41560,1,0,0:0:0:0:
256,192,42060,1,8,0:0:0:0:
256,192,43393,1,0,0:0:0:0:
256,192,43560,1,0,0:0:0:0:
256,192,43893,1,8,0:0:0:0:
256,192,44560,1,0,0:0:0:0:
256,192,45060,1,0,0:0:0:0:
256,192,45560,1,8,0:0:0:0:
256,192,46060,1,0,0:0:0:0:
256,192,47393,1,8,0:0:0:0:
256,192,47560,1,8,0:0:0:0:
256,192,47893,1,0,0:0:0:0:
256,192,48393,1,8,0:0:0:0:
256,192,48560,1,8,0:0:0:0:
256,192,48893,1,0,0:0:0:0:
256,192,49393,1,0,0:0:0:0:
256,192,50060,1,0,0:0:0:0:
256,192,51393,1,0,0:0:0:0:
256,192,51560,1,0,0:0:0:0:
256,192,51893,1,8,0:0:0:0:
256,192,52560,1,0,0:0:0:0:
256,192,53060,1,0,0:0:0:0:
256,192,53560,1,8,0:0:0:0:
256,192,54060,1,8,0:0:0:0:
256,192,54810,1,8,0:0:0:0:
256,192,55060,1,0,0:0:0:0:
256,192,56060,1,0,0:0:0:0:
256,192,56560,1,8,0:0:0:0:
256,192,57060,1,0,0:0:0:0:
256,192,57393,1,8,0:0:0:0:
256,192,57560,1,8,0:0:0:0:
256,192,58060,1,4,0:0:0:0:
256,192,59393,1,0,0:0:0:0:
256,192,59560,1,0,0:0:0:0:
256,192,59893,1,8,0:0:0:0:
256,192,60560,1,0,0:0:0:0:
256,192,61060,1,0,0:0:0:0:
256,192,61560,1,8,0:0:0:0:
256,192,62060,1,0,0:0:0:0:
256,192,63393,1,8,0:0:0:0:
256,192,63560,1,8,0:0:0:0:
256,192,63893,1,0,0:0:0:0:
256,192,64560,1,0,0:0:0:0:
256,192,65060,1,8,0:0:0:0:
256,192,65560,1,0,0:0:0:0:
256,192,66060,1,12,0:0:0:0:
256,192,66560,1,0,0:0:0:0:
256,192,67060,1,0,0:0:0:0:
256,192,68060,1,8,0:0:0:0:
256,192,68560,1,0,0:0:0:0:
256,192,68893,1,8,0:0:0:0:
256,192,69310,1,0,0:0:0:0:
256,192,69560,1,0,0:0:0:0:
256,192,70060,1,8,0:0:0:0:
256,192,70560,1,0,0:0:0:0:
256,192,71060,1,8,0:0:0:0:
256,192,72060,1,0,0:0:0:0:
256,192,72560,1,0,0:0:0:0:
256,192,72893,1,8,0:0:0:0:
256,192,73310,1,0,0:0:0:0:
256,192,73560,1,0,0:0:0:0:
256,192,74060,1,12,0:0:0:0:
256,192,74560,1,0,0:0:0:0:
256,192,75060,1,0,0:0:0:0:
256,192,76060,1,8,0:0:0:0:
256,192,76560,1,0,0:0:0:0:
256,192,76893,1,8,0:0:0:0:
256,192,77310,1,0,0:0:0:0:
256,192,77560,1,0,0:0:0:0:
256,192,78060,1,12,0:0:0:0:
256,192,78560,1,0,0:0:0:0:
256,192,79060,1,0,0:0:0:0:
256,192,79560,1,8,0:0:0:0:
256,192,80060,1,0,0:0:0:0:
256,192,80560,1,0,0:0:0:0:
256,192,81060,1,8,0:0:0:0:
256,192,81560,1,8,0:0:0:0:
256,192,81893,1,0,0:0:0:0:
256,192,82060,1,0,0:0:0:0:
256,192,84060,1,0,0:0:0:0:
256,192,84560,1,0,0:0:0:0:
256,192,85060,1,8,0:0:0:0:
256,192,85560,1,0,0:0:0:0:
256,192,86060,1,12,0:0:0:0:
256,192,86560,1,0,0:0:0:0:
256,192,86893,1,0,0:0:0:0:
256,192,87560,1,8,0:0:0:0:
256,192,88060,1,0,0:0:0:0:
256,192,88560,1,0,0:0:0:0:
256,192,88893,1,8,0:0:0:0:
256,192,89060,1,8,0:0:0:0:
256,192,89393,1,0,0:0:0:0:
256,192,89560,1,0,0:0:0:0:
256,192,90060,1,0,0:0:0:0:
256,192,91060,1,0,0:0:0:0:
256,192,91893,1,8,0:0:0:0:
256,192,92393,1,8,0:0:0:0:
256,192,93060,1,0,0:0:0:0:
256,192,93435,1,0,0:0:0:0:
256,192,93810,1,0,0:0:0:0:
256,192,94060,1,12,0:0:0:0:
256,192,94560,1,0,0:0:0:0:
256,192,95560,1,0,0:0:0:0:
256,192,96060,1,8,0:0:0:0:
256,192,96560,1,0,0:0:0:0:
256,192,97060,1,8,0:0:0:0:
256,192,97560,1,8,0:0:0:0:
256,192,98060,1,0,0:0:0:0:
256,192,98560,1,8,0:0:0:0:
256,192,98893,1,8,0:0:0:0:
256,192,99060,1,8,0:0:0:0:
256,192,99560,1,0,0:0:0:0:
256,192,100060,1,8,0:0:0:0:
256,192,100560,1,0,0:0:0:0:
256,192,100893,1,8,0:0:0:0:
256,192,101060,1,8,0:0:0:0:
256,192,101560,1,0,0:0:0:0:
256,192,102060,1,12,0:0:0:0:
256,192,102560,1,0,0:0:0:0:
256,192,102893,1,0,0:0:0:0:
256,192,103560,1,8,0:0:0:0:
256,192,103893,1,0,0:0:0:0:
256,192,104060,1,0,0:0:0:0:
256,192,104560,1,0,0:0:0:0:
256,192,104893,1,8,0:0:0:0:
256,192,105060,1,8,0:0:0:0:
256,192,105560,1,0,0:0:0:0:
256,192,106060,1,8,0:0:0:0:
256,192,107060,1,0,0:0:0:0:
256,192,107810,1,8,0:0:0:0:
256,192,108393,1,8,0:0:0:0:
256,192,109060,1,8,0:0:0:0:
256,192,109560,1,0,0:0:0:0:
256,192,110060,1,12,0:0:0:0:
256,192,110560,1,0,0:0:0:0:
256,192,111560,1,0,0:0:0:0:
256,192,112060,1,12,0:0:0:0:
256,192,112560,1,0,0:0:0:0:
256,192,113060,1,8,0:0:0:0:
256,192,113560,1,8,0:0:0:0:
256,192,114060,1,4,0:0:0:0:
256,192,114560,1,8,0:0:0:0:
256,192,115060,1,8,0:0:0:0:
256,192,115393,1,0,0:0:0:0:
256,192,115893,1,8,0:0:0:0:
256,192,116393,1,0,0:0:0:0:
256,192,116893,1,8,0:0:0:0:
256,192,117060,1,8,0:0:0:0:
256,192,117560,1,0,0:0:0:0:
256,192,118060,1,12,0:0:0:0:
256,192,118560,1,0,0:0:0:0:
256,192,119060,1,0,0:0:0:0:
256,192,120060,1,8,0:0:0:0:
256,192,120560,1,0,0:0:0:0:
256,192,120893,1,8,0:0:0:0:
256,192,121310,1,0,0:0:0:0:
256,192,121560,1,0,0:0:0:0:
256,192,122060,1,8,0:0:0:0:
256,192,122560,1,0,0:0:0:0:
256,192,123060,1,8,0:0:0:0:
256,192,124060,1,0,0:0:0:0:
256,192,124560,1,0,0:0:0:0:
256,192,124893,1,8,0:0:0:0:
256,192,125310,1,0,0:0:0:0:
256,192,125560,1,0,0:0:0:0:
256,192,126060,1,12,0:0:0:0:
256,192,126560,1,0,0:0:0:0:
256,192,127060,1,0,0:0:0:0:
256,192,128060,1,8,0:0:0:0:
256,192,128560,1,0,0:0:0:0:
256,192,128893,1,8,0:0:0:0:
256,192,129310,1,0,0:0:0:0:
256,192,129560,1,0,0:0:0:0:
256,192,130060,1,12,0:0:0:0:
256,192,130560,1,0,0:0:0:0:
256,192,131060,1,0,0:0:0:0:
256,192,131560,1,8,0:0:0:0:
256,192,131893,1,0,0:0:0:0:
256,192,132060,1,0,0:0:0:0:
256,192,132560,1,0,0:0:0:0:
256,192,133060,1,8,0:0:0:0:
256,192,133560,1,8,0:0:0:0:
256,192,133893,1,0,0:0:0:0:
256,192,134060,1,0,0:0:0:0:
256,192,136060,1,0,0:0:0:0:
256,192,137060,1,0,0:0:0:0:
256,192,137560,1,0,0:0:0:0:
256,192,138060,1,12,0:0:0:0:
256,192,138560,1,0,0:0:0:0:
256,192,138893,1,0,0:0:0:0:
256,192,139560,1,8,0:0:0:0:
256,192,140060,1,0,0:0:0:0:
256,192,140560,1,0,0:0:0:0:
256,192,140893,1,8,0:0:0:0:
256,192,141060,1,8,0:0:0:0:
256,192,141393,1,0,0:0:0:0:
256,192,141560,1,0,0:0:0:0:
256,192,142060,1,0,0:0:0:0:
256,192,143060,1,0,0:0:0:0:
256,192,143893,1,8,0:0:0:0:
256,192,144393,1,8,0:0:0:0:
256,192,145060,1,0,0:0:0:0:
256,192,145435,1,0,0:0:0:0:
256,192,145810,1,0,0:0:0:0:
256,192,146060,1,12,0:0:0:0:
256,192,146560,1,0,0:0:0:0:
256,192,147560,1,0,0:0:0:0:
256,192,148060,1,8,0:0:0:0:
256,192,148560,1,0,0:0:0:0:
256,192,149060,1,8,0:0:0:0:
256,192,149560,1,8,0:0:0:0:
256,192,150060,1,0,0:0:0:0:
256,192,150560,1,8,0:0:0:0:
256,192,150893,1,8,0:0:0:0:
256,192,151060,1,8,0:0:0:0:
256,192,151560,1,0,0:0:0:0:
256,192,152060,1,8,0:0:0:0:
256,192,152560,1,0,0:0:0:0:
256,192,152893,1,8,0:0:0:0:
256,192,153060,1,8,0:0:0:0:
256,192,153560,1,0,0:0:0:0:
256,192,154060,1,12,0:0:0:0:
256,192,154560,1,0,0:0:0:0:
256,192,154893,1,0,0:0:0:0:
256,192,155560,1,8,0:0:0:0:
256,192,155893,1,0,0:0:0:0:
256,192,156060,1,0,0:0:0:0:
256,192,156560,1,0,0:0:0:0:
256,192,156893,1,8,0:0:0:0:
256,192,157060,1,8,0:0:0:0:
256,192,157560,1,0,0:0:0:0:
256,192,158060,1,8,0:0:0:0:
256,192,159060,1,0,0:0:0:0:
256,192,159893,1,8,0:0:0:0:
256,192,160393,1,8,0:0:0:0:
256,192,161060,1,8,0:0:0:0:
256,192,161560,1,0,0:0:0:0:
256,192,162060,1,12,0:0:0:0:
256,192,162560,1,0,0:0:0:0:
256,192,163560,1,0,0:0:0:0:
256,192,164060,1,12,0:0:0:0:
256,192,164560,1,0,0:0:0:0:
256,192,165060,1,8,0:0:0:0:
256,192,165560,1,8,0:0:0:0:
256,192,166060,1,4,0:0:0:0:
256,192,166560,1,8,0:0:0:0:
256,192,167060,1,8,0:0:0:0:
256,192,167393,1,0,0:0:0:0:
256,192,167893,1,8,0:0:0:0:
256,192,168393,1,0,0:0:0:0:
256,192,168893,1,8,0:0:0:0:
256,192,169060,1,8,0:0:0:0:
256,192,169560,1,0,0:0:0:0:
256,192,169893,1,8,0:0:0:0:
