osu file format v14

[General]
AudioFilename: audio.mp3
AudioLeadIn: 0
PreviewTime: 20290
Countdown: 0
SampleSet: Soft
StackLeniency: 0.7
Mode: 2
LetterboxInBreaks: 0
WidescreenStoryboard: 1

[Editor]
DistanceSpacing: 1.2
BeatDivisor: 4
GridSize: 8
TimelineZoom: 1.9

[Metadata]
Title:Genkaku Catastrophe
TitleUnicode:幻覚カタストロフィー
Artist:Numtack05
ArtistUnicode:Numtack05
Creator:Stardust Prism
Version:Overdose
Source:
Tags:verti cris- vocaloid illusion うp主 upnushi uploader putinp series putin-p しうか shuika shiuka 初音ミク hatsune miku プーチンp シリーズ featured artist fa japanese mappers' guild mpg mg j-rock jrock j rock
BeatmapID:4319171
BeatmapSetID:2056364

[Difficulty]
HPDrainRate:7
CircleSize:5.5
OverallDifficulty:8.7
ApproachRate:8.7
SliderMultiplier:1.9
SliderTickRate:2

[Events]
//Background and Video events
0,0,"bg.jpg",0,0
//Break Periods
//Storyboard Layer 0 (Background)
//Storyboard Layer 1 (Fail)
//Storyboard Layer 2 (Pass)
//Storyboard Layer 3 (Foreground)
//Storyboard Layer 4 (Overlay)
//Storyboard Sound Samples

[TimingPoints]
347,343.839541547278,16,2,0,50,1,8
4474,343.839541547278,4,2,0,50,1,0
26479,343.839541547278,7,2,0,70,1,1
36106,343.839541547278,6,2,0,70,1,1
44358,343.839541547278,7,2,0,70,1,0
45389,-100,7,2,0,60,0,0
46077,-100,7,2,0,45,0,0
46764,-100,7,2,0,30,0,0
47452,-100,7,2,0,15,0,0

[Colours]
Combo1 : 255,255,128
Combo2 : 128,255,128
Combo3 : 255,128,128

[HitObjects]
376,322,4474,5,6,3:0:0:0:
227,281,4817,2,0,L|329:281,1,95,2|0,0:0|0:0,0:0:0:0:
93,348,5161,2,0,P|46:336|111:255,1,190,2|0,0:0|0:0,0:0:0:0:
192,257,5677,1,2,0:0:0:0:
430,262,5849,6,0,L|240:246,1,190,6|2,3:0|0:0,0:0:0:0:
439,325,6537,2,0,P|495:251|412:202,1,190,2|2,0:0|0:0,0:0:0:0:
339,211,7052,1,2,0:0:0:0:
107,343,7224,6,0,P|105:282|238:243,1,190,6|0,3:0|0:0,0:0:0:0:
303,234,7740,1,2,0:0:0:0:
155,335,7912,2,0,L|150:132,1,190,2|2,0:0|3:0,0:0:0:0:
55,149,8428,1,2,0:0:0:0:
312,310,8600,6,0,P|381:281|398:163,1,190,6|2,3:0|0:0,0:0:0:0:
214,236,9287,1,2,0:0:0:0:
308,234,9458,1,0,0:0:0:0:
403,233,9630,1,2,3:0:0:0:
12,318,9975,5,6,3:0:0:0:
12,318,10319,1,2,0:0:0:0:
278,311,10663,2,0,P|342:269|252:246,1,190,2|2,0:0|0:0,0:0:0:0:
175,223,11178,1,2,0:0:0:0:
417,313,11350,6,0,L|421:116,1,190,6|2,3:0|0:0,0:0:0:0:
230,262,12038,2,0,L|439:251,1,190,2|2,0:0|0:0,0:0:0:0:
323,242,12554,1,2,0:0:0:0:
62,251,12726,6,0,P|52:196|164:160,1,190,6|0,3:0|0:0,0:0:0:0:
253,158,13241,1,2,0:0:0:0:
433,234,13413,2,0,L|223:229,1,190,2|2,0:0|0:0,0:0:0:0:
148,226,13929,1,2,0:0:0:0:
399,308,14101,5,6,3:0:0:0:
494,293,14272,1,0,0:0:0:0:
399,308,14444,1,2,0:0:0:0:
208,339,14789,1,2,3:0:0:0:
167,320,14874,1,0,0:0:0:0:
169,276,14960,1,0,0:0:0:0:
212,262,15046,1,0,0:0:0:0:
257,261,15133,1,2,3:0:0:0:
212,262,15218,1,0,0:0:0:0:
169,276,15304,1,0,0:0:0:0:
212,262,15390,1,0,0:0:0:0:
392,261,15476,6,0,P|457:227|386:174,1,190,6|2,0:0|0:0,0:0:0:0:
294,173,15992,1,0,0:0:0:0:
119,229,16164,2,0,L|326:230,1,190,2|2,0:0|0:0,0:0:0:0:
308,229,16680,1,2,0:0:0:0:
61,197,16852,6,0,L|266:181,1,190,10|2,0:0|0:0,0:0:0:0:
61,276,17539,2,0,P|3:217|101:195,1,190,2|0,0:0|0:0,0:0:0:0:
170,171,18055,1,2,0:0:0:0:
419,277,18227,6,0,P|485:232|396:209,1,190,6|2,3:0|0:0,0:0:0:0:
17,259,18915,2,0,L|215:257,1,190,2|2,0:0|3:0,0:0:0:0:
304,256,19431,1,2,0:0:0:0:
75,299,19602,6,0,P|15:268|104:217,1,190,14|2,0:0|0:0,0:0:0:0:
324,262,20290,2,0,L|215:262,1,95,2|0,0:0|0:0,0:0:0:0:
66,294,20634,2,0,L|173:294,1,95,2|0,3:0|0:0,0:0:0:0:
419,315,20978,6,0,P|479:298|407:241,1,190,6|2,3:2|0:0,0:0:0:0:
322,234,21494,1,2,0:0:0:0:
152,188,21665,1,2,3:0:0:0:
152,188,21837,1,0,0:0:0:0:
323,177,22009,2,0,L|323:74,1,95,2|0,3:0|0:0,0:0:0:0:
64,237,22353,5,10,0:0:0:0:
254,168,22697,1,2,0:0:0:0:
161,203,22868,1,2,3:0:0:0:
256,164,23040,1,2,0:0:0:0:
67,143,23385,1,2,0:0:0:0:
67,143,23557,1,0,0:0:0:0:
323,226,23729,6,0,L|518:218,1,190,6|0,3:2|0:0,0:0:0:0:
418,198,24244,1,2,0:0:0:0:
234,275,24416,2,0,P|174:245|261:191,1,190,2|2,3:0|0:0,0:0:0:0:
340,176,24932,1,2,0:0:0:0:
115,261,25104,6,0,L|13:258,1,95,14|0,0:0|0:0,0:0:0:0:
115,261,25448,2,0,L|219:265,1,95,0|2,3:0|0:0,0:0:0:0:
446,288,25792,2,0,L|449:181,1,95,2|2,3:0|0:0,0:0:0:0:
189,216,26135,2,0,L|67:210,1,95,2|2,3:0|0:0,0:0:0:0:
377,144,26479,6,0,L|261:143,2,95,14|0|2,3:2|0:0|0:0,0:0:0:0:
471,226,26994,2,0,L|399:223,1,47.5,2|0,3:0|0:0,0:0:0:0:
260,252,27166,2,0,L|148:247,1,95,10|2,0:0|3:0,0:0:0:0:
397,235,27510,6,0,L|403:122,1,95,2|0,3:0|0:0,0:0:0:0:
168,158,27854,2,0,L|283:160,1,95,10|0,0:0|0:0,0:0:0:0:
421,247,28198,2,0,L|320:242,1,95,2|0,3:0|0:0,0:0:0:0:
477,221,28542,6,0,L|497:161,2,47.5,2|0|0,3:0|0:0|0:0,0:0:0:0:
204,218,28885,2,0,L|87:206,1,95,2|2,3:0|0:0,0:0:0:0:
282,177,29229,2,0,L|391:174,1,95,2|2,0:0|3:0,0:0:0:0:
129,233,29573,2,0,L|61:232,2,47.5,10|0|0,0:0|0:0|0:0,0:0:0:0:
292,198,29917,6,0,L|401:194,1,95,2|0,3:0|0:0,0:0:0:0:
156,266,30261,2,0,L|155:155,1,95,10|0,0:0|0:0,0:0:0:0:
307,194,30605,1,2,3:0:0:0:
159,159,30776,1,0,0:0:0:0:
404,261,30948,1,10,0:0:0:0:
457,247,31033,1,0,0:0:0:0:
457,247,31119,1,0,0:0:0:0:
404,261,31205,1,0,0:0:0:0:
231,256,31292,6,0,L|115:256,1,95,14|0,0:0|0:0,0:0:0:0:
281,263,31636,1,2,0:0:0:0:
136,225,31808,2,0,L|65:225,1,47.5,2|0,3:0|0:0,0:0:0:0:
244,218,31980,2,0,L|354:220,1,95,2|2,0:0|3:0,0:0:0:0:
110,262,32324,6,0,L|104:148,1,95,10|0,0:0|0:0,0:0:0:0:
266,152,32668,2,0,L|283:41,1,95,2|0,3:0|0:0,0:0:0:0:
120,231,33011,1,10,0:0:0:0:
72,229,33096,1,0,0:0:0:0:
25,227,33182,1,0,0:0:0:0:
245,286,33355,6,0,L|252:166,1,95,2|0,3:0|0:0,0:0:0:0:
503,133,33699,2,0,L|388:121,2,95,10|2|2,0:0|0:0|3:0,0:0:0:0:
407,195,34215,2,0,L|346:191,1,47.5,2|0,3:0|0:0,0:0:0:0:
183,213,34387,2,0,L|80:210,1,95,10|0,0:0|0:0,0:0:0:0:
325,222,34731,6,0,L|361:173,2,47.5,2|0|0,3:0|0:0|0:0,0:0:0:0:
176,189,35074,2,0,L|293:189,1,95,10|0,0:0|0:0,0:0:0:0:
40,286,35418,1,10,0:0:0:0:
192,271,35590,1,0,0:0:0:0:
40,286,35762,1,2,3:0:0:0:
40,239,35847,1,0,0:0:0:0:
61,201,35933,1,0,0:0:0:0:
106,190,36019,1,0,0:0:0:0:
299,175,36106,6,0,L|426:166,1,95,14|0,0:0|0:0,0:0:0:0:
226,236,36449,1,2,0:0:0:0:
381,213,36621,1,2,3:0:0:0:
143,224,36793,1,10,0:0:0:0:
95,221,36878,1,0,0:0:0:0:
48,218,36964,1,0,0:0:0:0:
196,191,37137,6,0,L|210:86,1,95,2|0,3:0|0:0,0:0:0:0:
59,257,37481,2,0,L|163:252,1,95,2|0,0:0|0:0,0:0:0:0:
401,234,37825,2,0,L|498:231,1,95,10|0,0:0|0:0,0:0:0:0:
252,241,38169,6,0,L|246:132,1,95,2|0,3:0|0:0,0:0:0:0:
388,131,38512,2,0,L|270:130,1,95,2|0,0:0|0:0,0:0:0:0:
140,217,38856,2,0,L|140:155,1,47.5,10|0,0:0|0:0,0:0:0:0:
191,160,39028,1,0,0:0:0:0:
439,132,39200,5,6,3:2:0:0:
335,128,39371,1,0,0:0:0:0:
226,125,39543,1,2,3:0:0:0:
114,110,39716,1,0,0:0:0:0:
389,241,39888,2,0,L|510:238,1,95,2|0,0:0|0:0,0:0:0:0:
219,194,40232,5,14,0:0:0:0:
322,217,40403,1,0,0:0:0:0:
426,159,40575,1,2,0:0:0:0:
314,144,40747,1,0,0:0:0:0:
64,279,40919,2,0,L|64:168,1,95,2|0,0:0|0:0,0:0:0:0:
297,216,41263,6,0,L|405:216,1,95,10|0,0:0|0:0,0:0:0:0:
235,249,41607,1,2,3:0:0:0:
183,222,41692,1,0,0:0:0:0:
235,249,41779,1,0,0:0:0:0:
400,257,41951,2,0,L|442:157,1,95,2|0,0:0|0:0,0:0:0:0:
169,210,42295,6,0,L|67:201,1,95,6|0,3:0|0:0,0:0:0:0:
237,153,42638,1,10,0:0:0:0:
84,143,42810,1,0,0:0:0:0:
323,191,42982,2,0,L|396:192,2,47.5,2|0|0,3:0|0:0|0:0,0:0:0:0:
74,196,43326,5,10,0:0:0:0:
302,164,43498,1,0,0:0:0:0:
166,163,43670,2,0,L|224:163,1,47.5,2|0,3:0|0:0,0:0:0:0:
369,250,43842,2,0,L|423:250,1,47.5,0|0,0:0|0:0,0:0:0:0:
253,281,44014,2,0,L|179:281,1,47.5,10|0,0:0|0:0,0:0:0:0:
373,183,44186,2,0,L|304:183,1,47.5,0|0,0:0|0:0,0:0:0:0:
142,221,44358,5,6,3:0:0:0:
256,192,44443,12,0,47796,0:0:0:0:
