osu file format v14

[General]
AudioFilename: audio.mp3
AudioLeadIn: 0
PreviewTime:25620
Countdown: 0
SampleSet: Normal
StackLeniency: 0.7
Mode: 1
LetterboxInBreaks: 0
WidescreenStoryboard: 1

[Editor]
DistanceSpacing: 1.2
BeatDivisor: 4
GridSize: 32
TimelineZoom: 1.5

[Metadata]
Title:Genkaku Catastrophe
TitleUnicode:幻覚カタストロフィー
Artist:Numtack05
ArtistUnicode:Numtack05
Creator:Hivie
Version:Futsuu
Source:
Tags:electronic pop rock japanese vocaloid fa featured artist mappers' guild mpg mg 初音ミク hatsune miku illusion うp主 upnushi uploader putinp series putin-p プーチンp シリーズ short version きみのとなりで。Kimi no Tonari de.
BeatmapID:4286858
BeatmapSetID:2052470

[Difficulty]
HPDrainRate:9
CircleSize:2
OverallDifficulty:4
ApproachRate:10
SliderMultiplier:1.4
SliderTickRate:1

[Events]
//Background and Video events
0,0,"bg.jpg",0,0
//Break Periods
//Storyboard Layer 0 (Background)
//Storyboard Layer 1 (Fail)
//Storyboard Layer 2 (Pass)
//Storyboard Layer 3 (Foreground)
//Storyboard Layer 4 (Overlay)
//Storyboard Sound Samples

[TimingPoints]
347,343.839541547278,16,1,0,100,1,8
4474,343.839541547278,4,1,0,100,1,0
26479,343.839541547278,7,1,0,100,1,1
36106,343.839541547278,6,1,0,100,1,1
44358,343.839541547278,7,1,0,100,1,0

[HitObjects]
256,192,4473,5,0,0:0:0:0:
256,192,4817,1,8,0:0:0:0:
256,192,5161,1,0,0:0:0:0:
256,192,5677,1,8,0:0:0:0:
256,192,5849,1,0,0:0:0:0:
256,192,6193,1,8,0:0:0:0:
256,192,6537,1,0,0:0:0:0:
256,192,7224,1,0,0:0:0:0:
256,192,7740,1,0,0:0:0:0:
256,192,7912,1,8,0:0:0:0:
256,192,8256,1,0,0:0:0:0:
256,192,8428,1,8,0:0:0:0:
256,192,8600,1,0,0:0:0:0:
256,192,8943,1,8,0:0:0:0:
256,192,9287,1,0,0:0:0:0:
256,192,9975,1,0,0:0:0:0:
256,192,10319,1,8,0:0:0:0:
256,192,10491,1,0,0:0:0:0:
256,192,10663,1,8,0:0:0:0:
256,192,11178,1,8,0:0:0:0:
256,192,11350,1,0,0:0:0:0:
256,192,11694,1,8,0:0:0:0:
256,192,11866,1,0,0:0:0:0:
256,192,12038,1,8,0:0:0:0:
256,192,12726,1,0,0:0:0:0:
256,192,12898,1,0,0:0:0:0:
256,192,13241,1,0,0:0:0:0:
256,192,13413,1,8,0:0:0:0:
256,192,13757,1,0,0:0:0:0:
256,192,13929,1,8,0:0:0:0:
256,192,14101,1,0,0:0:0:0:
256,192,14445,1,8,0:0:0:0:
256,192,14789,1,0,0:0:0:0:
256,192,15476,1,0,0:0:0:0:
256,192,15820,1,8,0:0:0:0:
256,192,16164,1,0,0:0:0:0:
256,192,16852,1,0,0:0:0:0:
256,192,17196,1,8,0:0:0:0:
256,192,17539,1,0,0:0:0:0:
256,192,17883,1,8,0:0:0:0:
256,192,18055,1,8,0:0:0:0:
256,192,18227,1,0,0:0:0:0:
256,192,18571,1,0,0:0:0:0:
256,192,18915,1,8,0:0:0:0:
256,192,19259,1,0,0:0:0:0:
256,192,19431,1,8,0:0:0:0:
256,192,19602,1,0,0:0:0:0:
256,192,19946,1,8,0:0:0:0:
256,192,20290,1,8,0:0:0:0:
256,192,20634,1,0,0:0:0:0:
256,192,20806,1,0,0:0:0:0:
256,192,20978,1,8,0:0:0:0:
256,192,21494,1,0,0:0:0:0:
256,192,21665,1,8,0:0:0:0:
256,192,22009,1,8,0:0:0:0:
256,192,22181,1,8,0:0:0:0:
256,192,22353,1,0,0:0:0:0:
256,192,22697,1,0,0:0:0:0:
256,192,22869,1,0,0:0:0:0:
256,192,23041,1,8,0:0:0:0:
256,192,23385,1,8,0:0:0:0:
256,192,23729,1,0,0:0:0:0:
256,192,23900,1,0,0:0:0:0:
256,192,24244,1,8,0:0:0:0:
256,192,24416,1,8,0:0:0:0:
256,192,24760,1,0,0:0:0:0:
256,192,24932,1,8,0:0:0:0:
256,192,25104,1,0,0:0:0:0:
256,192,25792,1,8,0:0:0:0:
256,192,25963,1,8,0:0:0:0:
256,192,26135,1,0,0:0:0:0:
256,192,26307,1,0,0:0:0:0:
256,96,26479,1,12,0:0:0:0:
256,192,26822,1,0,0:0:0:0:
256,192,26994,1,8,0:0:0:0:
256,192,27166,1,0,0:0:0:0:
256,192,27338,1,0,0:0:0:0:
256,192,27510,1,8,0:0:0:0:
256,192,27854,1,8,0:0:0:0:
256,192,28198,1,0,0:0:0:0:
256,192,28542,1,8,0:0:0:0:
256,192,28885,1,0,0:0:0:0:
256,192,29057,1,0,0:0:0:0:
256,192,29229,1,8,0:0:0:0:
256,192,29401,1,0,0:0:0:0:
256,192,29573,1,8,0:0:0:0:
256,192,29917,1,0,0:0:0:0:
256,192,30261,1,8,0:0:0:0:
256,192,30605,1,0,0:0:0:0:
256,192,30948,1,8,0:0:0:0:
256,96,31292,1,4,0:0:0:0:
256,192,31636,1,8,0:0:0:0:
256,192,31808,1,0,0:0:0:0:
256,192,31980,1,8,0:0:0:0:
256,192,32324,1,0,0:0:0:0:
256,192,32496,1,0,0:0:0:0:
256,192,32668,1,8,0:0:0:0:
256,192,32840,1,8,0:0:0:0:
256,192,33011,1,0,0:0:0:0:
256,192,33355,1,8,0:0:0:0:
256,192,33699,1,0,0:0:0:0:
256,192,33871,1,8,0:0:0:0:
256,192,34043,1,0,0:0:0:0:
256,192,34215,1,0,0:0:0:0:
256,192,34387,1,8,0:0:0:0:
256,192,34731,1,8,0:0:0:0:
256,192,35074,1,8,0:0:0:0:
256,192,35418,1,0,0:0:0:0:
256,96,36106,1,12,0:0:0:0:
256,192,36449,1,8,0:0:0:0:
256,192,36621,1,0,0:0:0:0:
256,192,36793,1,8,0:0:0:0:
256,192,37137,1,0,0:0:0:0:
256,192,37309,1,0,0:0:0:0:
256,192,37481,1,8,0:0:0:0:
256,192,37653,1,8,0:0:0:0:
256,192,37825,1,0,0:0:0:0:
256,192,38169,1,8,0:0:0:0:
256,192,38512,1,0,0:0:0:0:
256,192,38684,1,0,0:0:0:0:
256,192,38856,1,8,0:0:0:0:
256,192,39028,1,0,0:0:0:0:
256,192,39200,1,8,0:0:0:0:
256,192,39544,1,8,0:0:0:0:
256,192,39888,1,8,0:0:0:0:
256,192,40060,1,8,0:0:0:0:
256,192,40232,1,0,0:0:0:0:
256,192,40575,1,8,0:0:0:0:
256,192,40919,1,0,0:0:0:0:
256,192,41263,1,8,0:0:0:0:
256,192,41607,1,8,0:0:0:0:
256,192,41951,1,0,0:0:0:0:
256,192,42295,1,0,0:0:0:0:
256,192,42982,1,0,0:0:0:0:
256,192,43326,1,8,0:0:0:0:
256,192,43498,1,0,0:0:0:0:
256,192,43670,1,8,0:0:0:0:
256,192,43842,1,8,0:0:0:0:
256,192,44014,1,0,0:0:0:0:
256,96,44358,1,12,0:0:0:0:
