osu file format v14

[General]
AudioFilename: audio.mp3
AudioLeadIn: 0
PreviewTime: 20280
Countdown: 0
SampleSet: Soft
StackLeniency: 0.7
Mode: 0
LetterboxInBreaks: 0
WidescreenStoryboard: 1

[Editor]
DistanceSpacing: 0.5
BeatDivisor: 4
GridSize: 4
TimelineZoom: 1.6

[Metadata]
Title:Genkaku Catastrophe
TitleUnicode:幻覚カタストロフィー
Artist:Numtack05
ArtistUnicode:Numtack05
Creator:Cris-
Version:The Love you Couldn't See
Source:osu!
Tags:Fall _tranquility Featured Artist FA Mappers' Guild MG Vocaloid Showcase #2 Vocaparty! J-Rock JRock Rock Japanese Illusion うp主 Upnushi Uploader PutinP Series Putin-P しうか Shuika Shiuka 初音ミク Hatsune Miku プーチンP シリーズ
BeatmapID:2528044
BeatmapSetID:1214702

[Difficulty]
HPDrainRate:3
CircleSize:10
OverallDifficulty:8.7
ApproachRate:9.3
SliderMultiplier:0.500000005960464
SliderTickRate:1

[Events]
//Background and Video events
0,0,"Genkaku Catastrophe.png",0,0
Video,0,"Genkaku Catastrophe Video.avi"
//Break Periods
//Storyboard Layer 0 (Background)
//Storyboard Layer 1 (Fail)
//Storyboard Layer 2 (Pass)
//Storyboard Layer 3 (Foreground)
//Storyboard Layer 4 (Overlay)
//Storyboard Sound Samples

[TimingPoints]
4550,343.839541547278,4,2,1,60,1,0
5151,-100,4,2,1,5,0,0
5237,-100,4,2,1,60,0,0
6183,-100,4,2,1,5,0,0
6269,-100,4,2,1,60,0,0
8246,-100,4,2,1,5,0,0
8332,-100,4,2,1,60,0,0
15552,-100,4,2,1,65,0,0
16154,-100,4,2,1,5,0,0
16240,-100,4,2,1,65,0,0
16498,-100,4,2,1,5,0,0
16584,-100,4,2,1,65,0,0
17186,-100,4,2,1,5,0,0
17272,-100,4,2,1,65,0,0
17873,-100,4,2,1,5,0,0
17959,-100,4,2,1,65,0,0
18561,-100,4,2,1,5,0,0
18647,-100,4,2,1,65,0,0
19249,-100,4,2,1,5,0,0
19335,-100,4,2,1,65,0,0
19936,-100,4,2,1,5,0,0
20022,-100,4,2,1,65,0,0
20968,-100,4,2,1,5,0,0
21054,-100,4,2,1,65,0,0
25438,-100,4,2,1,5,0,0
25524,-100,4,2,1,65,0,0
26555,343.839541547278,7,2,1,70,1,1
26555,-90.9090909090909,7,2,1,70,0,1
35838,-90.9090909090909,7,2,1,70,0,0
36182,343.839541547278,6,2,1,70,1,1
36182,-90.9090909090909,6,2,1,70,0,1
44090,-90.9090909090909,6,2,1,70,0,0
44434,343.839541547278,7,2,1,70,1,1
44434,-90.9090909090909,7,2,1,70,0,1
48216,-90.9090909090909,7,2,1,50,0,0

[Colours]
Combo1 : 197,86,80
Combo2 : 188,167,14
Combo3 : 134,187,85
Combo4 : 137,122,169

[HitObjects]
99,232,4550,5,6,3:0:0:0:
125,197,4893,2,0,B|134:200|134:200|151:194|151:194|160:198,1,37.5000004470348,2|0,0:0|0:0,0:0:0:0:
165,202,5237,6,0,P|187:211|204:195,1,50.0000005960464,2|0,0:0|0:0,0:0:0:0:
207,188,5667,1,0,0:0:0:0:
207,188,5753,2,0,L|204:176,1,12.5000001490116,2|2,0:0|0:0,0:0:0:0:
198,153,5925,6,0,P|216:148|234:143,1,37.5000004470348,6|0,3:0|0:0,0:0:0:0:
239,146,6269,1,2,0:0:0:0:
277,167,6613,6,0,B|273:156|264:155|264:155|258:172|241:172,1,50.0000005960464,2|2,0:0|0:0,0:0:0:0:
234,172,7042,1,0,0:0:0:0:
234,172,7128,2,0,L|238:184,1,12.5000001490116,2|2,0:0|0:0,0:0:0:0:
244,207,7300,6,0,P|263:217|268:195,1,50.0000005960464,6|0,3:0|0:0,0:0:0:0:
221,199,7816,1,2,0:0:0:0:
232,245,7988,6,0,P|214:250|196:255,1,37.5000004470348,2|0,0:0|0:0,0:0:0:0:
189,257,8332,1,2,3:0:0:0:
161,275,8504,2,0,L|173:279,1,12.5000001490116,2|2,0:0|0:0,0:0:0:0:
195,286,8676,6,0,P|201:302|190:317,1,37.5000004470348,6|0,3:0|0:0,0:0:0:0:
184,321,9019,1,2,0:0:0:0:
184,321,9105,2,0,L|188:333,1,12.5000001490116,0|2,0:0|0:0,0:0:0:0:
150,308,9363,5,2,0:0:0:0:
150,308,9449,1,0,0:0:0:0:
150,308,9535,2,0,L|154:296,1,12.5000001490116,2|0,0:0|0:0,0:0:0:0:
161,275,9707,2,0,P|149:271|137:267,1,25.0000002980232,2|0,3:0|0:0,0:0:0:0:
129,242,10051,5,6,3:0:0:0:
174,218,10395,1,2,0:0:0:0:
174,218,10481,1,0,0:0:0:0:
174,218,10567,2,0,P|176:225|169:227,1,12.5000001490116,2|0,0:0|0:0,0:0:0:0:
151,222,10739,5,2,0:0:0:0:
151,222,10825,1,0,0:0:0:0:
151,222,10911,2,0,P|148:215|155:212,2,12.5000001490116,2|0|2,0:0|0:0|0:0,0:0:0:0:
155,248,11254,1,2,0:0:0:0:
184,281,11426,6,0,P|166:286|148:293,1,37.5000004470348,6|0,3:0|0:0,0:0:0:0:
144,297,11770,1,2,0:0:0:0:
144,297,11856,1,0,0:0:0:0:
144,297,11942,2,0,L|140:285,1,12.5000001490116,2|2,0:0|0:0,0:0:0:0:
123,267,12114,6,0,L|127:255,1,12.5000001490116,2|0,0:0|0:0,0:0:0:0:
138,232,12286,2,0,L|134:220,1,12.5000001490116,2|0,0:0|0:0,0:0:0:0:
114,205,12458,1,2,0:0:0:0:
143,168,12630,2,0,L|155:172,1,12.5000001490116,2|2,0:0|0:0,0:0:0:0:
179,184,12802,6,0,B|188:169|182:156|175:163|169:150|176:138,1,50.0000005960464,6|0,3:0|0:0,0:0:0:0:
202,146,13317,1,2,0:0:0:0:
210,98,13489,6,0,P|194:116|171:110,1,50.0000005960464,2|2,0:0|0:0,0:0:0:0:
185,87,14005,1,2,0:0:0:0:
221,125,14177,6,0,P|201:139|176:138,1,50.0000005960464,6|2,3:0|0:0,0:0:0:0:
235,172,14865,5,2,3:0:0:0:
235,172,14951,1,0,3:0:0:0:
235,172,15037,2,0,L|239:160,1,12.5000001490116,2|0,3:0|3:0,0:0:0:0:
213,187,15209,1,2,3:0:0:0:
213,187,15295,1,0,3:0:0:0:
213,187,15381,2,0,L|209:175,1,12.5000001490116,2|0,3:0|3:0,0:0:0:0:
237,199,15552,5,6,0:0:0:0:
183,250,15896,2,0,P|201:255|219:260,1,37.5000004470348,2|0,0:0|0:0,0:0:0:0:
225,262,16240,6,0,B|225:279|208:285|208:285|209:294|220:298,1,50.0000005960464,2|2,0:0|0:0,0:0:0:0:
226,301,16670,1,0,0:0:0:0:
226,301,16756,2,0,L|222:313,1,12.5000001490116,2|2,0:0|0:0,0:0:0:0:
214,338,16928,6,0,B|223:341|223:341|240:335|240:335|249:339,1,37.5000004470348,10|0,0:0|0:0,0:0:0:0:
254,342,17272,1,2,0:0:0:0:
320,298,17615,6,0,P|302:303|284:308,1,37.5000004470348,2|0,0:0|0:0,0:0:0:0:
279,312,17959,1,2,0:0:0:0:
279,312,18045,1,0,0:0:0:0:
279,312,18131,2,0,L|283:324,1,12.5000001490116,2|2,0:0|0:0,0:0:0:0:
275,351,18303,6,0,P|292:354|305:341,1,37.5000004470348,6|0,3:0|0:0,0:0:0:0:
311,338,18647,1,2,0:0:0:0:
311,338,18733,1,0,0:0:0:0:
311,338,18819,2,0,L|323:342,1,12.5000001490116,2|0,0:0|0:0,0:0:0:0:
344,348,18991,6,0,P|349:330|354:312,1,37.5000004470348,2|0,0:0|0:0,0:0:0:0:
359,309,19335,1,2,3:0:0:0:
340,273,19507,2,0,L|328:277,1,12.5000001490116,2|2,0:0|0:0,0:0:0:0:
303,285,19679,6,0,B|300:276|300:276|306:259|306:259|302:250,1,37.5000004470348,14|0,0:0|0:0,0:0:0:0:
299,245,20022,2,0,L|303:233,2,12.5000001490116,2|0|0,0:0|0:0|0:0,0:0:0:0:
346,222,20366,5,2,0:0:0:0:
346,222,20452,1,0,0:0:0:0:
346,222,20538,2,0,L|342:210,1,12.5000001490116,2|0,0:0|0:0,0:0:0:0:
335,189,20710,2,0,P|323:193|311:197,1,25.0000002980232,2|0,3:0|0:0,0:0:0:0:
260,153,21054,6,0,P|278:158|296:163,1,37.5000004470348,6|0,3:2|0:0,0:0:0:0:
304,167,21398,1,2,0:0:0:0:
304,167,21484,1,0,0:0:0:0:
304,167,21570,2,0,L|308:155,1,12.5000001490116,2|0,0:0|0:0,0:0:0:0:
332,142,21741,5,2,3:0:0:0:
332,142,21827,1,0,0:0:0:0:
332,142,21913,2,0,L|336:154,1,12.5000001490116,2|0,0:0|0:0,0:0:0:0:
306,128,22085,1,2,3:0:0:0:
336,91,22257,1,2,0:0:0:0:
287,65,22429,6,0,P|299:61|311:57,1,25.0000002980232,10|0,0:0|0:0,0:0:0:0:
358,76,22773,1,2,0:0:0:0:
358,76,22859,1,0,0:0:0:0:
358,76,22945,2,0,L|362:64,1,12.5000001490116,2|0,3:0|0:0,0:0:0:0:
336,91,23117,5,2,0:0:0:0:
336,91,23203,1,0,0:0:0:0:
336,91,23289,2,0,L|332:79,1,12.5000001490116,2|0,0:0|0:0,0:0:0:0:
360,103,23461,2,0,P|356:115|352:127,1,25.0000002980232,2|2,0:0|0:0,0:0:0:0:
400,93,23805,6,0,P|396:81|392:69,1,25.0000002980232,6|0,3:2|3:0,0:0:0:0:
417,141,24320,1,2,0:0:0:0:
389,126,24492,5,2,3:0:0:0:
389,126,24578,1,0,0:0:0:0:
389,126,24664,2,0,L|393:114,1,12.5000001490116,2|0,0:0|0:0,0:0:0:0:
400,93,24836,1,2,0:0:0:0:
348,66,25008,2,0,L|352:78,1,12.5000001490116,2|2,0:0|0:0,0:0:0:0:
360,103,25180,6,0,B|351:106|351:106|334:100|334:100|325:104,1,37.5000004470348,14|0,0:0|0:0,0:0:0:0:
320,107,25524,1,0,3:0:0:0:
286,141,25696,5,2,0:0:0:0:
309,152,25868,1,2,3:0:0:0:
297,116,26039,1,2,0:0:0:0:
261,130,26211,1,2,3:0:0:0:
275,165,26383,1,2,0:0:0:0:
297,116,26555,6,0,P|283:111|272:107,1,27.500001167059,14|2,3:2|0:0,0:0:0:0:
201,74,26898,1,2,0:0:0:0:
253,54,27070,1,2,3:0:0:0:
221,123,27242,1,10,0:0:0:0:
271,107,27413,1,2,3:0:0:0:
201,74,27586,6,0,P|187:79|176:83,1,27.500001167059,2|0,3:0|3:0,0:0:0:0:
253,54,27930,2,0,P|248:40|244:29,1,27.500001167059,10|0,0:0|0:0,0:0:0:0:
271,107,28274,2,0,P|285:102|296:98,1,27.500001167059,2|0,3:0|3:0,0:0:0:0:
221,123,28618,5,2,3:0:0:0:
221,123,28789,1,10,0:0:0:0:
258,158,28961,5,2,3:0:0:0:
271,107,29133,1,2,0:0:0:0:
210,174,29305,1,2,0:0:0:0:
173,139,29477,1,2,3:0:0:0:
258,158,29649,6,0,P|267:168|264:181,1,27.500001167059,10|0,0:0|0:0,0:0:0:0:
210,174,29993,2,0,P|207:187|216:197,1,27.500001167059,2|0,3:0|0:0,0:0:0:0:
271,107,30337,2,0,P|283:111|288:123,1,27.500001167059,10|0,0:0|0:0,0:0:0:0:
173,139,30681,2,0,P|164:149|167:162,1,27.500001167059,2|0,3:0|3:0,0:0:0:0:
222,123,31024,1,10,0:0:0:0:
249,216,31368,6,0,P|235:221|224:225,1,27.500001167059,14|2,0:0|0:0,0:0:0:0:
265,236,31712,1,2,0:0:0:0:
233,196,31884,1,2,3:0:0:0:
281,256,32056,1,2,0:0:0:0:
313,216,32228,1,2,3:0:0:0:
256,260,32400,6,0,P|253:273|262:283,1,27.500001167059,10|0,0:0|0:0,0:0:0:0:
240,240,32744,2,0,P|230:230|217:233,1,27.500001167059,2|0,3:0|3:0,0:0:0:0:
265,236,33087,2,0,P|277:232|281:219,1,27.500001167059,10|0,0:0|0:0,0:0:0:0:
231,264,33431,5,2,3:0:0:0:
231,264,33603,1,2,0:0:0:0:
293,286,33775,5,10,0:0:0:0:
265,236,33947,1,2,0:0:0:0:
264,303,34119,1,2,3:0:0:0:
322,270,34291,1,2,3:0:0:0:
231,264,34463,6,0,P|224:277|218:288,1,27.500001167059,10|2,0:0|3:0,0:0:0:0:
267,238,34807,1,2,3:0:0:0:
267,239,34892,1,10,0:0:0:0:
267,240,34978,1,2,3:0:0:0:
233,196,35150,6,0,P|219:193|210:203,1,27.500001167059,10|0,0:0|3:0,0:0:0:0:
252,178,35494,2,0,P|261:167|257:154,1,27.500001167059,10|0,0:0|0:0,0:0:0:0:
257,203,35838,1,2,3:0:0:0:
317,124,36182,6,0,P|304:119|291:114,1,27.500001167059,14|2,0:0|0:0,0:0:0:0:
344,133,36525,1,2,0:0:0:0:
280,140,36697,1,2,3:0:0:0:
300,86,36869,6,0,P|313:83|321:94,1,27.500001167059,10|0,0:0|3:0,0:0:0:0:
291,61,37213,2,0,P|288:47|299:39,1,27.500001167059,2|0,3:0|3:0,0:0:0:0:
266,70,37557,2,0,P|252:72|244:61,1,27.500001167059,2|0,0:0|3:0,0:0:0:0:
276,96,37901,1,10,0:0:0:0:
225,159,38245,6,0,B|214:154|213:143|213:143|216:145|219:145,1,27.500001167059,2|0,3:0|0:0,0:0:0:0:
256,137,38588,2,0,B|257:148|248:154|248:154|248:151|246:149,1,27.500001167059,2|0,0:0|3:0,0:0:0:0:
220,122,38932,2,0,B|229:115|239:119|239:119|235:121|235:123,1,27.500001167059,10|0,0:0|3:0,0:0:0:0:
210,180,39276,6,0,P|196:183|188:172,1,27.500001167059,6|0,3:2|0:0,0:0:0:0:
236,183,39620,2,0,P|245:193|240:206,1,27.500001167059,2|0,3:0|3:0,0:0:0:0:
225,159,39964,1,2,0:0:0:0:
193,236,40308,6,0,B|180:242|165:230|174:225|161:213|146:218,1,55.0000023341179,14|2,0:0|0:0,0:0:0:0:
151,240,40823,1,2,3:0:0:0:
188,214,40995,6,0,P|193:201|198:188,1,27.500001167059,2|0,0:0|3:0,0:0:0:0:
220,247,41339,2,0,P|215:234|210:221,1,27.500001167059,10|0,0:0|0:0,0:0:0:0:
183,262,41683,2,0,P|188:249|193:236,1,27.500001167059,2|0,3:0|3:0,0:0:0:0:
215,295,42027,2,0,P|210:282|205:269,1,27.500001167059,2|0,0:0|3:0,0:0:0:0:
179,311,42371,5,6,3:0:0:0:
209,335,42543,1,2,3:0:0:0:
149,287,42714,6,0,P|139:296|128:306,1,27.500001167059,10|0,0:0|0:0,0:0:0:0:
215,295,43058,2,0,P|225:286|236:276,1,27.500001167059,2|0,3:0|0:0,0:0:0:0:
149,287,43402,1,10,0:0:0:0:
179,311,43574,1,2,0:0:0:0:
119,263,43746,5,2,3:0:0:0:
116,265,43832,1,10,0:0:0:0:
113,267,43918,2,0,L|104:256,1,13.7500005835295,2|2,3:0|3:0,0:0:0:0:
89,239,44090,2,0,P|79:248|68:258,1,27.500001167059,10|0,0:0|0:0,0:0:0:0:
93,185,44434,6,0,P|107:190|118:194,1,27.500001167059,14|2,3:2|0:0,0:0:0:0:
189,227,44777,1,2,0:0:0:0:
136,247,44949,1,2,3:0:0:0:
169,177,45121,1,10,0:0:0:0:
118,194,45292,1,2,3:0:0:0:
189,227,45465,6,0,P|203:222|214:218,1,27.500001167059,2|0,3:0|3:0,0:0:0:0:
136,247,45809,2,0,P|141:261|145:272,1,27.500001167059,10|0,0:0|0:0,0:0:0:0:
118,194,46153,2,0,P|104:199|93:203,1,27.500001167059,2|0,3:0|3:0,0:0:0:0:
169,177,46497,5,2,3:0:0:0:
169,177,46668,1,10,0:0:0:0:
131,142,46840,5,2,3:0:0:0:
118,194,47012,1,2,0:0:0:0:
180,126,47184,1,2,0:0:0:0:
217,161,47356,1,2,3:0:0:0:
131,142,47528,6,0,P|122:132|125:119,1,27.500001167059,10|0,0:0|0:0,0:0:0:0:
180,126,47872,2,0,P|183:113|174:103,1,27.500001167059,2|0,3:0|0:0,0:0:0:0:
169,177,48216,1,2,3:0:0:0:
