osu file format v14

[General]
AudioFilename: audio.mp3
AudioLeadIn: 0
PreviewTime: 20280
Countdown: 0
SampleSet: Soft
StackLeniency: 0.7
Mode: 0
LetterboxInBreaks: 0
WidescreenStoryboard: 1

[Editor]
DistanceSpacing: 1
BeatDivisor: 4
GridSize: 4
TimelineZoom: 1.2

[Metadata]
Title:Genkaku Catastrophe
TitleUnicode:幻覚カタストロフィー
Artist:Numtack05
ArtistUnicode:Numtack05
Creator:Cris-
Version:Normal
Source:osu!
Tags:Fall _tranquility Featured Artist FA Mappers' Guild MG Vocaloid Showcase #2 Vocaparty! J-Rock JRock Rock Japanese Illusion うp主 Upnushi Uploader PutinP Series Putin-P しうか Shuika Shiuka 初音ミク Hatsune Miku プーチンP シリーズ
BeatmapID:2528043
BeatmapSetID:1214702

[Difficulty]
HPDrainRate:3
CircleSize:2
OverallDifficulty:4
ApproachRate:5.5
SliderMultiplier:1.2
SliderTickRate:1

[Events]
//Background and Video events
0,0,"Genkaku Catastrophe.png",0,0
Video,0,"Genkaku Catastrophe Video.avi"
//Break Periods
//Storyboard Layer 0 (Background)
//Storyboard Layer 1 (Fail)
//Storyboard Layer 2 (Pass)
//Storyboard Layer 3 (Foreground)
//Storyboard Layer 4 (Overlay)
//Storyboard Sound Samples

[TimingPoints]
4550,343.839541547278,4,2,1,60,1,0
15552,-100,4,2,1,65,0,0
26555,343.839541547278,7,2,1,70,1,1
26555,-100,7,2,1,70,0,1
35838,-100,7,2,1,70,0,0
36182,343.839541547278,6,2,1,70,1,1
44090,-100,6,2,1,70,0,0
44434,343.839541547278,7,2,1,70,1,1
48216,-100,7,2,1,50,0,0

[Colours]
Combo1 : 197,86,80
Combo2 : 188,167,14
Combo3 : 134,187,85
Combo4 : 137,122,169

[HitObjects]
60,47,4550,6,0,P|31:99|46:154,1,120,6|2,3:0|0:0,0:0:0:0:
130,240,5237,2,0,B|174:255|223:223|196:204|242:166|287:184,1,180,2|2,0:0|0:0,0:0:0:0:
343,207,5925,2,0,P|333:266|326:327,1,120,6|2,3:0|0:0,0:0:0:0:
434,378,6613,2,0,P|440:318|450:259,1,120,2|2,0:0|0:0,0:0:0:0:
458,199,7128,1,2,0:0:0:0:
468,139,7300,6,0,B|392:130|392:130|368:152|368:152|298:143,1,180,6|2,3:0|0:0,0:0:0:0:
237,137,7988,2,0,P|267:86|250:30,1,120,2|2,0:0|3:0,0:0:0:0:
199,0,8503,1,2,0:0:0:0:
140,16,8676,2,0,P|109:65|125:121,1,120,6|2,3:0|0:0,0:0:0:0:
169,237,9363,2,0,P|161:266|155:295,2,60,2|2|2,0:0|0:0|3:0,0:0:0:0:
237,137,10051,6,0,P|295:151|352:168,1,120,6|2,3:0|0:0,0:0:0:0:
414,65,10739,2,0,P|356:47|298:33,1,120,2|2,0:0|0:0,0:0:0:0:
239,20,11254,1,2,0:0:0:0:
179,9,11426,2,0,P|142:54|153:110,1,120,6|2,3:0|0:0,0:0:0:0:
237,199,12114,2,0,P|294:181|352:167,1,120,2|2,0:0|0:0,0:0:0:0:
410,150,12629,1,2,0:0:0:0:
467,135,12802,6,0,B|449:177|477:228|498:202|533:251|512:294,1,180,6|2,3:0|0:0,0:0:0:0:
486,350,13489,2,0,P|441:313|384:323,1,120,2|2,0:0|0:0,0:0:0:0:
327,345,14005,1,2,0:0:0:0:
270,365,14177,2,0,P|255:306|237:250,1,120,6|2,3:0|0:0,0:0:0:0:
149,167,14865,1,2,3:0:0:0:
120,283,15209,1,2,3:0:0:0:
237,250,15552,6,0,P|282:213|338:224,1,120,6|2,0:0|0:0,0:0:0:0:
371,340,16240,2,0,P|326:377|270:366,1,120,2|2,0:0|0:0,0:0:0:0:
152,337,16928,1,10,0:0:0:0:
237,250,17272,1,2,0:0:0:0:
120,221,17615,2,0,P|105:162|86:105,1,120,2|2,0:0|0:0,0:0:0:0:
122,57,18131,1,2,0:0:0:0:
158,9,18303,6,0,P|214:-2|259:34,1,120,6|2,3:0|0:0,0:0:0:0:
375,1,18991,2,0,P|393:58|408:116,1,120,2|2,0:0|3:0,0:0:0:0:
373,165,19507,1,2,0:0:0:0:
339,214,19678,2,0,P|357:271|372:329,1,120,14|2,0:0|0:0,0:0:0:0:
488,359,20366,1,2,0:0:0:0:
455,244,20710,1,2,3:0:0:0:
372,329,21054,6,0,B|326:350|278:314|304:293|254:264|211:282,1,180,6|2,3:2|0:0,0:0:0:0:
155,302,21741,2,0,P|140:243|121:186,1,120,2|2,3:0|3:0,0:0:0:0:
4,157,22429,1,10,0:0:0:0:
38,272,22773,1,2,0:0:0:0:
121,187,23117,1,2,0:0:0:0:
155,302,23461,1,2,0:0:0:0:
238,217,23805,6,0,P|283:180|340:192,1,120,6|0,3:2|0:0,0:0:0:0:
392,221,24320,1,2,0:0:0:0:
444,250,24492,2,0,P|459:191|478:134,1,120,2|2,3:0|0:0,0:0:0:0:
499,81,25008,1,2,0:0:0:0:
499,81,25180,1,14,0:0:0:0:
409,1,25524,1,0,3:0:0:0:
352,106,25868,1,2,3:0:0:0:
262,25,26212,1,2,3:0:0:0:
200,127,26555,6,0,P|218:183|233:242,1,120,14|2,3:2|0:0,0:0:0:0:
248,300,27070,1,2,3:0:0:0:
263,358,27242,2,0,P|291:348|320:341,1,60,10|2,0:0|3:0,0:0:0:0:
378,324,27586,1,2,3:0:0:0:
490,366,27930,1,10,0:0:0:0:
468,247,28274,1,2,3:0:0:0:
378,324,28618,6,0,P|348:331|321:341,1,60,2|10,3:0|0:0,0:0:0:0:
263,358,28961,2,0,P|234:348|205:341,1,60,2|2,3:0|0:0,0:0:0:0:
145,330,29305,2,0,P|115:337|87:346,1,60,2|2,0:0|3:0,0:0:0:0:
30,364,29649,1,10,0:0:0:0:
0,247,29993,2,0,P|56:228|115:213,1,120,2|10,3:0|0:0,0:0:0:0:
231,243,30681,1,2,3:0:0:0:
145,330,31024,1,10,0:0:0:0:
115,213,31368,6,0,P|83:163|102:108,1,120,14|2,0:0|0:0,0:0:0:0:
137,60,31884,1,2,3:0:0:0:
173,12,32056,2,0,P|199:21|228:32,1,60,2|2,0:0|3:0,0:0:0:0:
285,54,32400,1,10,0:0:0:0:
390,1,32744,1,2,3:0:0:0:
446,102,33087,1,10,0:0:0:0:
340,159,33431,1,2,3:0:0:0:
285,54,33775,6,0,P|257:42|228:32,1,60,10|2,0:0|0:0,0:0:0:0:
173,12,34119,2,0,P|145:23|116:33,1,60,2|2,3:0|3:0,0:0:0:0:
60,54,34463,2,0,P|71:81|81:110,1,60,10|2,0:0|3:0,0:0:0:0:
99,167,34806,1,2,3:0:0:0:
138,280,35150,1,10,0:0:0:0:
214,187,35494,1,10,0:0:0:0:
253,300,35838,1,2,3:0:0:0:
332,210,36182,6,0,P|377:172|434:184,1,120,14|2,0:0|0:0,0:0:0:0:
485,226,36697,1,2,3:0:0:0:
485,226,36869,1,10,0:0:0:0:
399,309,37213,1,2,3:0:0:0:
332,210,37557,1,2,0:0:0:0:
253,300,37901,1,10,0:0:0:0:
188,198,38245,6,0,P|202:139|221:83,2,120,2|2|10,3:0|0:0|0:0,0:0:0:0:
253,300,39276,2,0,P|297:262|354:273,1,120,6|2,3:2|3:0,0:0:0:0:
449,346,39964,1,2,0:0:0:0:
479,229,40308,6,0,P|464:170|445:113,2,120,14|2|2,0:0|0:0|0:0,0:0:0:0:
449,346,41339,1,10,0:0:0:0:
354,273,41683,2,0,P|339:214|320:157,1,120,2|2,3:0|0:0,0:0:0:0:
236,72,42371,5,6,3:0:0:0:
351,39,42715,1,10,0:0:0:0:
321,158,43058,1,2,3:0:0:0:
436,126,43402,1,10,0:0:0:0:
405,242,43746,2,0,P|412:270|421:299,1,60,2|2,3:0|3:0,0:0:0:0:
437,357,44090,1,10,0:0:0:0:
320,326,44434,6,0,P|264:308|205:293,1,120,14|2,3:2|0:0,0:0:0:0:
147,278,44949,1,2,3:0:0:0:
89,263,45121,2,0,P|99:235|106:206,1,60,10|2,0:0|3:0,0:0:0:0:
123,148,45465,1,2,3:0:0:0:
81,37,45809,1,10,0:0:0:0:
200,58,46153,1,2,3:0:0:0:
123,148,46497,6,0,P|113:176|106:206,1,60,2|10,3:0|0:0,0:0:0:0:
89,263,46841,2,0,P|102:289|114:317,1,60,2|2,3:0|0:0,0:0:0:0:
140,371,47185,2,0,P|165:357|193:345,1,60,2|2,0:0|3:0,0:0:0:0:
249,322,47528,1,10,0:0:0:0:
363,356,47872,1,2,3:0:0:0:
333,239,48216,1,2,3:0:0:0:
