osu file format v14

[General]
AudioFilename: audio.mp3
AudioLeadIn: 0
PreviewTime: 20280
Countdown: 0
SampleSet: Soft
StackLeniency: 0.5
Mode: 0
LetterboxInBreaks: 0
WidescreenStoryboard: 1

[Editor]
DistanceSpacing: 0.4
BeatDivisor: 4
GridSize: 4
TimelineZoom: 1.5

[Metadata]
Title:Genkaku Catastrophe
TitleUnicode:幻覚カタストロフィー
Artist:Numtack05
ArtistUnicode:Numtack05
Creator:Cris-
Version:Insane
Source:osu!
Tags:Fall _tranquility Featured Artist FA Mappers' Guild MG Vocaloid Showcase #2 Vocaparty! J-Rock JRock Rock Japanese Illusion うp主 Upnushi Uploader PutinP Series Putin-P しうか Shuika Shiuka 初音ミク Hatsune Miku プーチンP シリーズ
BeatmapID:2528042
BeatmapSetID:1214702

[Difficulty]
HPDrainRate:5
CircleSize:6
OverallDifficulty:8
ApproachRate:9
SliderMultiplier:1.5
SliderTickRate:1

[Events]
//Background and Video events
0,0,"Genkaku Catastrophe.png",0,0
Video,0,"Genkaku Catastrophe Video.avi"
//Break Periods
//Storyboard Layer 0 (Background)
//Storyboard Layer 1 (Fail)
//Storyboard Layer 2 (Pass)
//Storyboard Layer 3 (Foreground)
//Storyboard Layer 4 (Overlay)
//Storyboard Sound Samples

[TimingPoints]
4550,343.839541547278,4,2,1,60,1,0
4550,-111.111111111111,4,2,1,60,0,0
5151,-111.111111111111,4,2,1,5,0,0
5237,-111.111111111111,4,2,1,60,0,0
6956,-111.111111111111,4,2,1,60,0,0
8246,-111.111111111111,4,2,1,5,0,0
8332,-111.111111111111,4,2,1,60,0,0
8933,-111.111111111111,4,2,1,5,0,0
9019,-111.111111111111,4,2,1,60,0,0
11684,-111.111111111111,4,2,1,5,0,0
11770,-111.111111111111,4,2,1,60,0,0
15552,-111.111111111111,4,2,1,65,0,0
16154,-111.111111111111,4,2,1,5,0,0
16240,-111.111111111111,4,2,1,65,0,0
17186,-111.111111111111,4,2,1,5,0,0
17272,-111.111111111111,4,2,1,65,0,0
19249,-111.111111111111,4,2,1,5,0,0
19335,-111.111111111111,4,2,1,65,0,0
19936,-111.111111111111,4,2,1,5,0,0
20022,-111.111111111111,4,2,1,65,0,0
21312,-111.111111111111,4,2,1,5,0,0
21398,-111.111111111111,4,2,1,65,0,0
25438,-111.111111111111,4,2,1,5,0,0
25524,-111.111111111111,4,2,1,65,0,0
26555,343.839541547278,7,2,1,70,1,1
26555,-83.3333333333333,7,2,1,70,0,1
35838,-83.3333333333333,7,2,1,70,0,0
36182,343.839541547278,6,2,1,70,1,1
36182,-83.3333333333333,6,2,1,70,0,1
44090,-83.3333333333333,6,2,1,70,0,0
44434,343.839541547278,7,2,1,70,1,1
44434,-83.3333333333333,7,2,1,70,0,1
48216,-100,7,2,1,50,0,0

[Colours]
Combo1 : 197,86,80
Combo2 : 188,167,14
Combo3 : 134,187,85
Combo4 : 137,122,169

[HitObjects]
132,358,4550,5,6,3:0:0:0:
255,255,4893,2,0,B|227:267|202:246|215:234|191:219|165:228,1,101.249996910095,2|0,0:0|0:0,0:0:0:0:
146,232,5237,2,0,B|92:200|82:138|107:99|171:109|166:161,1,202.499993820191,2|2,0:0|0:0,0:0:0:0:
165,168,5839,1,2,0:0:0:0:
163,175,5925,6,0,P|96:185|32:204,1,134.999995880127,6|2,3:0|0:0,0:0:0:0:
158,51,6613,2,0,P|207:59|256:72,1,101.249996910095,2|0,0:0|0:0,0:0:0:0:
263,75,6956,1,2,0:0:0:0:
269,78,7042,1,0,0:0:0:0:
275,81,7128,1,2,0:0:0:0:
281,84,7214,1,2,0:0:0:0:
286,87,7300,6,0,B|297:114|279:138|279:138|258:151|258:151|239:174|250:203,1,134.999995880127,6|0,3:0|0:0,0:0:0:0:
332,301,7816,1,2,0:0:0:0:
342,297,7902,1,0,0:0:0:0:
352,294,7988,2,0,P|399:306|450:319,1,101.249996910095,2|0,0:0|0:0,0:0:0:0:
466,324,8332,1,2,3:0:0:0:
355,373,8504,1,2,0:0:0:0:
345,377,8590,1,2,0:0:0:0:
335,380,8676,6,0,P|287:367|237:355,1,101.249996910095,6|0,3:0|0:0,0:0:0:0:
217,351,9019,2,0,P|212:366|208:383,2,33.7499989700318,2|0|2,0:0|0:0|0:0,0:0:0:0:
360,261,9363,2,0,P|355:276|351:293,1,33.7499989700318,2|0,0:0|0:0,0:0:0:0:
293,226,9535,2,0,P|289:209|283:193,1,33.7499989700318,2|0,0:0|0:0,0:0:0:0:
254,290,9707,2,0,P|222:293|195:274,1,67.4999979400635,2|0,3:0|0:0,0:0:0:0:
357,183,10051,5,6,3:0:0:0:
197,85,10395,2,0,P|181:90|166:95,3,33.7499989700318,2|0|2|0,0:0|0:0|0:0|0:0,0:0:0:0:
120,51,10739,2,0,P|109:63|104:79,1,33.7499989700318,2|0,0:0|0:0,0:0:0:0:
40,80,10911,2,0,P|41:96|49:111,1,33.7499989700318,2|0,0:0|0:0,0:0:0:0:
3,154,11082,1,2,0:0:0:0:
60,6,11254,1,2,0:0:0:0:
156,161,11426,6,0,P|107:177|60:194,1,101.249996910095,6|0,3:0|0:0,0:0:0:0:
51,199,11770,1,2,0:0:0:0:
45,207,11856,1,0,0:0:0:0:
42,216,11942,1,2,0:0:0:0:
42,226,12028,1,2,0:0:0:0:
48,233,12114,2,0,P|65:233|67:218,3,33.7499989700318,2|0|2|0,0:0|0:0|0:0|0:0,0:0:0:0:
17,289,12458,1,2,0:0:0:0:
134,384,12630,1,2,0:0:0:0:
146,379,12716,1,2,0:0:0:0:
159,374,12802,6,0,B|182:321|134:287|134:287|135:305|128:321,1,134.999995880127,6|0,3:0|0:0,0:0:0:0:
236,265,13317,1,2,0:0:0:0:
128,152,13489,2,0,P|111:157|100:168,1,33.7499989700318,2|0,0:0|0:0,0:0:0:0:
158,97,13661,2,0,P|142:89|127:89,1,33.7499989700318,2|0,0:0|0:0,0:0:0:0:
217,80,13833,1,2,0:0:0:0:
134,242,14005,1,2,0:0:0:0:
139,227,14091,1,0,0:0:0:0:
144,214,14177,6,0,P|208:230|272:253,1,134.999995880127,6|2,3:0|0:0,0:0:0:0:
404,172,14865,1,2,3:0:0:0:
412,177,14951,1,0,3:0:0:0:
418,184,15037,1,2,3:0:0:0:
422,193,15123,1,0,3:0:0:0:
418,202,15209,2,0,P|402:208|394:194,1,33.7499989700318,2|0,3:0|3:0,0:0:0:0:
480,139,15380,2,0,P|495:132|503:146,1,33.7499989700318,2|0,3:0|3:0,0:0:0:0:
394,97,15552,5,6,0:0:0:0:
486,271,15896,2,0,P|442:266|446:310,1,101.249996910095,2|0,0:0|0:0,0:0:0:0:
455,317,16240,2,0,P|387:329|330:360,1,134.999995880127,2|2,0:0|0:0,0:0:0:0:
204,269,16756,1,2,0:0:0:0:
197,280,16842,1,2,0:0:0:0:
190,291,16928,6,0,B|253:318|253:318|283:306,1,101.249996910095,10|0,0:0|0:0,0:0:0:0:
299,299,17272,1,2,0:0:0:0:
137,384,17615,2,0,B|118:366|121:338|121:338|98:351|73:341,1,101.249996910095,2|0,0:0|0:0,0:0:0:0:
62,336,17959,1,2,0:0:0:0:
56,328,18045,1,0,0:0:0:0:
53,319,18131,1,2,0:0:0:0:
53,309,18217,1,2,0:0:0:0:
59,302,18303,6,0,P|55:244|9:273,1,134.999995880127,6|2,3:0|0:0,0:0:0:0:
131,345,18819,1,2,0:0:0:0:
138,333,18905,1,0,0:0:0:0:
145,321,18991,2,0,P|192:337|240:355,1,101.249996910095,2|0,0:0|0:0,0:0:0:0:
260,364,19335,1,2,3:0:0:0:
138,254,19507,1,2,0:0:0:0:
131,242,19593,1,2,0:0:0:0:
124,230,19679,6,0,P|76:246|28:264,1,101.249996910095,14|0,0:0|0:0,0:0:0:0:
9,273,20023,1,2,0:0:0:0:
205,272,20366,1,2,0:0:0:0:
210,257,20452,1,0,0:0:0:0:
215,242,20538,1,2,0:0:0:0:
220,228,20624,1,0,0:0:0:0:
225,213,20710,2,0,P|256:221|289:229,1,67.4999979400635,2|0,3:0|0:0,0:0:0:0:
180,346,21054,6,0,B|152:358|127:337|140:325|116:310|90:319,1,101.249996910095,6|0,3:2|0:0,0:0:0:0:
80,322,21398,1,2,0:0:0:0:
70,318,21484,1,0,0:0:0:0:
66,308,21570,2,0,P|75:295|90:301,1,33.7499989700318,2|0,0:0|0:0,0:0:0:0:
24,363,21741,2,0,P|15:376|0:370,1,33.7499989700318,2|0,3:0|0:0,0:0:0:0:
63,293,21913,2,0,P|72:280|87:286,1,33.7499989700318,2|0,0:0|0:0,0:0:0:0:
27,378,22085,1,2,3:0:0:0:
0,263,22257,1,2,0:0:0:0:
180,346,22429,5,10,0:0:0:0:
33,138,22773,2,0,P|20:150|16:165,1,33.7499989700318,2|0,0:0|0:0,0:0:0:0:
31,74,22945,2,0,P|13:75|0:82,1,33.7499989700318,2|0,3:0|0:0,0:0:0:0:
76,28,23117,1,2,0:0:0:0:
85,37,23203,1,0,0:0:0:0:
91,48,23289,1,2,0:0:0:0:
94,61,23375,1,0,0:0:0:0:
95,74,23461,2,0,P|126:66|159:58,1,67.4999979400635,2|2,0:0|0:0,0:0:0:0:
99,155,23719,1,0,0:0:0:0:
99,155,23805,6,0,P|66:147|33:138,1,67.4999979400635,6|0,3:2|3:0,0:0:0:0:
228,37,24320,1,2,0:0:0:0:
182,158,24492,2,0,P|178:141|173:125,1,33.7499989700318,2|0,3:0|0:0,0:0:0:0:
246,191,24664,2,0,P|249:174|254:158,1,33.7499989700318,2|0,0:0|0:0,0:0:0:0:
183,234,24836,1,2,0:0:0:0:
331,294,25008,1,2,0:0:0:0:
335,282,25094,1,2,0:0:0:0:
339,270,25180,6,0,B|367:258|392:279|379:291|403:306|429:297,1,101.249996910095,14|0,0:0|0:0,0:0:0:0:
445,292,25524,1,0,3:0:0:0:
294,361,25696,1,2,0:0:0:0:
254,274,25868,1,2,3:0:0:0:
167,369,26039,1,2,0:0:0:0:
102,226,26211,1,2,3:0:0:0:
22,380,26383,1,2,0:0:0:0:
254,274,26555,6,0,P|212:261|168:247,1,89.9999972534181,14|2,3:2|0:0,0:0:0:0:
1,310,26898,1,2,0:0:0:0:
72,332,27070,1,2,3:0:0:0:
37,176,27242,1,10,0:0:0:0:
108,154,27414,1,2,3:0:0:0:
1,310,27586,6,0,P|43:300|72:332,1,89.9999972534181,2|0,3:0|3:0,0:0:0:0:
37,176,27930,2,0,P|71:201|66:244,1,89.9999972534181,10|0,0:0|0:0,0:0:0:0:
183,151,28274,2,0,P|185:193|149:217,1,89.9999972534181,2|0,3:0|3:0,0:0:0:0:
16,117,28618,5,2,3:0:0:0:
13,106,28790,1,10,0:0:0:0:
183,151,28961,5,2,3:0:0:0:
205,80,29133,1,2,0:0:0:0:
148,217,29305,1,2,0:0:0:0:
108,154,29477,1,2,3:0:0:0:
181,285,29649,6,0,P|208:248|234:212,1,89.9999972534181,10|0,0:0|0:0,0:0:0:0:
296,381,29993,2,0,P|260:355|224:329,1,89.9999972534181,2|0,3:0|0:0,0:0:0:0:
384,258,30337,2,0,P|358:294|332:331,1,89.9999972534181,10|0,0:0|0:0,0:0:0:0:
270,162,30681,2,0,P|306:188|343:215,1,89.9999972534181,2|0,3:0|3:0,0:0:0:0:
286,272,31024,1,10,0:0:0:0:
286,272,31368,6,0,P|242:279|247:315,1,89.9999972534181,14|2,0:0|0:0,0:0:0:0:
343,215,31711,1,2,0:0:0:0:
270,162,31883,1,2,3:0:0:0:
168,277,32056,1,2,0:0:0:0:
95,224,32228,1,2,3:0:0:0:
270,162,32400,6,0,B|270:145|252:138|252:138|197:157,1,89.9999972534181,10|0,0:0|0:0,0:0:0:0:
326,118,32744,2,0,B|337:107|330:89|330:89|277:63,1,89.9999972534181,2|0,3:0|3:0,0:0:0:0:
391,146,33087,2,0,B|407:146|414:128|414:128|395:73,1,89.9999972534181,10|0,0:0|0:0,0:0:0:0:
343,215,33431,5,2,3:0:0:0:
340,204,33603,1,2,0:0:0:0:
415,298,33775,5,10,0:0:0:0:
448,231,33947,1,2,0:0:0:0:
409,311,34119,1,2,3:0:0:0:
391,146,34291,1,2,3:0:0:0:
403,324,34463,6,0,P|361:303|321:284,1,89.9999972534181,10|2,0:0|3:0,0:0:0:0:
448,231,34807,1,2,3:0:0:0:
456,246,34893,1,10,0:0:0:0:
455,263,34979,1,2,3:0:0:0:
309,183,35150,6,0,B|296:207|320:221|320:221|345:218|343:189,1,89.9999972534181,10|0,0:0|3:0,0:0:0:0:
477,104,35494,2,0,B|479:75|454:72|454:72|430:86|443:110,1,89.9999972534181,10|0,0:0|0:0,0:0:0:0:
305,35,35838,1,2,3:0:0:0:
305,35,36182,6,0,P|298:78|290:123,1,89.9999972534181,14|2,0:0|0:0,0:0:0:0:
422,55,36525,1,2,0:0:0:0:
371,0,36697,1,2,3:0:0:0:
343,189,36869,6,0,P|388:185|419:212,1,89.9999972534181,10|0,0:0|3:0,0:0:0:0:
317,309,37213,2,0,P|291:272|298:230,1,89.9999972534181,2|0,3:0|3:0,0:0:0:0:
434,270,37557,2,0,P|414:310|375:325,1,89.9999972534181,2|0,0:0|3:0,0:0:0:0:
365,257,37901,1,10,0:0:0:0:
181,384,38245,6,0,P|148:351|114:323,1,89.9999972534181,2|0,3:0|0:0,0:0:0:0:
259,271,38588,2,0,P|247:314|239:358,1,89.9999972534181,2|0,0:0|3:0,0:0:0:0:
123,259,38932,2,0,P|167:247|208:231,1,89.9999972534181,10|0,0:0|3:0,0:0:0:0:
306,87,39276,6,0,B|298:63|271:61|271:61|256:79|268:103,1,89.9999972534181,6|0,3:2|0:0,0:0:0:0:
356,160,39620,2,0,B|381:165|395:142|395:142|387:121|361:119,1,89.9999972534181,2|0,3:0|3:0,0:0:0:0:
268,167,39964,2,0,B|251:186|264:210|264:210|286:214|301:192,1,89.9999972534181,2|0,0:0|0:0,0:0:0:0:
189,133,40308,6,0,B|142:106|99:148|121:165|84:206|33:180,2,179.999994506836,14|2|2,0:0|0:0|0:0,0:0:0:0:
35,181,41339,1,10,0:0:0:0:
188,302,41683,2,0,B|141:328|98:286|120:269|83:228|32:254,1,179.999994506836,2|2,3:0|0:0,0:0:0:0:
257,322,42371,6,0,P|266:280|285:238,1,89.9999972534181,6|2,3:0|3:0,0:0:0:0:
238,384,42714,1,10,0:0:0:0:
193,338,42886,1,0,0:0:0:0:
346,258,43058,2,0,P|337:300|318:342,1,89.9999972534181,2|0,3:0|0:0,0:0:0:0:
365,196,43401,1,10,0:0:0:0:
410,242,43573,1,2,0:0:0:0:
320,150,43746,5,2,3:0:0:0:
308,158,43832,1,10,0:0:0:0:
298,164,43918,2,0,P|288:142|281:123,1,44.999998626709,2|2,3:0|3:0,0:0:0:0:
365,196,44090,2,0,P|381:156|398:113,1,89.9999972534181,10|0,0:0|0:0,0:0:0:0:
277,272,44434,6,0,P|247:240|206:250,1,89.9999972534181,14|2,3:2|0:0,0:0:0:0:
61,323,44777,1,2,0:0:0:0:
148,347,44949,1,2,3:0:0:0:
97,189,45121,1,10,0:0:0:0:
184,165,45293,1,2,3:0:0:0:
61,323,45465,6,0,P|103:334|147:347,1,89.9999972534181,2|0,3:0|3:0,0:0:0:0:
97,189,45809,2,0,P|115:228|135:270,1,89.9999972534181,10|0,0:0|0:0,0:0:0:0:
245,169,46153,2,0,P|226:208|207:250,1,89.9999972534181,2|0,3:0|3:0,0:0:0:0:
76,132,46497,5,2,3:0:0:0:
71,121,46669,1,10,0:0:0:0:
245,169,46840,5,2,3:0:0:0:
284,88,47012,1,2,0:0:0:0:
207,250,47184,1,2,0:0:0:0:
157,174,47356,1,2,3:0:0:0:
245,321,47528,6,0,P|269:286|294:246,1,89.9999972534181,10|0,0:0|0:0,0:0:0:0:
117,283,47872,2,0,P|102:354|166:320,1,179.999994506836,2|2,3:0|3:0,0:0:0:0:
