osu file format v14

[General]
AudioFilename: audio.mp3
AudioLeadIn: 0
PreviewTime: 20280
Countdown: 0
SampleSet: Soft
StackLeniency: 0.5
Mode: 0
LetterboxInBreaks: 0
WidescreenStoryboard: 1

[Editor]
DistanceSpacing: 1.2
BeatDivisor: 4
GridSize: 4
TimelineZoom: 1.4

[Metadata]
Title:Genkaku Catastrophe
TitleUnicode:幻覚カタストロフィー
Artist:Numtack05
ArtistUnicode:Numtack05
Creator:Cris-
Version:Hard
Source:osu!
Tags:Fall _tranquility Featured Artist FA Mappers' Guild MG Vocaloid Showcase #2 Vocaparty! J-Rock JRock Rock Japanese Illusion うp主 Upnushi Uploader PutinP Series Putin-P しうか Shuika Shiuka 初音ミク Hatsune Miku プーチンP シリーズ
BeatmapID:2528040
BeatmapSetID:1214702

[Difficulty]
HPDrainRate:4
CircleSize:4
OverallDifficulty:6.5
ApproachRate:8
SliderMultiplier:1.4
SliderTickRate:1

[Events]
//Background and Video events
Video,0,"Genkaku Catastrophe Video.avi"
0,0,"Genkaku Catastrophe.png",0,0
//Break Periods
//Storyboard Layer 0 (Background)
//Storyboard Layer 1 (Fail)
//Storyboard Layer 2 (Pass)
//Storyboard Layer 3 (Foreground)
//Storyboard Layer 4 (Overlay)
//Storyboard Sound Samples

[TimingPoints]
4550,343.839541547278,4,2,1,60,1,0
5151,-100,4,2,1,5,0,0
5237,-100,4,2,1,60,0,0
8246,-100,4,2,1,5,0,0
8332,-100,4,2,1,60,0,0
9965,-100,4,2,1,5,0,0
10051,-100,4,2,1,60,0,0
15552,-100,4,2,1,65,0,0
16154,-100,4,2,1,5,0,0
16240,-100,4,2,1,65,0,0
23375,-100,4,2,1,5,0,0
23461,-100,4,2,1,65,0,0
23719,-100,4,2,1,5,0,0
23805,-100,4,2,1,65,0,0
26555,343.839541547278,7,2,1,70,1,1
26555,-90.9090909090909,7,2,1,70,0,1
35838,-90.9090909090909,7,2,1,70,0,0
36182,343.839541547278,6,2,1,70,1,1
36182,-90.9090909090909,6,2,1,70,0,1
44090,-90.9090909090909,6,2,1,70,0,0
44434,343.839541547278,7,2,1,70,1,1
44434,-90.9090909090909,7,2,1,70,0,1
48216,-100,7,2,1,50,0,0

[Colours]
Combo1 : 197,86,80
Combo2 : 188,167,14
Combo3 : 134,187,85
Combo4 : 137,122,169

[HitObjects]
25,202,4550,5,6,3:0:0:0:
144,83,4893,2,0,P|156:132|167:184,1,105,2|0,0:0|0:0,0:0:0:0:
176,226,5237,2,0,B|230:255|280:211|256:192|314:146|360:176,1,210,2|2,0:0|0:0,0:0:0:0:
402,199,5839,1,2,0:0:0:0:
402,199,5925,6,0,P|408:139|465:160,1,140,6|2,3:0|0:0,0:0:0:0:
431,326,6613,2,0,P|363:309|295:293,1,140,2|2,0:0|0:0,0:0:0:0:
237,354,7128,1,2,0:0:0:0:
237,354,7214,1,2,0:0:0:0:
237,354,7300,6,0,P|191:306|127:325,1,140,6|0,3:0|0:0,0:0:0:0:
63,381,7816,1,2,0:0:0:0:
22,307,7988,2,0,B|9:275|9:275|39:212,1,105,2|0,0:0|0:0,0:0:0:0:
58,173,8332,2,0,P|89:186|121:200,1,70,2|2,3:0|0:0,0:0:0:0:
165,219,8590,1,2,0:0:0:0:
165,219,8676,6,0,P|211:171|275:190,1,140,6|2,3:0|0:0,0:0:0:0:
402,299,9363,2,0,P|411:265|426:234,1,70,2|2,0:0|0:0,0:0:0:0:
443,196,9621,1,0,0:0:0:0:
443,196,9707,2,0,P|431:144|409:98,1,105,2|0,3:0|0:0,0:0:0:0:
384,62,10051,5,6,3:0:0:0:
275,190,10395,2,0,P|258:186|241:182,3,35,2|0|2|0,0:0|0:0|0:0|0:0,0:0:0:0:
198,177,10739,2,0,P|130:194|62:210,1,140,2|2,0:0|0:0,0:0:0:0:
2,151,11254,1,2,0:0:0:0:
30,71,11426,6,0,P|97:54|166:37,1,140,6|2,3:0|0:0,0:0:0:0:
283,156,12114,2,0,P|279:172|275:189,3,35,2|0|2|0,0:0|0:0|0:0|0:0,0:0:0:0:
264,231,12458,1,2,0:0:0:0:
307,313,12630,1,2,0:0:0:0:
307,313,12716,1,2,0:0:0:0:
307,313,12802,6,0,B|361:342|411:298|387:279|445:233|491:263,1,210,6|2,3:0|0:0,0:0:0:0:
512,181,13489,2,0,P|493:118|470:48,1,140,2|2,0:0|0:0,0:0:0:0:
396,5,14005,1,2,0:0:0:0:
361,81,14177,6,0,P|314:129|251:110,1,140,6|2,3:0|0:0,0:0:0:0:
101,31,14865,2,0,P|97:47|93:64,3,35,2|0|2|0,3:0|3:0|3:0|3:0,0:0:0:0:
81,105,15209,2,0,P|88:139|96:173,1,70,2|2,3:0|3:0,0:0:0:0:
41,236,15552,5,6,0:0:0:0:
172,345,15896,2,0,B|235:315|235:315|267:328,1,105,2|0,0:0|0:0,0:0:0:0:
305,347,16240,2,0,B|337:360|337:360|432:316,1,140,2|2,0:0|0:0,0:0:0:0:
385,251,16756,1,2,0:0:0:0:
385,251,16842,1,2,0:0:0:0:
385,251,16928,5,10,0:0:0:0:
511,140,17272,1,2,0:0:0:0:
363,59,17615,2,0,P|295:79|229:101,1,140,2|2,0:0|0:0,0:0:0:0:
163,54,18131,1,2,0:0:0:0:
163,54,18217,1,2,0:0:0:0:
163,54,18303,6,0,P|148:120|188:174,1,140,6|2,3:0|0:0,0:0:0:0:
326,271,18991,2,0,P|345:203|367:137,1,140,2|2,0:0|3:0,0:0:0:0:
439,89,19507,1,2,0:0:0:0:
439,89,19592,1,2,0:0:0:0:
439,89,19678,6,0,B|404:78|393:39|393:39|364:68|330:59,1,140,14|2,0:0|0:0,0:0:0:0:
165,22,20366,2,0,P|169:38|173:55,3,35,2|0|2|0,0:0|0:0|0:0|0:0,0:0:0:0:
183,97,20710,2,0,P|175:131|167:165,1,70,2|0,3:0|0:0,0:0:0:0:
96,211,21054,6,0,P|150:251|216:236,1,140,6|2,3:2|0:0,0:0:0:0:
259,223,21484,1,0,0:0:0:0:
259,223,21570,1,2,0:0:0:0:
307,291,21741,2,0,P|323:286|341:282,3,35,2|0|2|0,3:0|0:0|0:0|0:0,0:0:0:0:
382,273,22085,1,2,3:0:0:0:
448,324,22257,1,2,0:0:0:0:
487,249,22429,6,0,P|479:214|471:180,1,70,10|0,0:0|0:0,0:0:0:0:
411,128,22773,1,2,0:0:0:0:
411,128,22945,1,2,3:0:0:0:
367,198,23117,2,0,B|298:213|298:213|270:193,1,105,2|0,0:0|0:0,0:0:0:0:
237,165,23461,2,0,B|208:145|208:145|140:160,1,105,2|0,0:0|0:0,0:0:0:0:
98,170,23805,6,0,P|90:135|82:101,1,70,6|0,3:2|3:0,0:0:0:0:
23,259,24320,1,2,0:0:0:0:
84,316,24492,2,0,P|153:301|220:286,1,140,2|2,3:0|0:0,0:0:0:0:
288,336,25008,1,2,0:0:0:0:
325,260,25180,5,14,0:0:0:0:
457,363,25524,2,0,P|465:328|473:294,1,70,0|2,3:0|0:0,0:0:0:0:
493,215,25868,1,2,3:0:0:0:
493,215,26039,1,2,0:0:0:0:
412,238,26211,1,2,3:0:0:0:
473,295,26383,1,2,0:0:0:0:
387,331,26555,6,0,P|354:311|317:318,1,77.0000023498536,14|2,3:2|0:0,0:0:0:0:
241,370,26898,1,2,0:0:0:0:
187,292,27070,1,2,3:0:0:0:
265,242,27242,1,10,0:0:0:0:
318,318,27414,1,2,3:0:0:0:
265,242,27586,6,0,P|272:169|298:93,1,154.000004699707,2|10,3:0|0:0,0:0:0:0:
443,222,28274,1,2,3:0:0:0:
443,222,28618,6,0,P|405:230|367:239,1,77.0000023498536,2|10,3:0|0:0,0:0:0:0:
318,318,28961,1,2,3:0:0:0:
239,266,29133,1,2,0:0:0:0:
290,189,29305,1,2,0:0:0:0:
211,137,29477,1,2,3:0:0:0:
290,189,29649,5,10,0:0:0:0:
132,85,29993,2,0,B|91:97|79:136|79:136|48:109|7:120,1,154.000004699707,2|10,3:0|0:0,0:0:0:0:
155,8,30681,2,0,B|195:20|207:59|207:59|238:32|279:43,1,154.000004699707,2|10,3:0|0:0,0:0:0:0:
159,184,31368,6,0,P|151:221|171:253,1,77.0000023498536,14|2,0:0|0:0,0:0:0:0:
244,307,31712,1,2,0:0:0:0:
193,384,31884,1,2,3:0:0:0:
117,329,32056,1,2,0:0:0:0:
171,253,32228,1,2,3:0:0:0:
117,329,32400,6,0,B|7:348|7:348|45:366,1,154.000004699707,10|2,0:0|3:0,0:0:0:0:
244,307,33087,1,10,0:0:0:0:
244,307,33431,6,0,P|281:298|319:289,1,77.0000023498536,2|2,3:0|0:0,0:0:0:0:
397,340,33774,1,10,0:0:0:0:
448,263,33947,1,2,0:0:0:0:
369,211,34118,1,2,3:0:0:0:
420,134,34291,1,2,3:0:0:0:
369,211,34463,6,0,P|331:202|293:193,1,77.0000023498536,10|2,0:0|3:0,0:0:0:0:
227,257,34807,1,2,3:0:0:0:
227,257,34893,1,10,0:0:0:0:
227,257,34979,1,2,3:0:0:0:
187,174,35150,2,0,P|195:136|204:98,1,77.0000023498536,10|0,0:0|3:0,0:0:0:0:
113,81,35494,2,0,P|104:118|95:156,1,77.0000023498536,10|0,0:0|0:0,0:0:0:0:
124,244,35838,1,2,3:0:0:0:
294,193,36182,6,0,P|332:202|370:211,1,77.0000023498536,14|2,0:0|0:0,0:0:0:0:
433,144,36525,1,2,0:0:0:0:
368,210,36697,1,2,3:0:0:0:
433,144,36869,2,0,P|471:153|509:162,1,77.0000023498536,10|0,0:0|3:0,0:0:0:0:
491,70,37213,2,0,P|453:61|415:52,1,77.0000023498536,2|0,3:0|3:0,0:0:0:0:
354,122,37557,6,0,P|290:131|305:66,1,154.000004699707,2|10,0:0|0:0,0:0:0:0:
426,206,38245,2,0,P|398:272|381:352,1,154.000004699707,2|2,3:0|0:0,0:0:0:0:
224,254,38932,1,10,0:0:0:0:
354,122,39276,2,0,B|382:82|362:18|320:6|298:33|316:53,2,154.000004699707,6|2|2,3:2|3:0|0:0,0:0:0:0:
224,254,40308,6,0,B|184:272|147:242|165:228|128:199|86:216,1,154.000004699707,14|2,0:0|0:0,0:0:0:0:
262,160,40995,1,2,0:0:0:0:
262,160,41339,1,10,0:0:0:0:
219,342,41683,1,2,3:0:0:0:
219,342,42027,1,2,0:0:0:0:
87,216,42371,6,0,P|75:153|141:167,1,154.000004699707,6|10,3:0|0:0,0:0:0:0:
140,165,43058,1,2,3:0:0:0:
31,313,43402,1,10,0:0:0:0:
219,342,43746,5,2,3:0:0:0:
219,342,43832,1,10,0:0:0:0:
219,342,43918,1,2,3:0:0:0:
182,257,44090,2,0,P|220:248|258:239,1,77.0000023498536,10|0,0:0|0:0,0:0:0:0:
347,260,44434,6,0,P|354:222|335:189,1,77.0000023498536,14|2,3:2|0:0,0:0:0:0:
260,136,44777,1,2,0:0:0:0:
315,62,44949,1,2,3:0:0:0:
389,116,45121,1,10,0:0:0:0:
336,190,45293,1,2,3:0:0:0:
389,116,45465,6,0,P|453:107|438:172,1,154.000004699707,2|10,3:0|0:0,0:0:0:0:
302,298,46153,1,2,3:0:0:0:
302,298,46497,6,0,P|264:290|226:281,1,77.0000023498536,2|10,3:0|0:0,0:0:0:0:
177,202,46840,1,2,3:0:0:0:
98,254,47012,1,2,0:0:0:0:
149,331,47184,1,2,0:0:0:0:
71,383,47356,1,2,3:0:0:0:
149,331,47528,5,10,0:0:0:0:
41,180,47872,2,0,B|53:139|92:127|92:127|65:96|76:55,1,154.000004699707,2|2,3:0|3:0,0:0:0:0:
