osu file format v14

[General]
AudioFilename: audio.mp3
AudioLeadIn: 0
PreviewTime: 20280
Countdown: 0
SampleSet: Soft
StackLeniency: 0.7
Mode: 0
LetterboxInBreaks: 0
WidescreenStoryboard: 1

[Editor]
DistanceSpacing: 0.6
BeatDivisor: 4
GridSize: 4
TimelineZoom: 1

[Metadata]
Title:Genkaku Catastrophe
TitleUnicode:幻覚カタストロフィー
Artist:Numtack05
ArtistUnicode:Numtack05
Creator:Cris-
Version:Fall's Hyper
Source:osu!
Tags:Fall _tranquility Featured Artist FA Mappers' Guild MG Vocaloid Showcase #2 Vocaparty! J-Rock JRock Rock Japanese Illusion うp主 Upnushi Uploader PutinP Series Putin-P しうか Shuika Shiuka 初音ミク Hatsune Miku プーチンP シリーズ
BeatmapID:2528041
BeatmapSetID:1214702

[Difficulty]
HPDrainRate:4
CircleSize:5
OverallDifficulty:7.7
ApproachRate:8.4
SliderMultiplier:1
SliderTickRate:1

[Events]
//Background and Video events
Video,0,"Genkaku Catastrophe Video.avi"
0,0,"Genkaku Catastrophe Fall.png",0,0
//Break Periods
//Storyboard Layer 0 (Background)
//Storyboard Layer 1 (Fail)
//Storyboard Layer 2 (Pass)
//Storyboard Layer 3 (Foreground)
//Storyboard Layer 4 (Overlay)
//Storyboard Sound Samples

[TimingPoints]
4550,343.839541547278,4,2,1,60,1,0
15552,-100,4,2,1,65,0,0
26555,343.839541547278,7,2,1,70,1,1
26555,-83.3333333333333,7,2,1,70,0,1
35838,-83.3333333333333,7,2,1,70,0,0
36182,343.839541547278,6,2,1,70,1,1
44090,-100,6,2,1,70,0,0
44434,343.839541547278,7,2,1,70,1,1
48216,-100,7,2,1,50,0,0

[Colours]
Combo1 : 197,86,80
Combo2 : 188,167,14
Combo3 : 134,187,85
Combo4 : 137,122,169

[HitObjects]
58,91,4550,6,0,P|129:78|167:80,1,100,6|2,3:0|0:0,0:0:0:0:
292,104,5237,2,0,P|246:123|221:217,1,150,2|2,0:0|0:0,0:0:0:0:
260,281,5925,2,0,P|286:249|288:184,2,100,6|2|2,3:0|0:0|0:0,0:0:0:0:
260,281,7128,1,2,0:0:0:0:
186,311,7300,2,0,B|155:292|155:292|32:293,1,150,6|2,3:0|0:0,0:0:0:0:
9,235,7988,2,0,P|27:193|36:118,1,100,2|2,0:0|3:0,0:0:0:0:
15,67,8504,1,2,0:0:0:0:
68,14,8676,1,6,3:0:0:0:
68,14,10051,5,6,3:0:0:0:
175,75,10395,1,2,0:0:0:0:
309,8,10739,2,0,L|327:169,1,150,2|2,0:0|0:0,0:0:0:0:
341,230,11426,2,0,B|401:229|373:263|456:260,2,100,6|2|2,3:0|0:0|0:0,0:0:0:0:
341,230,12630,1,2,0:0:0:0:
421,164,12802,2,0,P|417:123|461:25,1,150,6|2,3:0|0:0,0:0:0:0:
460,25,13489,2,0,P|435:51|311:38,1,150,2|2,0:0|0:0,0:0:0:0:
266,7,14177,1,6,3:0:0:0:
266,7,14865,5,2,3:0:0:0:
180,130,15209,1,2,3:0:0:0:
284,277,15552,6,0,P|266:240|254:175,1,100,6|2,0:0|0:0,0:0:0:0:
153,70,16240,2,0,P|163:132|143:223,1,150,2|2,0:0|0:0,0:0:0:0:
92,269,16928,1,10,0:0:0:0:
36,152,17272,1,2,0:0:0:0:
161,289,17615,2,0,B|218:295|218:295|242:317|242:317|314:325,1,150,2|2,0:0|0:0,0:0:0:0:
377,328,18303,6,0,P|363:297|378:220,1,100,6|2,3:0|0:0,0:0:0:0:
508,174,18991,2,0,B|477:190|477:190|362:152,1,150,2|2,0:0|0:0,0:0:0:0:
300,119,19678,1,14,0:0:0:0:
300,119,20366,6,0,L|239:130,1,50,2|2,0:0|0:0,0:0:0:0:
143,96,20710,2,0,L|192:87,1,50,2|0,3:0|0:0,0:0:0:0:
84,51,21054,6,0,P|67:99|128:171,1,150,6|2,3:2|0:0,0:0:0:0:
198,175,21741,1,2,3:0:0:0:
198,175,22085,5,2,3:0:0:0:
178,247,22257,1,2,0:0:0:0:
158,319,22429,1,10,0:0:0:0:
158,319,22773,5,2,0:0:0:0:
230,300,22945,1,2,3:0:0:0:
302,281,23117,1,2,0:0:0:0:
424,349,23461,1,2,0:0:0:0:
361,235,23805,6,0,B|346:213|346:213|378:85,1,150,6|2,3:2|0:0,0:0:0:0:
397,26,24492,2,0,L|242:31,1,150,2|2,3:0|0:0,0:0:0:0:
176,36,25180,5,14,0:0:0:0:
176,36,25524,1,0,3:0:0:0:
176,36,25868,5,2,3:0:0:0:
129,95,26039,1,2,0:0:0:0:
176,171,26211,1,2,3:0:0:0:
141,264,26383,1,2,0:0:0:0:
200,370,26555,6,0,B|170:338|170:338|26:320,1,179.999994506836,14|2,3:2|3:0,0:0:0:0:
18,238,27242,1,10,0:0:0:0:
72,173,27414,1,2,3:0:0:0:
72,173,27500,1,0,0:0:0:0:
72,173,27586,2,0,L|142:180,1,59.9999981689454,2|0,3:0|3:0,0:0:0:0:
263,138,27930,1,10,0:0:0:0:
235,207,28102,1,0,0:0:0:0:
274,273,28274,1,2,3:0:0:0:
274,273,28446,1,0,3:0:0:0:
319,186,28618,6,0,P|354:172|455:172,1,119.999996337891,2|2,3:0|3:0,0:0:0:0:
490,222,29133,1,2,0:0:0:0:
435,167,29305,1,2,0:0:0:0:
478,80,29477,1,2,3:0:0:0:
385,12,29649,2,0,L|305:17,1,59.9999981689454,10|0,0:0|0:0,0:0:0:0:
196,85,29993,2,0,L|255:88,1,59.9999981689454,2|0,3:0|0:0,0:0:0:0:
74,5,30337,2,0,B|39:21|39:21|23:112,1,119.999996337891,10|2,0:0|3:0,0:0:0:0:
14,172,30852,1,0,3:0:0:0:
105,70,31024,1,10,0:0:0:0:
187,220,31368,6,0,P|141:189|96:286,1,179.999994506836,14|2,0:0|3:0,0:0:0:0:
134,344,32056,1,2,0:0:0:0:
225,309,32228,1,2,3:0:0:0:
287,358,32400,2,0,P|310:333|325:290,1,59.9999981689454,10|0,0:0|0:0,0:0:0:0:
386,245,32744,2,0,P|363:220|348:177,1,59.9999981689454,2|0,3:0|3:0,0:0:0:0:
419,103,33087,1,10,0:0:0:0:
419,103,33431,6,0,B|376:124|376:124|286:91,1,119.999996337891,2|10,3:0|0:0,0:0:0:0:
383,36,33947,1,2,0:0:0:0:
292,3,34119,1,2,3:0:0:0:
292,3,34291,1,2,3:0:0:0:
234,102,34463,1,10,0:0:0:0:
308,99,34635,1,2,3:0:0:0:
193,39,34807,1,2,3:0:0:0:
175,33,34893,1,10,0:0:0:0:
157,27,34979,1,2,3:0:0:0:
36,80,35150,2,0,L|106:73,1,59.9999981689454,10|0,0:0|3:0,0:0:0:0:
151,176,35494,5,10,0:0:0:0:
36,80,35838,1,2,3:0:0:0:
8,273,36182,6,0,B|75:281|49:359|150:327,1,150,14|2,0:0|3:0,0:0:0:0:
275,291,36869,2,0,P|236:274|211:286,1,50,10|0,0:0|3:0,0:0:0:0:
152,255,37213,5,2,3:0:0:0:
106,128,37557,1,2,0:0:0:0:
238,151,37901,1,10,0:0:0:0:
431,195,38245,5,2,3:0:0:0:
308,137,38589,1,2,0:0:0:0:
418,60,38933,1,10,0:0:0:0:
350,218,39276,5,6,3:2:0:0:
253,44,39620,1,2,3:0:0:0:
206,91,39792,1,0,3:0:0:0:
161,42,39964,1,2,0:0:0:0:
14,226,40308,6,0,P|42:211|78:210,1,50,14|0,0:0|0:0,0:0:0:0:
128,118,40651,2,0,P|100:133|64:134,1,50,2|2,0:0|3:0,0:0:0:0:
119,253,40995,1,2,0:0:0:0:
220,352,41339,6,0,L|231:292,1,50,10|0,0:0|0:0,0:0:0:0:
294,216,41683,2,0,L|305:276,1,50,2|0,3:0|3:0,0:0:0:0:
237,153,42027,1,2,0:0:0:0:
434,60,42371,6,0,P|409:132|323:144,1,150,6|0,3:0|0:0,0:0:0:0:
280,51,43058,2,0,B|299:73|299:73|288:104,1,50,2|0,3:0|0:0,0:0:0:0:
373,222,43402,1,10,0:0:0:0:
237,153,43574,1,2,0:0:0:0:
196,76,43746,1,2,3:0:0:0:
186,87,43832,1,10,0:0:0:0:
174,96,43918,1,2,3:0:0:0:
88,204,44090,1,10,0:0:0:0:
88,204,44434,6,0,P|136:246|164:333,1,150,14|2,3:2|3:0,0:0:0:0:
239,365,45121,1,10,0:0:0:0:
312,313,45293,1,2,3:0:0:0:
312,313,45379,1,0,0:0:0:0:
312,313,45465,2,0,L|319:258,1,50,2|0,3:0|3:0,0:0:0:0:
226,221,45809,2,0,L|219:166,1,50,10|0,0:0|0:0,0:0:0:0:
275,111,46153,1,2,3:0:0:0:
275,111,46497,6,0,B|327:133|327:133|434:86,1,150,2|2,3:0|0:0,0:0:0:0:
476,188,47184,1,2,0:0:0:0:
502,105,47356,1,2,3:0:0:0:
412,221,47528,2,0,P|441:248|468:253,1,50,10|0,0:0|0:0,0:0:0:0:
352,272,47872,2,0,P|338:305|307:328,1,75,2|0,3:0|0:0,0:0:0:0:
281,336,48216,1,2,3:0:0:0:
