osu file format v14

[General]
AudioFilename: audio.mp3
AudioLeadIn: 0
PreviewTime: 20280
Countdown: 0
SampleSet: Soft
StackLeniency: 0.7
Mode: 0
LetterboxInBreaks: 0
WidescreenStoryboard: 1

[Editor]
DistanceSpacing: 1
BeatDivisor: 2
GridSize: 4
TimelineZoom: 1

[Metadata]
Title:Genkaku Catastrophe
TitleUnicode:幻覚カタストロフィー
Artist:Numtack05
ArtistUnicode:Numtack05
Creator:Cris-
Version:Fall's Easy
Source:osu!
Tags:Fall _tranquility Featured Artist FA Mappers' Guild MG Vocaloid Showcase #2 Vocaparty! J-Rock JRock Rock Japanese Illusion うp主 Upnushi Uploader PutinP Series Putin-P しうか Shuika Shiuka 初音ミク Hatsune Miku プーチンP シリーズ
BeatmapID:2528037
BeatmapSetID:1214702

[Difficulty]
HPDrainRate:2
CircleSize:1
OverallDifficulty:2
ApproachRate:3
SliderMultiplier:1
SliderTickRate:1

[Events]
//Background and Video events
Video,0,"Genkaku Catastrophe Video.avi"
0,0,"Genkaku Catastrophe Fall.png",0,0
//Break Periods
//Storyboard Layer 0 (Background)
//Storyboard Layer 1 (Fail)
//Storyboard Layer 2 (Pass)
//Storyboard Layer 3 (Foreground)
//Storyboard Layer 4 (Overlay)
//Storyboard Sound Samples

[TimingPoints]
4550,343.839541547278,4,2,1,60,1,0
15552,-100,4,2,1,65,0,0
26555,343.839541547278,7,2,1,70,1,1
26555,-90.9090909090909,7,2,1,70,0,1
35838,-90.9090909090909,7,2,1,70,0,0
36182,343.839541547278,6,2,1,70,1,1
36182,-90.9090909090909,6,2,1,70,0,1
44090,-90.9090909090909,6,2,1,70,0,0
44434,343.839541547278,7,2,1,70,1,1
44434,-90.9090909090909,7,2,1,70,0,1
48216,-90.9090909090909,7,2,1,50,0,0

[Colours]
Combo1 : 197,86,80
Combo2 : 188,167,14
Combo3 : 134,187,85
Combo4 : 137,122,169

[HitObjects]
33,82,4550,6,0,P|105:79|205:171,1,200,6|2,3:0|0:0,0:0:0:0:
341,297,5925,2,0,P|329:249|396:111,2,200,6|2|6,3:0|0:0|3:0,0:0:0:0:
199,156,7988,2,0,B|140:198|140:198|9:170,1,200,2|6,0:0|3:0,0:0:0:0:
126,4,9363,1,2,0:0:0:0:
302,97,10051,5,6,3:0:0:0:
434,247,10739,2,0,P|388:210|251:261,2,200,2|6|2,0:0|3:0|0:0,0:0:0:0:
422,47,12802,2,0,B|366:80|366:80|219:47,1,200,6|2,3:0|0:0,0:0:0:0:
70,173,14177,2,0,B|132:205|132:205|157:346,1,200,6|2,3:0|3:0,0:0:0:0:
253,352,15209,1,2,3:0:0:0:
343,310,15552,6,0,P|355:252|352:206,1,100,6|2,0:0|0:0,0:0:0:0:
272,150,16240,2,0,P|260:92|263:46,1,100,2|2,0:0|0:0,0:0:0:0:
358,24,16928,2,0,L|472:37,1,100,10|2,0:0|0:0,0:0:0:0:
506,122,17615,1,2,0:0:0:0:
394,287,18303,6,0,L|292:300,1,100,6|2,3:0|0:0,0:0:0:0:
237,217,18991,2,0,L|135:204,1,100,2|2,0:0|3:0,0:0:0:0:
54,259,19678,1,14,0:0:0:0:
13,62,20366,6,0,L|115:75,1,100,2|2,0:0|3:0,0:0:0:0:
205,110,21054,2,0,B|305:123|305:123|404:61,1,200,6|2,3:2|3:0,0:0:0:0:
443,154,22085,2,0,P|475:215|482:260,2,100,2|10|2,3:0|0:0|0:0,0:0:0:0:
364,216,23117,2,0,L|264:226,1,100,2|2,0:0|0:0,0:0:0:0:
180,281,23805,5,6,3:2:0:0:
96,99,24492,2,0,L|203:91,1,100,2|2,3:0|0:0,0:0:0:0:
295,83,25180,5,14,0:0:0:0:
353,163,25524,1,0,3:0:0:0:
301,249,25868,2,0,P|301:290|335:337,1,100,2|2,3:0|3:0,0:0:0:0:
444,327,26555,6,0,B|475:300|475:300|447:122,1,220.000006713867,14|10,3:2|0:0,0:0:0:0:
357,59,27586,1,2,3:0:0:0:
276,134,27930,2,0,L|165:137,1,110.000003356934,10|2,0:0|3:0,0:0:0:0:
60,168,28618,6,0,P|116:260|94:367,1,220.000006713867,2|2,3:0|0:0,0:0:0:0:
205,370,29649,2,0,P|268:356|338:358,2,110.000003356934,10|2|10,0:0|3:0|0:0,0:0:0:0:
95,365,30681,1,2,3:0:0:0:
47,266,31024,1,10,0:0:0:0:
90,164,31368,6,0,B|152:180|152:180|312:133,1,220.000006713867,14|2,0:0|0:0,0:0:0:0:
400,87,32400,2,0,P|424:145|428:213,2,110.000003356934,10|2|10,0:0|3:0|0:0,0:0:0:0:
305,31,33431,5,2,3:0:0:0:
301,136,33775,2,0,L|301:251,1,110.000003356934,10|2,0:0|3:0,0:0:0:0:
245,341,34463,2,0,P|184:280|47:262,1,220.000006713867,10|10,0:0|0:0,0:0:0:0:
34,151,35494,1,10,0:0:0:0:
127,93,35838,1,2,3:0:0:0:
219,152,36182,6,0,B|268:125|268:125|430:169,1,220.000006713867,14|10,0:0|0:0,0:0:0:0:
478,264,37213,1,2,3:0:0:0:
401,343,37557,2,0,L|271:350,1,110.000003356934,2|10,0:0|0:0,0:0:0:0:
201,285,38245,6,0,P|163:236|149:179,2,110.000003356934,2|2|10,3:0|0:0|0:0,0:0:0:0:
283,212,39276,2,0,P|321:163|335:106,2,110.000003356934,6|2|2,3:2|3:0|0:0,0:0:0:0:
225,117,40308,5,14,0:0:0:0:
133,56,40651,2,0,L|16:77,1,110.000003356934,2|2,0:0|0:0,0:0:0:0:
74,173,41339,1,10,0:0:0:0:
23,271,41683,2,0,P|93:280|152:252,1,110.000003356934,2|2,3:0|0:0,0:0:0:0:
207,190,42371,6,0,P|279:177|449:214,1,220.000006713867,6|2,3:0|3:0,0:0:0:0:
440,309,43402,2,0,P|351:283|327:151,1,220.000006713867,10|10,0:0|0:0,0:0:0:0:
376,87,44434,6,0,P|323:67|269:67,1,110.000003356934,14|2,3:2|0:0,0:0:0:0:
160,74,45121,1,10,0:0:0:0:
89,158,45465,2,0,L|97:269,1,110.000003356934,2|10,3:0|0:0,0:0:0:0:
186,331,46153,1,2,3:0:0:0:
256,246,46497,6,0,P|338:270|437:188,1,220.000006713867,2|2,3:0|0:0,0:0:0:0:
419,82,47528,1,10,0:0:0:0:
309,96,47872,1,2,3:0:0:0:
243,7,48216,1,2,3:0:0:0:
