osu file format v14

[General]
AudioFilename: audio.mp3
AudioLeadIn: 0
PreviewTime: 20280
Countdown: 0
SampleSet: Soft
StackLeniency: 0.5
Mode: 0
LetterboxInBreaks: 0
WidescreenStoryboard: 1

[Editor]
DistanceSpacing: 0.4
BeatDivisor: 4
GridSize: 16
TimelineZoom: 1

[Metadata]
Title:Genkaku Catastrophe
TitleUnicode:幻覚カタストロフィー
Artist:Numtack05
ArtistUnicode:Numtack05
Creator:Cris-
Version:Fall's Advanced
Source:osu!
Tags:Fall _tranquility Featured Artist FA Mappers' Guild MG Vocaloid Showcase #2 Vocaparty! J-Rock JRock Rock Japanese Illusion うp主 Upnushi Uploader PutinP Series Putin-P しうか Shuika Shiuka 初音ミク Hatsune Miku プーチンP シリーズ
BeatmapID:2528036
BeatmapSetID:1214702

[Difficulty]
HPDrainRate:3
CircleSize:3
OverallDifficulty:5.5
ApproachRate:6.5
SliderMultiplier:1
SliderTickRate:1

[Events]
//Background and Video events
Video,0,"Genkaku Catastrophe Video.avi"
0,0,"Genkaku Catastrophe Fall.png",0,0
//Break Periods
//Storyboard Layer 0 (Background)
//Storyboard Layer 1 (Fail)
//Storyboard Layer 2 (Pass)
//Storyboard Layer 3 (Foreground)
//Storyboard Layer 4 (Overlay)
//Storyboard Sound Samples

[TimingPoints]
4550,343.839541547278,4,2,1,60,1,0
15552,-100,4,2,1,65,0,0
26555,343.839541547278,7,2,1,70,1,1
26555,-83.3333333333333,7,2,1,70,0,1
35838,-83.3333333333333,7,2,1,70,0,0
36182,343.839541547278,6,2,1,70,1,1
36182,-83.3333333333333,6,2,1,70,0,1
44090,-83.3333333333333,6,2,1,70,0,0
44434,343.839541547278,7,2,1,70,1,1
44434,-83.3333333333333,7,2,1,70,0,1
48216,-83.3333333333333,7,2,1,50,0,0

[Colours]
Combo1 : 197,86,80
Combo2 : 188,167,14
Combo3 : 134,187,85
Combo4 : 137,122,169

[HitObjects]
34,112,4550,6,0,P|81:96|136:94,1,100,6|2,3:0|0:0,0:0:0:0:
220,138,5237,2,0,L|232:293,1,150,2|2,0:0|0:0,0:0:0:0:
238,337,5925,5,6,3:0:0:0:
319,278,6269,1,2,0:0:0:0:
402,333,6613,2,0,B|431:316|431:316|434:191,1,150,2|2,0:0|0:0,0:0:0:0:
412,154,7300,6,0,L|406:51,1,100,6|0,3:0|0:0,0:0:0:0:
362,28,7816,1,2,0:0:0:0:
362,28,7988,2,0,P|321:47|207:27,1,150,2|2,0:0|0:0,0:0:0:0:
175,11,8676,5,6,3:0:0:0:
24,363,10051,5,6,3:0:0:0:
87,285,10395,1,2,0:0:0:0:
180,321,10739,2,0,L|331:310,1,150,2|2,0:0|0:0,0:0:0:0:
379,309,11426,6,0,P|356:274|361:209,1,100,6|2,3:0|0:0,0:0:0:0:
410,132,12114,1,2,0:0:0:0:
311,18,12630,1,2,0:0:0:0:
311,18,12802,2,0,P|307:73|210:81,1,150,6|2,3:0|0:0,0:0:0:0:
184,65,13489,2,0,P|143:74|122:170,1,150,2|2,0:0|0:0,0:0:0:0:
156,202,14177,5,6,3:0:0:0:
328,303,14865,1,2,3:0:0:0:
299,207,15209,1,2,3:0:0:0:
232,281,15552,6,0,L|162:358,1,100,6|2,0:0|0:0,0:0:0:0:
88,289,16240,2,0,L|155:215,1,100,2|2,0:0|0:0,0:0:0:0:
191,180,16756,1,2,0:0:0:0:
191,180,16928,6,0,P|161:140|151:87,1,100,10|2,0:0|0:0,0:0:0:0:
228,29,17615,2,0,B|268:65|268:65|386:56,1,150,2|2,0:0|0:0,0:0:0:0:
414,54,18303,1,6,3:0:0:0:
487,121,18647,1,2,0:0:0:0:
434,205,18991,2,0,L|274:226,1,150,2|2,0:0|0:0,0:0:0:0:
236,236,19678,5,14,0:0:0:0:
291,319,20022,1,2,0:0:0:0:
201,364,20366,1,2,0:0:0:0:
145,280,20710,1,2,3:0:0:0:
236,236,21054,6,0,B|255:188|255:188|218:88,1,150,6|2,3:2|0:0,0:0:0:0:
203,48,21741,1,2,3:0:0:0:
103,59,22085,5,2,3:0:0:0:
78,102,22257,1,2,0:0:0:0:
74,151,22429,1,10,0:0:0:0:
162,198,22773,6,0,P|176:255|174:268,2,50,2|2|2,0:0|3:0|0:0,0:0:0:0:
98,276,23461,1,2,0:0:0:0:
178,334,23805,2,0,P|230:322|336:320,1,150,6|2,3:2|0:0,0:0:0:0:
375,327,24492,2,0,L|401:174,1,150,2|2,3:0|0:0,0:0:0:0:
407,129,25180,5,14,0:0:0:0:
337,57,25524,1,0,3:0:0:0:
265,127,25868,1,2,3:0:0:0:
189,61,26211,1,2,3:0:0:0:
70,79,26555,6,0,P|46:124|47:253,1,179.999994506836,14|2,3:2|3:0,0:0:0:0:
76,301,27242,2,0,L|158:307,1,59.9999981689454,10|2,0:0|3:0,0:0:0:0:
147,306,27500,1,0,0:0:0:0:
158,307,27586,1,2,3:0:0:0:
278,307,27930,2,0,P|263:267|259:235,1,59.9999981689454,10|0,0:0|0:0,0:0:0:0:
261,190,28274,2,0,P|276:150|280:118,1,59.9999981689454,2|0,3:0|3:0,0:0:0:0:
260,75,28618,1,2,3:0:0:0:
379,62,28961,6,0,L|443:80,1,59.9999981689454,2|2,3:0|0:0,0:0:0:0:
487,110,29305,1,2,0:0:0:0:
457,162,29477,1,2,3:0:0:0:
489,212,29649,2,0,B|462:257|462:257|482:344,1,119.999996337891,10|2,0:0|3:0,0:0:0:0:
357,334,30337,2,0,P|306:296|234:290,1,119.999996337891,10|2,0:0|3:0,0:0:0:0:
193,303,30852,1,0,3:0:0:0:
193,303,31024,2,0,P|210:258|215:226,1,59.9999981689454,10|0,0:0|0:0,0:0:0:0:
200,187,31368,6,0,B|183:144|183:144|219:71,1,119.999996337891,14|2,0:0|0:0,0:0:0:0:
250,28,31884,2,0,P|205:35|165:27,1,59.9999981689454,2|2,3:0|0:0,0:0:0:0:
131,23,32228,1,2,3:0:0:0:
131,23,32400,5,10,0:0:0:0:
57,115,32744,2,0,L|61:183,1,59.9999981689454,2|0,3:0|3:0,0:0:0:0:
65,234,33087,1,10,0:0:0:0:
162,304,33431,2,0,B|216:286|216:286|299:309,1,119.999996337891,2|10,3:0|0:0,0:0:0:0:
325,339,33947,2,0,B|355:351|355:351|394:336,1,59.9999981689454,2|2,0:0|3:0,0:0:0:0:
430,307,34291,1,2,3:0:0:0:
412,249,34463,2,0,B|404:219|404:219|420:191,1,59.9999981689454,10|2,0:0|3:0,0:0:0:0:
456,146,34807,2,0,L|474:116,2,29.9999990844727,2|10|2,3:0|0:0|3:0,0:0:0:0:
410,106,35150,1,10,0:0:0:0:
289,107,35494,1,10,0:0:0:0:
180,56,35838,1,2,3:0:0:0:
57,89,36182,6,0,B|90:127|90:127|101:258,1,179.999994506836,14|2,0:0|3:0,0:0:0:0:
112,315,36869,2,0,P|161:292|192:295,1,59.9999981689454,10|0,0:0|3:0,0:0:0:0:
204,245,37213,2,0,P|253:268|284:265,1,59.9999981689454,2|0,3:0|3:0,0:0:0:0:
308,300,37557,1,2,0:0:0:0:
356,265,37729,1,0,3:0:0:0:
409,292,37901,1,10,0:0:0:0:
482,197,38245,5,2,3:0:0:0:
429,89,38588,1,2,0:0:0:0:
352,181,38932,1,10,0:0:0:0:
285,81,39276,6,0,L|161:58,2,119.999996337891,6|2|2,3:2|3:0|0:0,0:0:0:0:
193,159,40308,2,0,L|69:182,2,119.999996337891,14|2|2,0:0|0:0|0:0,0:0:0:0:
240,195,41167,1,0,3:0:0:0:
246,254,41339,6,0,L|263:373,2,119.999996337891,10|2|2,0:0|3:0|0:0,0:0:0:0:
240,195,42199,1,0,3:0:0:0:
287,158,42371,6,0,L|415:116,1,119.999996337891,6|10,3:0|0:0,0:0:0:0:
456,96,42886,1,0,0:0:0:0:
456,96,43058,2,0,P|427:72|420:46,1,59.9999981689454,2|0,3:0|0:0,0:0:0:0:
429,20,43402,1,10,0:0:0:0:
313,51,43746,1,2,3:0:0:0:
301,48,43832,1,10,0:0:0:0:
289,45,43918,2,0,L|202:41,1,59.9999981689454,2|10,3:0|0:0,0:0:0:0:
146,97,44434,6,0,B|198:127|198:127|211:265,1,179.999994506836,14|2,3:2|3:0,0:0:0:0:
218,305,45121,1,10,0:0:0:0:
266,340,45293,2,0,L|312:346,2,29.9999990844727,2|0|2,3:0|0:0|3:0,0:0:0:0:
148,359,45809,2,0,P|131:309|133:280,1,59.9999981689454,10|0,0:0|0:0,0:0:0:0:
80,268,46153,2,0,P|92:240|97:211,1,59.9999981689454,2|0,3:0|3:0,0:0:0:0:
133,162,46497,1,2,3:0:0:0:
87,51,46840,6,0,L|153:56,1,59.9999981689454,2|2,3:0|0:0,0:0:0:0:
198,86,47184,1,2,0:0:0:0:
250,57,47356,1,2,3:0:0:0:
295,95,47528,2,0,B|316:122|316:122|317:216,2,119.999996337891,10|2|2,0:0|3:0|3:0,0:0:0:0:
