osu file format v14

[General]
AudioFilename: audio.mp3
AudioLeadIn: 0
PreviewTime: 20280
Countdown: 0
SampleSet: Soft
StackLeniency: 0.5
Mode: 0
LetterboxInBreaks: 0
WidescreenStoryboard: 1

[Editor]
DistanceSpacing: 0.2
BeatDivisor: 4
GridSize: 4
TimelineZoom: 1.7

[Metadata]
Title:Genkaku Catastrophe
TitleUnicode:幻覚カタストロフィー
Artist:Numtack05
ArtistUnicode:Numtack05
Creator:Cris-
Version:Expert
Source:osu!
Tags:Fall _tranquility Featured Artist FA Mappers' Guild MG Vocaloid Showcase #2 Vocaparty! J-Rock JRock Rock Japanese Illusion うp主 Upnushi Uploader PutinP Series Putin-P しうか Shuika Shiuka 初音ミク Hatsune Miku プーチンP シリーズ
BeatmapID:2528067
BeatmapSetID:1214702

[Difficulty]
HPDrainRate:4
CircleSize:8
OverallDifficulty:8.5
ApproachRate:9.1
SliderMultiplier:1.4
SliderTickRate:1

[Events]
//Background and Video events
0,0,"Genkaku Catastrophe.png",0,0
Video,0,"Genkaku Catastrophe Video.avi"
//Break Periods
//Storyboard Layer 0 (Background)
//Storyboard Layer 1 (Fail)
//Storyboard Layer 2 (Pass)
//Storyboard Layer 3 (Foreground)
//Storyboard Layer 4 (Overlay)
//Storyboard Sound Samples

[TimingPoints]
4550,343.839541547278,4,2,1,60,1,0
5151,-100,4,2,1,5,0,0
5237,-100,4,2,1,60,0,0
6183,-100,4,2,1,5,0,0
6269,-100,4,2,1,60,0,0
8246,-100,4,2,1,5,0,0
8332,-100,4,2,1,60,0,0
15552,-100,4,2,1,65,0,0
16154,-100,4,2,1,5,0,0
16240,-100,4,2,1,65,0,0
16498,-100,4,2,1,5,0,0
16584,-100,4,2,1,65,0,0
17186,-100,4,2,1,5,0,0
17272,-100,4,2,1,65,0,0
17873,-100,4,2,1,5,0,0
17959,-100,4,2,1,65,0,0
18561,-100,4,2,1,5,0,0
18647,-100,4,2,1,65,0,0
19249,-100,4,2,1,5,0,0
19335,-100,4,2,1,65,0,0
19936,-100,4,2,1,5,0,0
20022,-100,4,2,1,65,0,0
20968,-100,4,2,1,5,0,0
21054,-100,4,2,1,65,0,0
25438,-100,4,2,1,5,0,0
25524,-100,4,2,1,65,0,0
26555,343.839541547278,7,2,1,70,1,1
26555,-83.3333333333333,7,2,1,70,0,1
35838,-83.3333333333333,7,2,1,70,0,0
36182,343.839541547278,6,2,1,70,1,1
36182,-83.3333333333333,6,2,1,70,0,1
44090,-83.3333333333333,6,2,1,70,0,0
44434,343.839541547278,7,2,1,70,1,1
44434,-83.3333333333333,7,2,1,70,0,1
48216,-83.3333333333333,7,2,1,50,0,0

[Colours]
Combo1 : 197,86,80
Combo2 : 188,167,14
Combo3 : 134,187,85
Combo4 : 137,122,169

[HitObjects]
23,49,4550,5,6,3:0:0:0:
144,139,4893,2,0,P|102:147|133:177,1,105,2|0,0:0|0:0,0:0:0:0:
150,135,5237,6,0,P|94:145|135:185,1,140,2|0,0:0|0:0,0:0:0:0:
140,190,5667,1,0,0:0:0:0:
145,195,5753,1,2,0:0:0:0:
149,201,5839,1,2,0:0:0:0:
150,208,5925,6,0,P|196:180|244:187,1,105,6|0,3:0|0:0,0:0:0:0:
244,187,6269,1,2,0:0:0:0:
341,113,6613,6,0,B|336:91|310:91|292:102|294:139|323:158,1,105,2|0,0:0|0:0,0:0:0:0:
329,160,6956,1,2,0:0:0:0:
335,161,7042,1,0,0:0:0:0:
342,160,7128,2,0,P|344:176|336:191,1,35,2|2,0:0|0:0,0:0:0:0:
315,244,7300,6,0,B|347:217|383:251|368:263|402:297|435:273,1,140,6|0,3:0|0:0,0:0:0:0:
338,278,7816,1,2,0:0:0:0:
414,238,7988,6,0,P|426:196|386:209,1,105,2|0,0:0|0:0,0:0:0:0:
385,209,8332,1,2,3:0:0:0:
475,164,8504,1,2,0:0:0:0:
474,155,8590,1,2,0:0:0:0:
472,147,8676,6,0,P|462:93|444:46,1,105,6|0,3:0|0:0,0:0:0:0:
439,41,9019,1,2,0:0:0:0:
432,37,9105,1,0,0:0:0:0:
425,36,9191,2,0,P|407:39|397:51,1,35,2|0,0:0|0:0,0:0:0:0:
405,100,9363,5,2,0:0:0:0:
391,101,9449,1,0,0:0:0:0:
377,97,9535,1,2,0:0:0:0:
364,89,9621,1,0,0:0:0:0:
355,78,9707,2,0,P|322:88|288:98,1,70,2|0,3:0|0:0,0:0:0:0:
210,59,10051,5,6,3:0:0:0:
246,208,10395,2,0,P|262:203|279:197,1,35,2|0,0:0|0:0,0:0:0:0:
229,248,10567,2,0,P|212:243|195:237,1,35,2|0,0:0|0:0,0:0:0:0:
263,275,10739,5,2,0:0:0:0:
276,271,10825,1,0,0:0:0:0:
289,267,10911,1,2,0:0:0:0:
302,263,10996,1,0,0:0:0:0:
315,259,11082,1,2,0:0:0:0:
383,292,11254,2,0,P|389:307|386:324,1,35,2|2,0:0|0:0,0:0:0:0:
371,364,11426,6,0,B|397:380|422:357|411:348|438:327|464:339,1,105,6|0,3:0|0:0,0:0:0:0:
477,343,11770,1,2,0:0:0:0:
483,330,11856,1,0,0:0:0:0:
481,316,11942,1,2,0:0:0:0:
474,303,12028,1,2,0:0:0:0:
463,293,12114,6,0,P|459:276|466:260,1,35,2|0,0:0|0:0,0:0:0:0:
509,241,12286,2,0,P|515:256|512:273,1,35,2|0,0:0|0:0,0:0:0:0:
469,214,12458,1,2,0:0:0:0:
383,292,12630,1,2,0:0:0:0:
379,282,12716,1,2,0:0:0:0:
375,272,12802,6,0,B|336:269|321:309|321:309|294:276|261:290,1,140,6|0,3:0|0:0,0:0:0:0:
280,337,13317,1,2,0:0:0:0:
310,241,13489,6,0,P|304:224|300:207,1,35,2|0,0:0|0:0,0:0:0:0:
358,225,13661,2,0,P|366:209|375:194,1,35,2|0,0:0|0:0,0:0:0:0:
375,272,13833,1,2,0:0:0:0:
260,240,14005,1,2,0:0:0:0:
344,152,14177,6,0,P|351:97|306:129,1,140,6|0,3:0|0:0,0:0:0:0:
255,63,14865,5,2,3:0:0:0:
241,67,14951,1,0,3:0:0:0:
227,71,15037,1,2,3:0:0:0:
213,75,15123,1,0,3:0:0:0:
199,78,15209,2,0,P|203:96|206:112,1,35,2|0,3:0|3:0,0:0:0:0:
158,52,15380,2,0,P|154:34|151:18,1,35,2|0,3:0|3:0,0:0:0:0:
132,93,15552,5,6,0:0:0:0:
256,192,15896,2,0,P|214:204|247:233,1,105,2|0,0:0|0:0,0:0:0:0:
288,220,16240,6,0,B|316:207|339:228|329:235|351:257|381:246,1,105,2|0,0:0|0:0,0:0:0:0:
391,242,16584,1,2,0:0:0:0:
400,238,16670,1,0,0:0:0:0:
410,237,16756,1,2,0:0:0:0:
420,239,16842,1,2,0:0:0:0:
429,242,16928,6,0,P|436:289|392:284,1,105,10|0,0:0|0:0,0:0:0:0:
392,284,17272,1,2,0:0:0:0:
300,365,17615,6,0,B|310:389|343:379|343:379|357:350|328:334,1,105,2|0,0:0|0:0,0:0:0:0:
318,327,17959,1,2,0:0:0:0:
311,318,18045,1,0,0:0:0:0:
307,308,18131,1,2,0:0:0:0:
307,297,18217,1,2,0:0:0:0:
308,286,18303,6,0,P|256:278|209:299,1,105,6|0,3:0|0:0,0:0:0:0:
200,305,18647,2,0,P|208:319|210:337,1,35,2|0,0:0|0:0,0:0:0:0:
143,362,18819,1,2,0:0:0:0:
143,362,18905,1,0,0:0:0:0:
143,362,18991,6,0,P|126:322|168:332,1,105,2|0,0:0|0:0,0:0:0:0:
167,330,19335,1,2,3:0:0:0:
92,296,19507,1,2,0:0:0:0:
92,296,19592,1,2,0:0:0:0:
92,296,19678,6,0,B|73:255|109:228|109:228|105:240|111:255,1,105,14|0,0:0|0:0,0:0:0:0:
146,272,20022,2,0,P|151:255|147:238,2,35,2|0|0,0:0|0:0|0:0,0:0:0:0:
76,197,20366,5,2,0:0:0:0:
84,186,20452,1,0,0:0:0:0:
96,180,20538,1,2,0:0:0:0:
109,179,20624,1,0,0:0:0:0:
122,181,20710,2,0,P|142:142|96:136,1,105,2|0,3:0|0:0,0:0:0:0:
84,143,21054,6,0,P|52:103|71:58,1,105,6|0,3:2|0:0,0:0:0:0:
106,33,21398,1,2,0:0:0:0:
106,33,21484,1,0,0:0:0:0:
106,33,21570,2,0,P|101:16|96:0,1,35,2|0,0:0|0:0,0:0:0:0:
140,68,21741,5,2,3:0:0:0:
140,68,21827,1,0,0:0:0:0:
140,68,21913,2,0,P|135:85|130:101,1,35,2|0,0:0|0:0,0:0:0:0:
178,43,22085,1,2,3:0:0:0:
221,127,22257,1,2,0:0:0:0:
178,43,22429,6,0,P|212:32|244:22,1,70,10|0,0:0|0:0,0:0:0:0:
186,95,22773,1,2,0:0:0:0:
176,98,22859,1,0,0:0:0:0:
166,101,22945,2,0,P|171:118|176:134,1,35,2|0,3:0|0:0,0:0:0:0:
211,173,23117,5,2,0:0:0:0:
200,182,23203,1,0,0:0:0:0:
187,187,23289,1,2,0:0:0:0:
173,187,23375,1,0,0:0:0:0:
158,183,23461,2,0,P|134:206|143:238,1,70,2|2,0:0|0:0,0:0:0:0:
173,270,23719,1,0,0:0:0:0:
173,270,23805,6,0,B|163:285|163:285|173:319|173:319|166:333,1,70,6|0,3:2|3:0,0:0:0:0:
294,244,24320,1,2,0:0:0:0:
240,175,24492,6,0,P|238:156|245:142,1,35,2|0,3:0|0:0,0:0:0:0:
218,209,24664,2,0,P|203:197|199:182,1,35,2|0,0:0|0:0,0:0:0:0:
226,249,24836,1,2,0:0:0:0:
305,190,25008,1,2,0:0:0:0:
307,196,25094,1,2,0:0:0:0:
309,202,25180,6,0,P|354:198|338:237,1,105,14|0,0:0|0:0,0:0:0:0:
337,237,25524,1,0,3:0:0:0:
240,175,25696,5,2,0:0:0:0:
282,144,25868,1,2,3:0:0:0:
201,113,26039,1,2,0:0:0:0:
307,52,26211,1,2,3:0:0:0:
163,0,26383,1,2,0:0:0:0:
240,175,26555,6,0,P|199:187|160:199,1,83.9999974365235,14|2,3:2|0:0,0:0:0:0:
46,137,26898,1,2,0:0:0:0:
21,220,27070,1,2,3:0:0:0:
125,160,27242,1,10,0:0:0:0:
105,242,27414,1,2,3:0:0:0:
66,178,27586,6,0,B|86:184|86:184|80:205|80:205|60:200|60:200|64:182,1,83.9999974365235,2|0,3:0|3:0,0:0:0:0:
105,242,27930,2,0,B|114:260|114:260|95:270|95:270|85:253|85:253|100:243,1,83.9999974365235,10|0,0:0|0:0,0:0:0:0:
157,274,28274,2,0,B|177:280|177:280|171:301|171:301|151:296|151:296|155:278,1,83.9999974365235,2|0,3:0|3:0,0:0:0:0:
238,244,28618,5,2,3:0:0:0:
238,244,28789,1,10,0:0:0:0:
160,199,28961,5,2,3:0:0:0:
238,156,29133,1,2,0:0:0:0:
117,119,29305,1,2,0:0:0:0:
196,78,29477,1,2,3:0:0:0:
160,199,29649,6,0,P|172:156|183:119,1,83.9999974365235,10|0,0:0|0:0,0:0:0:0:
105,229,29993,2,0,P|62:217|25:206,1,83.9999974365235,2|0,3:0|0:0,0:0:0:0:
136,284,30337,2,0,P|124:327|113:364,1,83.9999974365235,10|0,0:0|0:0,0:0:0:0:
189,253,30681,2,0,P|232:265|269:276,1,83.9999974365235,2|0,3:0|3:0,0:0:0:0:
147,242,31024,1,10,0:0:0:0:
289,168,31368,6,0,P|316:199|301:234,1,83.9999974365235,14|2,0:0|0:0,0:0:0:0:
222,152,31712,1,2,0:0:0:0:
277,121,31884,1,2,3:0:0:0:
182,177,32056,1,2,0:0:0:0:
127,146,32228,1,2,3:0:0:0:
224,200,32400,6,0,B|230:220|230:220|207:277,1,83.9999974365235,10|0,0:0|0:0,0:0:0:0:
222,152,32744,2,0,B|236:135|236:135|297:127,1,83.9999974365235,2|0,3:0|3:0,0:0:0:0:
182,177,33087,2,0,B|160:172|160:172|122:124,1,83.9999974365235,10|0,0:0|0:0,0:0:0:0:
224,200,33431,5,2,3:0:0:0:
224,200,33603,1,2,0:0:0:0:
192,80,33775,5,10,0:0:0:0:
156,218,33947,1,2,0:0:0:0:
192,80,34119,1,2,3:0:0:0:
292,180,34291,1,2,3:0:0:0:
192,80,34463,6,0,P|202:120|213:161,1,83.9999974365235,10|2,0:0|3:0,0:0:0:0:
245,284,34807,1,2,3:0:0:0:
243,279,34893,1,10,0:0:0:0:
241,274,34979,1,2,3:0:0:0:
233,342,35150,6,0,P|194:329|183:290,1,83.9999974365235,10|0,0:0|3:0,0:0:0:0:
302,264,35494,2,0,P|309:303|281:333,1,83.9999974365235,10|0,0:0|0:0,0:0:0:0:
226,217,35838,1,2,3:0:0:0:
120,363,36182,6,0,P|160:373|201:384,1,83.9999974365235,14|2,0:0|0:0,0:0:0:0:
41,343,36525,1,2,0:0:0:0:
99,282,36697,1,2,3:0:0:0:
13,138,36869,6,0,P|52:127|94:117,1,83.9999974365235,10|0,0:0|3:0,0:0:0:0:
58,245,37213,2,0,P|29:215|0:185,1,83.9999974365235,2|0,3:0|3:0,0:0:0:0:
132,148,37557,2,0,P|120:188|109:228,1,83.9999974365235,2|0,0:0|3:0,0:0:0:0:
68,179,37901,1,10,0:0:0:0:
240,257,38245,6,0,B|249:274|231:295|231:295|206:288|205:266,1,83.9999974365235,2|0,3:0|0:0,0:0:0:0:
232,184,38588,2,0,B|242:167|269:172|269:172|275:197|257:209,1,83.9999974365235,2|0,0:0|3:0,0:0:0:0:
173,228,38932,2,0,B|153:227|144:201|144:201|163:183|182:193,1,83.9999974365235,10|0,0:0|3:0,0:0:0:0:
155,276,39276,6,0,P|115:265|73:255,1,83.9999974365235,6|0,3:2|0:0,0:0:0:0:
191,315,39620,2,0,P|151:325|109:336,1,83.9999974365235,2|0,3:0|3:0,0:0:0:0:
205,266,39964,1,2,0:0:0:0:
323,370,40308,6,0,P|348:305|277:314,1,167.999994873047,14|2,0:0|0:0,0:0:0:0:
315,330,40823,1,2,3:0:0:0:
410,242,40995,6,0,P|421:277|384:284,1,83.9999974365235,2|0,0:0|3:0,0:0:0:0:
307,204,41339,2,0,P|301:240|339:240,1,83.9999974365235,10|0,0:0|0:0,0:0:0:0:
403,154,41683,2,0,P|401:190|364:184,1,83.9999974365235,2|0,3:0|3:0,0:0:0:0:
285,107,42027,2,0,P|292:143|328:130,1,83.9999974365235,2|0,0:0|3:0,0:0:0:0:
395,48,42371,5,6,3:0:0:0:
342,11,42543,1,2,3:0:0:0:
371,108,42714,2,0,P|411:93|450:79,1,83.9999974365235,10|0,0:0|0:0,0:0:0:0:
311,55,43058,2,0,P|270:69|231:83,1,83.9999974365235,2|0,3:0|0:0,0:0:0:0:
371,108,43402,1,10,0:0:0:0:
342,11,43574,1,2,0:0:0:0:
282,131,43746,5,2,3:0:0:0:
297,136,43831,1,10,0:0:0:0:
313,142,43917,1,2,3:0:0:0:
329,148,44003,1,2,3:0:0:0:
345,154,44090,2,0,P|358:193|332:221,1,83.9999974365235,10|0,0:0|0:0,0:0:0:0:
231,82,44434,6,0,P|271:68|311:55,1,83.9999974365235,14|2,3:2|0:0,0:0:0:0:
191,155,44777,1,2,0:0:0:0:
157,38,44949,1,2,3:0:0:0:
231,82,45121,1,10,0:0:0:0:
113,112,45293,1,2,3:0:0:0:
186,94,45465,6,0,P|157:109|170:80,1,83.9999974365235,2|0,3:0|3:0,0:0:0:0:
257,145,45809,2,0,P|225:136|255:124,1,83.9999974365235,10|0,0:0|0:0,0:0:0:0:
303,76,46153,2,0,P|287:47|316:60,1,83.9999974365235,2|0,3:0|3:0,0:0:0:0:
237,25,46497,5,2,3:0:0:0:
237,25,46668,1,10,0:0:0:0:
186,94,46840,5,2,3:0:0:0:
303,76,47012,1,2,0:0:0:0:
257,145,47184,1,2,0:0:0:0:
237,25,47356,1,2,3:0:0:0:
257,145,47528,6,0,P|249:103|243:61,1,83.9999974365235,10|0,0:0|0:0,0:0:0:0:
287,183,47872,2,0,P|325:197|364:212,1,83.9999974365235,2|0,3:0|0:0,0:0:0:0:
238,191,48216,1,2,3:0:0:0:
