osu file format v14

[General]
AudioFilename: audio.mp3
AudioLeadIn: 0
PreviewTime: -1
Countdown: 1
SampleSet: Normal
StackLeniency: 0.7
Mode: 0
LetterboxInBreaks: 0
WidescreenStoryboard: 0

[Editor]
DistanceSpacing: 1.6
BeatDivisor: 8
GridSize: 16
TimelineZoom: 1

[Metadata]
Title:Pi Song
TitleUnicode:Pi Song
Artist:NumberPhile
ArtistUnicode:NumberPhile
Creator:rexdo206
Version:3.14
Source:youtube
Tags:NERD
BeatmapID:1958554
BeatmapSetID:937589

[Difficulty]
HPDrainRate:2
CircleSize:3
OverallDifficulty:2
ApproachRate:2
SliderMultiplier:1.4
SliderTickRate:1

[Events]
//Background and Video events
//Break Periods
//Storyboard Layer 0 (Background)
//Storyboard Layer 1 (Fail)
//Storyboard Layer 2 (Pass)
//Storyboard Layer 3 (Foreground)
//Storyboard Sound Samples

[TimingPoints]
3006,351.699882766706,4,1,0,100,1,0

[HitObjects]
258,189,4017,1,0,0:0:0:0:
258,189,4368,1,0,0:0:0:0:
258,189,4720,1,0,0:0:0:0:
258,189,5072,1,0,0:0:0:0:
258,189,5379,1,0,0:0:0:0:
258,189,5687,1,0,0:0:0:0:
258,189,6083,1,0,0:0:0:0:
258,189,6391,1,0,0:0:0:0:
258,189,6742,1,0,0:0:0:0:
258,189,7050,1,0,0:0:0:0:
258,189,7402,1,0,0:0:0:0:
258,189,7709,1,0,0:0:0:0:
258,189,8061,1,0,0:0:0:0:
258,189,8369,1,0,0:0:0:0:
258,189,8765,1,0,0:0:0:0:
258,189,9072,1,0,0:0:0:0:
258,189,9424,1,0,0:0:0:0:
258,189,9688,1,0,0:0:0:0:
258,189,10039,1,0,0:0:0:0:
258,189,10391,1,0,0:0:0:0:
258,189,10743,1,0,0:0:0:0:
258,189,11051,1,0,0:0:0:0:
258,189,11402,1,0,0:0:0:0:
258,189,11754,1,0,0:0:0:0:
258,189,12106,1,0,0:0:0:0:
258,189,12370,1,0,0:0:0:0:
258,189,12721,1,0,0:0:0:0:
258,189,12941,1,0,0:0:0:0:
258,189,13117,1,0,0:0:0:0:
258,189,13425,1,0,0:0:0:0:
258,189,13688,1,0,0:0:0:0:
258,189,14040,1,0,0:0:0:0:
258,189,14348,1,0,0:0:0:0:
258,189,14700,1,0,0:0:0:0:
258,189,15051,1,0,0:0:0:0:
258,189,15359,1,0,0:0:0:0:
258,189,15711,1,0,0:0:0:0:
258,189,16018,1,0,0:0:0:0:
258,189,16282,1,0,0:0:0:0:
258,189,16942,5,0,0:0:0:0:
258,189,17337,1,0,0:0:0:0:
258,189,17645,1,0,0:0:0:0:
258,189,17953,1,0,0:0:0:0:
258,189,18304,1,0,0:0:0:0:
258,189,18656,1,0,0:0:0:0:
258,189,19008,1,0,0:0:0:0:
258,189,19360,1,0,0:0:0:0:
258,189,19667,1,0,0:0:0:0:
258,189,20019,1,0,0:0:0:0:
258,189,20327,1,0,0:0:0:0:
258,189,20634,1,0,0:0:0:0:
258,189,20986,1,0,0:0:0:0:
258,189,21294,1,0,0:0:0:0:
258,189,21602,1,0,0:0:0:0:
258,189,21997,1,0,0:0:0:0:
258,189,22349,1,0,0:0:0:0:
258,189,22657,1,0,0:0:0:0:
258,189,23008,1,0,0:0:0:0:
258,189,23316,1,0,0:0:0:0:
258,189,23712,1,0,0:0:0:0:
258,189,24064,1,0,0:0:0:0:
258,189,24415,1,0,0:0:0:0:
258,189,24723,1,0,0:0:0:0:
258,189,25031,1,0,0:0:0:0:
258,189,25426,1,0,0:0:0:0:
258,189,25690,1,0,0:0:0:0:
258,189,26086,1,0,0:0:0:0:
258,189,26394,1,0,0:0:0:0:
258,189,26701,1,0,0:0:0:0:
258,189,27053,1,0,0:0:0:0:
258,189,27361,1,0,0:0:0:0:
258,189,27668,1,0,0:0:0:0:
258,189,28064,1,0,0:0:0:0:
258,189,28372,1,0,0:0:0:0:
258,189,28724,1,0,0:0:0:0:
258,189,29031,1,0,0:0:0:0:
258,189,29383,1,0,0:0:0:0:
258,189,29691,1,0,0:0:0:0:
258,189,30130,1,0,0:0:0:0:
258,189,30482,1,0,0:0:0:0:
258,189,30922,1,0,0:0:0:0:
258,189,31185,1,0,0:0:0:0:
258,189,31537,1,0,0:0:0:0:
258,189,31889,1,0,0:0:0:0:
258,189,32241,1,0,0:0:0:0:
258,189,32592,1,0,0:0:0:0:
258,189,32900,1,0,0:0:0:0:
258,189,33296,1,0,0:0:0:0:
258,189,33603,1,0,0:0:0:0:
258,189,33911,1,0,0:0:0:0:
258,189,34263,1,0,0:0:0:0:
258,189,34571,1,0,0:0:0:0:
258,189,34878,1,0,0:0:0:0:
258,189,35230,1,0,0:0:0:0:
258,189,35538,1,0,0:0:0:0:
258,189,35889,1,0,0:0:0:0:
258,189,36241,1,0,0:0:0:0:
258,189,36593,1,0,0:0:0:0:
258,189,36901,1,0,0:0:0:0:
258,189,37252,1,0,0:0:0:0:
258,189,37648,1,0,0:0:0:0:
258,189,37912,1,0,0:0:0:0:
258,189,38263,1,0,0:0:0:0:
258,189,38615,1,0,0:0:0:0:
258,189,38879,1,0,0:0:0:0:
258,189,39275,1,0,0:0:0:0:
258,189,39582,1,0,0:0:0:0:
258,189,39978,1,0,0:0:0:0:
258,189,40198,1,0,0:0:0:0:
258,189,40549,1,0,0:0:0:0:
258,189,40857,1,0,0:0:0:0:
258,189,41165,1,0,0:0:0:0:
258,189,41517,1,0,0:0:0:0:
258,189,41824,1,0,0:0:0:0:
258,189,42176,1,0,0:0:0:0:
258,189,42528,1,0,0:0:0:0:
258,189,42879,1,0,0:0:0:0:
258,189,43187,1,0,0:0:0:0:
258,189,43539,1,0,0:0:0:0:
258,189,43891,1,0,0:0:0:0:
258,189,44242,1,0,0:0:0:0:
258,189,44638,1,0,0:0:0:0:
258,189,44902,1,0,0:0:0:0:
258,189,45253,1,0,0:0:0:0:
258,189,45561,1,0,0:0:0:0:
258,189,45869,1,0,0:0:0:0:
258,189,46221,1,0,0:0:0:0:
258,189,46572,1,0,0:0:0:0:
258,189,46880,1,0,0:0:0:0:
258,189,47276,1,0,0:0:0:0:
258,189,47583,1,0,0:0:0:0:
258,189,47935,1,0,0:0:0:0:
258,189,48243,1,0,0:0:0:0:
258,189,48595,1,0,0:0:0:0:
258,189,48902,1,0,0:0:0:0:
258,189,49298,1,0,0:0:0:0:
258,189,49562,1,0,0:0:0:0:
258,189,49826,1,0,0:0:0:0:
258,189,50221,1,0,0:0:0:0:
258,189,50573,1,0,0:0:0:0:
258,189,50881,1,0,0:0:0:0:
258,189,51232,1,0,0:0:0:0:
258,189,51540,1,0,0:0:0:0:
258,189,51848,1,0,0:0:0:0:
258,189,52200,1,0,0:0:0:0:
258,189,52551,1,0,0:0:0:0:
258,189,52859,1,0,0:0:0:0:
258,189,53211,1,0,0:0:0:0:
258,189,53562,1,0,0:0:0:0:
258,189,53914,1,0,0:0:0:0:
258,189,54266,1,0,0:0:0:0:
258,189,54530,1,0,0:0:0:0:
258,189,54881,1,0,0:0:0:0:
258,189,55233,1,0,0:0:0:0:
258,189,55585,1,0,0:0:0:0:
258,189,55936,1,0,0:0:0:0:
258,189,56200,1,0,0:0:0:0:
258,189,56552,1,0,0:0:0:0:
258,189,56904,1,0,0:0:0:0:
258,189,57211,1,0,0:0:0:0:
258,189,57519,1,0,0:0:0:0:
258,189,57959,1,0,0:0:0:0:
258,189,58222,1,0,0:0:0:0:
258,189,58530,1,0,0:0:0:0:
258,189,58838,1,0,0:0:0:0:
258,189,59190,1,0,0:0:0:0:
258,189,59497,1,0,0:0:0:0:
258,189,59849,1,0,0:0:0:0:
258,189,60201,1,0,0:0:0:0:
258,189,60596,1,0,0:0:0:0:
258,189,60948,1,0,0:0:0:0:
258,189,61168,1,0,0:0:0:0:
258,189,61388,1,0,0:0:0:0:
258,189,61739,1,0,0:0:0:0:
258,189,62135,1,0,0:0:0:0:
258,189,62531,1,0,0:0:0:0:
258,189,62882,1,0,0:0:0:0:
258,189,63234,1,0,0:0:0:0:
258,189,63586,1,0,0:0:0:0:
308,140,63981,1,0,0:0:0:0:
188,109,64333,1,0,0:0:0:0:
310,255,64641,1,0,0:0:0:0:
200,260,64993,1,0,0:0:0:0:
354,86,65344,1,0,0:0:0:0:
174,64,65696,1,0,0:0:0:0:
340,234,66048,1,0,0:0:0:0:
203,259,66355,1,0,0:0:0:0:
