osu file format v14

[General]
AudioFilename: audio.mp3
AudioLeadIn: 0
PreviewTime: 6556
Countdown: 0
SampleSet: Soft
StackLeniency: 0.7
Mode: 0
LetterboxInBreaks: 0
WidescreenStoryboard: 0

[Editor]
DistanceSpacing: 1
BeatDivisor: 4
GridSize: 8
TimelineZoom: 2

[Metadata]
Title:TATTOO Ari
TitleUnicode:TATTOOあり
Artist:Number Girl
ArtistUnicode:Number Girl
Creator:KumiDaiko
Version:Insane
Source:
Tags:japanese j-rock indie noise alternative alt rock sappukei
BeatmapID:4560047
BeatmapSetID:2162322

[Difficulty]
HPDrainRate:6
CircleSize:2.5
OverallDifficulty:8
ApproachRate:9.1
SliderMultiplier:2.2
SliderTickRate:1

[Events]
//Background and Video events
0,0,"bg.png",0,0
//Break Periods
2,76755,86870
//Storyboard Layer 0 (Background)
//Storyboard Layer 1 (Fail)
//Storyboard Layer 2 (Pass)
//Storyboard Layer 3 (Foreground)
//Storyboard Layer 4 (Overlay)
//Storyboard Sound Samples

[TimingPoints]
1328,335.195530726257,4,2,1,50,1,0
1328,-200,4,2,1,50,0,0
3984,346.820809248555,4,2,1,50,1,0
3984,-200,4,2,1,50,0,0
5167,306.122448979592,4,2,1,50,1,0
5167,-200,4,2,1,50,0,0
5473,327.868852459016,4,2,1,50,1,0
5964,-200,4,2,1,50,0,0
6645,352.941176470588,4,2,1,85,1,0
7350,326.086956521739,4,2,1,85,1,0
9306,333.333333333334,4,2,1,85,1,0
10639,319.148936170213,4,2,1,85,1,0
11915,331.67495854063,4,2,1,85,1,0
13241,326.08695652174,4,2,1,85,1,0
14545,333.333333333334,4,2,1,85,1,0
15878,320.855614973263,4,2,1,85,1,0
17175,344.827586206897,4,2,1,75,1,0
17175,-133.333333333333,4,2,1,75,0,0
18381,337.078651685394,4,2,1,75,1,0
19705,329.67032967033,4,2,1,75,1,0
19869,357.142857142858,4,2,1,75,1,0
19869,-133.333333333333,4,2,1,75,0,0
21119,326.08695652174,4,2,1,75,1,0
22586,357.142857142858,4,2,1,75,1,0
22586,-133.333333333333,4,2,1,75,0,0
23836,327.868852459017,4,2,1,75,1,0
25311,348.837209302326,4,2,1,75,1,0
25311,-133.333333333333,4,2,1,75,0,0
26567,326.08695652174,4,2,1,75,1,0
28034,370.370370370371,4,2,1,75,1,0
28404,340.909090909092,4,2,1,75,1,0
29426,335.195530726258,4,2,1,75,1,0
33448,357.142857142858,4,2,1,75,1,0
33805,331.95020746888,4,2,1,75,1,0
36128,355.029585798817,4,2,1,75,1,0
36483,333.333333333334,4,2,1,75,1,0
37483,342.857142857144,4,2,1,80,1,0
38854,350.877192982457,4,2,1,80,1,0
38854,-133.333333333333,4,2,1,80,0,0
40071,355.029585798817,4,2,1,85,1,0
40426,331.491712707183,4,2,1,85,1,0
41586,344.827586206897,4,2,1,85,1,0
42275,327.868852459017,4,2,1,85,1,0
44242,340.909090909092,4,2,1,85,1,0
44923,326.08695652174,4,2,1,85,1,0
46879,335.195530726258,4,2,1,85,1,0
48219,324.324324324325,4,2,1,85,1,0
49840,329.67032967033,4,2,1,85,1,0
50169,344.827586206897,4,2,1,85,1,0
50858,322.580645161291,4,2,1,85,1,0
52148,338.983050847458,4,2,1,80,1,0
52148,-133.333333333333,4,2,1,80,0,0
53374,331.491712707183,4,2,1,80,1,0
54036,322.580645161291,4,2,1,80,1,0
54842,340.909090909092,4,2,1,80,1,0
54842,-133.333333333333,4,2,1,80,0,0
56035,335.195530726258,4,2,1,80,1,0
57543,342.857142857144,4,2,1,80,1,0
57543,-133.333333333333,4,2,1,80,0,0
58771,329.670329670331,4,2,1,80,1,0
60254,335.195530726258,4,2,1,80,1,0
60254,-133.333333333333,4,2,1,80,0,0
60924,355.029585798818,4,2,1,80,1,0
61456,344.827586206898,4,2,1,80,1,0
61800,331.491712707183,4,2,1,80,1,0
62976,352.941176470589,4,2,1,65,1,0
63328,337.078651685394,4,2,1,65,1,0
64339,350.877192982457,4,2,1,65,1,0
64689,333.333333333334,4,2,1,65,1,0
65689,355.029585798818,4,2,1,65,1,0
66044,338.983050847459,4,2,1,65,1,0
67060,329.670329670331,4,2,1,65,1,0
68378,342.857142857144,4,2,1,65,1,0
69749,335.195530726258,4,2,1,65,1,0
71089,337.078651685394,4,2,1,65,1,0
72437,-100,4,2,1,80,0,0
73448,352.941176470589,4,2,1,80,1,0
73800,346.820809248556,4,2,1,80,1,0
73800,-133.333333333333,4,2,1,80,0,0
75013,342.857142857144,4,2,1,85,1,0
76555,342.857142857144,4,2,1,85,1,0
79297,338.983050847459,4,2,1,5,1,0
83364,344.827586206898,4,2,1,5,1,0
84743,340.909090909092,4,2,1,5,1,0
87470,344.827586206898,4,2,1,60,1,0
87470,-200,4,2,1,60,0,0
88849,331.491712707183,4,2,1,60,1,0
89843,-200,4,2,1,60,0,0
90174,342.857142857144,4,2,1,60,1,0
90174,-200,4,2,1,60,0,0
92231,320.855614973263,4,2,1,60,1,0
92551,347.523892267593,4,2,1,60,1,0
92551,-200,4,2,1,60,0,0
94288,337.078651685394,4,2,1,60,1,0
94288,-200,4,2,1,60,0,0
95299,324.324324324325,4,2,1,60,1,0
95299,-200,4,2,1,60,0,0
95947,350.877192982457,4,2,1,60,1,0
96122,-200,4,2,1,60,0,0
97490,301.507537688443,4,2,1,80,1,0
97961,337.078651685395,4,2,1,80,1,0
98298,355.029585798818,4,2,1,70,1,0
98653,338.983050847459,4,2,1,70,1,0
98991,-200,4,2,1,70,0,0
101025,342.857142857144,4,2,1,70,1,0
101025,-200,4,2,1,70,0,0
102053,324.324324324325,4,2,1,70,1,0
102377,-200,4,2,1,70,0,0
102701,333.333333333335,4,2,1,70,1,0
103034,-200,4,2,1,70,0,0
104034,344.827586206898,4,2,1,70,1,0
104378,-200,4,2,1,70,0,0
104723,331.491712707184,4,2,1,70,1,0
105054,-200,4,2,1,70,0,0
106380,340.909090909092,4,2,1,70,1,0
107061,-200,4,2,1,70,0,0
107678,309.278350515465,4,2,1,80,1,0
107987,297.029702970298,4,2,1,80,1,0
108284,320.855614973263,4,2,1,80,1,0
108604,352.94117647059,4,2,1,80,1,0
108956,-200,4,2,1,70,0,0
109309,344.827586206898,4,2,1,70,1,0
109481,-200,4,2,1,70,0,0
109998,335.195530726258,4,2,1,70,1,0
110333,-200,4,2,1,70,0,0
111673,337.078651685395,4,2,1,70,1,0
112010,-200,4,2,1,70,0,0
113021,322.580645161291,4,2,1,70,1,0
113021,-200,4,2,1,70,0,0
113666,352.94117647059,4,2,1,70,1,0
113666,-200,4,2,1,70,0,0
114018,320.855614973263,4,2,1,70,1,0
114338,359.28143712575,4,2,1,70,1,0
114338,-200,4,2,1,70,0,0
115056,326.975476839238,4,2,1,70,1,0
115213,-200,4,2,1,70,0,0
117017,344.827586206897,4,2,1,70,1,0
117017,-133.333333333333,4,2,1,70,0,0
117361,329.67032967033,4,2,1,65,1,0
117690,-200,4,2,1,65,0,0
118350,319.148936170213,4,2,1,65,1,0
118988,335.195530726258,4,2,1,65,1,0
118988,-200,4,2,1,65,0,0
119648,344.827586206897,4,2,1,65,1,0
119648,-200,4,2,1,65,0,0
120337,335.195530726258,4,2,1,70,1,0
120504,-200,4,2,1,70,0,0
121007,327.868852459017,4,2,1,70,1,0
121007,-200,4,2,1,70,0,0
121662,337.078651685394,4,2,1,70,1,0
121662,-200,4,2,1,70,0,0
123684,331.491712707183,4,2,1,70,1,0
123684,-200,4,2,1,70,0,0
125009,348.837209302326,4,2,1,70,1,0
125009,-200,4,2,1,70,0,0
125706,326.08695652174,4,2,1,70,1,0
125706,-200,4,2,1,70,0,0
126358,335.195530726258,4,2,1,70,1,0
126358,-200,4,2,1,70,0,0
127698,333.333333333334,4,2,1,70,1,0
128212,288.461538461539,4,2,1,70,1,0
128356,342.857142857144,4,2,1,70,1,0
128698,306.122448979592,4,2,1,80,1,0
129616,-133.333333333333,4,2,1,80,0,0
129946,344.827586206897,4,2,1,80,1,0
130290,344.827586206897,4,2,1,70,1,0
131669,329.67032967033,4,2,1,70,1,0
132328,-200,4,2,1,70,0,0
132987,335.195530726258,4,2,1,70,1,0
133657,-200,4,2,1,70,0,0
134327,333.333333333334,4,2,1,70,1,0
134993,-200,4,2,1,70,0,0
135660,337.078651685394,4,2,1,70,1,0
137008,310.880829015545,4,2,1,70,1,0
137318,333.333333333334,4,2,1,70,1,0
137318,-200,4,2,1,70,0,0
137984,-133.333333333333,4,2,1,70,0,0
138318,337.078651685394,4,2,1,70,1,0
138992,-200,4,2,1,70,0,0
139329,-100,4,2,1,70,0,0
139666,319.148936170213,4,2,1,85,1,0
140942,338.983050847458,4,2,1,80,1,0
142975,320.855614973262,4,2,1,80,1,0
143616,337.078651685393,4,2,1,80,1,0
144290,329.67032967033,4,2,1,80,1,0
145608,402.684563758389,4,2,1,80,1,0
145819,269.058295964125,4,2,1,80,1,0
145819,-133.333333333333,4,2,1,80,0,0
146263,333.333333333333,4,2,1,80,1,0
150263,326.086956521739,4,2,1,80,1,0
151241,340.909090909091,4,2,1,80,1,0
152263,335.195530726257,4,2,1,80,1,0
154274,329.218106995884,4,2,1,80,1,0
156907,372.670807453416,4,2,1,85,1,0
157279,338.983050847457,4,2,1,85,1,0
158634,331.491712707182,4,2,1,85,1,0
159959,340.909090909091,4,2,1,85,1,0
160640,344.827586206896,4,2,1,85,1,0
160984,-100,4,2,1,90,0,0
161332,340.909090909091,4,2,1,90,1,0
162354,348.837209302325,4,2,1,90,1,0
162354,-200,4,2,1,90,0,0
163574,344.827586206896,4,2,1,90,1,0
163574,-80,4,2,1,90,0,0
165125,357.142857142857,4,2,1,90,1,0
165125,-200,4,2,1,90,0,0
166375,335.195530726257,4,2,1,90,1,0
166375,-80,4,2,1,90,0,0
167883,355.029585798816,4,2,1,90,1,0
167883,-200,4,2,1,90,0,0
169125,337.078651685393,4,2,1,90,1,0
169125,-80,4,2,1,90,0,0
170641,348.837209302325,4,2,1,90,1,0
170641,-200,4,2,1,90,0,0
171861,352.941176470588,4,2,1,90,1,0
172213,342.857142857143,4,2,1,90,1,0
173431,346.820809248555,4,2,1,85,1,0
174471,323.886639676113,4,2,1,85,1,0
174794,352.941176470588,4,2,1,85,1,0
175146,331.491712707182,4,2,1,85,1,0
175477,348.837209302325,4,2,1,85,1,0
177221,337.078651685393,4,2,1,85,1,0
177895,314.13612565445,4,2,1,85,1,0
178209,342.857142857143,4,2,1,65,1,0
178894,346.820809248555,4,2,1,85,1,0
180281,334.261838440111,4,2,1,85,1,0
181618,337.078651685393,4,2,1,85,1,0
184314,352.941176470588,4,2,1,85,1,0
184314,-80,4,2,1,85,0,0
185019,333.333333333333,4,2,1,85,1,0
185352,325.644504748982,4,2,1,85,1,0
185514,-80,4,2,1,85,0,0
186003,331.491712707182,4,2,1,85,1,0
186665,335.195530726257,4,2,1,85,1,0
186665,-80,4,2,1,85,0,0
187335,355.029585798816,4,2,1,85,1,0
188045,306.122448979592,4,2,1,85,1,0
188351,338.983050847457,4,2,1,85,1,0
188351,-80,4,2,1,85,0,0
188689,327.868852459016,4,2,1,85,1,0
188689,-80,4,2,1,85,0,0
189672,331.491712707182,4,2,1,85,1,0
190334,355.029585798816,4,2,1,85,1,0
190689,320.855614973262,4,2,1,85,1,0
191009,-80,4,2,1,85,0,0
191972,337.078651685393,4,2,1,85,1,0
193320,324.324324324324,4,2,1,85,1,0
193644,-80,4,2,1,85,0,0

[Colours]
Combo1 : 144,144,144
Combo2 : 221,221,221

[HitObjects]
512,312,1328,6,0,L|388:312,1,110,2|2,0:0|0:0,0:0:0:0:
372,212,1998,2,0,B|249:207,1,110,2|2,0:0|0:0,0:0:0:0:
494,332,2501,2,0,L|373:340,1,110,2|2,0:0|0:0,0:0:0:0:
406,362,3003,1,2,0:0:0:0:
398,238,3339,2,0,B|220:283,1,165,2|0,0:0|0:0,0:0:0:0:
444,361,3984,6,0,L|334:361,1,110,2|2,0:0|0:0,0:0:0:0:
356,217,4677,2,0,B|248:203,1,110,2|2,0:0|0:0,0:0:0:0:
499,355,5167,2,0,L|372:366,1,110,2|2,0:0|0:0,0:0:0:0:
413,384,5636,1,2,0:0:0:0:
360,260,5964,2,0,B|190:290,1,165,2|0,0:0|0:0,0:0:0:0:
512,368,6645,6,0,L|251:368,1,220,14|10,3:2|0:0,0:0:0:0:
0,0,7350,2,0,L|219:1,1,220,10|2,0:0|3:2,0:0:0:0:
400,0,7839,1,10,0:0:0:0:
413,16,8165,1,10,0:0:0:0:
336,75,8328,1,2,3:2:0:0:
512,292,8491,5,8,0:0:0:0:
390,200,8654,1,10,0:0:0:0:
232,254,8817,1,8,0:0:0:0:
114,149,8980,1,8,0:0:0:0:
0,0,9306,6,0,L|219:1,1,220,10|10,0:0|0:0,0:0:0:0:
512,368,9972,2,0,L|251:368,1,220,10|2,0:0|3:2,0:0:0:0:
0,368,10472,1,10,0:0:0:0:
484,91,10797,1,10,0:0:0:0:
495,107,11117,5,8,0:0:0:0:
341,40,11277,1,10,0:0:0:0:
153,66,11436,1,8,0:0:0:0:
0,0,11596,1,8,0:0:0:0:
0,0,11915,6,0,L|248:0,1,220,10|10,0:0|0:0,0:0:0:0:
512,368,12578,2,0,L|251:368,1,220,10|2,0:0|3:2,0:0:0:0:
112,368,13075,1,10,0:0:0:0:
126,384,13404,1,10,0:0:0:0:
196,317,13567,1,2,3:2:0:0:
0,241,13730,5,8,0:0:0:0:
141,111,13893,1,10,0:0:0:0:
317,175,14056,1,8,0:0:0:0:
448,42,14219,1,8,0:0:0:0:
220,0,14545,6,0,L|-44:0,1,220,10|10,0:0|0:0,0:0:0:0:
292,368,15211,2,0,L|512:368,1,220,10|2,0:0|3:2,0:0:0:0:
192,368,15711,1,10,0:0:0:0:
178,383,16038,1,10,0:0:0:0:
339,271,16198,1,2,3:2:0:0:
32,0,16359,5,8,0:0:0:0:
166,139,16519,1,10,0:0:0:0:
344,59,16680,1,8,0:0:0:0:
478,198,16840,1,8,0:0:0:0:
48,339,17175,6,0,B|212:325|212:325|381:293,1,330.000012588501,4|0,3:2|0:0,0:0:0:0:
0,190,18381,1,4,3:2:0:0:
0,190,18718,1,4,3:2:0:0:
0,190,19055,1,4,3:2:0:0:
0,190,19392,1,4,3:2:0:0:
0,190,19705,1,4,3:2:0:0:
121,260,19869,6,0,B|295:228|295:228|481:218,1,330.000012588501,4|0,3:2|0:0,0:0:0:0:
0,190,21119,5,4,3:2:0:0:
0,190,21445,1,4,3:2:0:0:
0,190,21771,1,4,3:2:0:0:
0,190,22097,1,4,3:2:0:0:
0,190,22423,1,4,3:2:0:0:
119,142,22586,6,0,B|282:155|282:155|472:155,1,330.000012588501,4|0,3:2|0:0,0:0:0:0:
0,190,23836,5,4,3:2:0:0:
0,190,24163,1,4,3:2:0:0:
0,190,24491,1,4,3:2:0:0:
0,190,24819,1,4,3:2:0:0:
0,190,25147,1,4,3:2:0:0:
169,93,25311,6,0,B|345:101|345:101|518:132,1,330.000012588501,4|0,3:2|0:0,0:0:0:0:
0,190,26567,5,4,3:2:0:0:
107,241,26893,1,4,3:2:0:0:
212,289,27219,1,4,3:2:0:0:
318,338,27545,1,4,3:2:0:0:
318,338,27871,1,4,3:2:0:0:
512,284,28034,6,0,B|475:301|475:301|418:348|418:348|356:362|356:362|285:393,1,220,6|8,3:2|0:0,0:0:0:0:
214,378,28744,2,0,B|98:377|98:377|-19:333,1,220,2|8,3:2|0:0,0:0:0:0:
162,303,29426,2,0,L|425:277,1,220,2|10,3:2|0:0,0:0:0:0:
500,323,30096,2,0,L|247:329,1,220,2|8,3:2|0:0,0:0:0:0:
54,374,30766,5,6,0:0:0:0:
146,349,30934,1,2,0:0:0:0:
238,332,31101,1,10,0:0:0:0:
323,368,31269,1,2,0:0:0:0:
413,338,31437,2,0,L|357:203,1,110,2|2,3:2|3:2,0:0:0:0:
392,149,31772,2,0,L|415:286,1,110,10|2,0:0|0:0,0:0:0:0:
228,220,32107,2,0,B|164:215|164:215|8:213,1,220,2|8,3:2|0:0,0:0:0:0:
141,260,32610,1,0,0:0:0:0:
110,357,32777,2,0,L|-7:375,1,110,2|0,3:2|3:2,0:0:0:0:
277,206,33113,2,0,B|274:280|274:280|286:411,1,165,8|0,0:0|0:0,0:0:0:0:
293,384,33448,5,6,3:2:0:0:
426,20,33805,1,10,0:0:0:0:
219,79,34136,2,0,L|-33:57,1,220,2|10,3:2|0:0,0:0:0:0:
159,39,34800,1,2,3:2:0:0:
246,80,34966,1,2,3:2:0:0:
329,39,35132,1,10,0:0:0:0:
420,34,35298,1,2,0:0:0:0:
496,94,35464,2,0,B|521:191|521:191|511:320,1,220,2|10,3:2|0:0,0:0:0:0:
510,336,36128,6,0,L|290:354,1,220,6|10,3:2|0:0,0:0:0:0:
89,384,36649,1,2,0:0:0:0:
0,242,36816,2,0,L|247:287,1,220,2|10,3:2|0:0,0:0:0:0:
398,136,37483,6,0,L|287:200,1,110,2|8,3:2|0:0,0:0:0:0:
279,231,37740,1,8,0:0:0:0:
305,278,37825,1,2,3:2:0:0:
112,271,37997,2,0,L|114:400,1,110,10|2,0:0|3:2,0:0:0:0:
14,192,38340,2,0,L|8:320,1,110,0|10,0:0|0:0,0:0:0:0:
238,57,38683,1,8,0:0:0:0:
259,41,38768,1,8,0:0:0:0:
276,82,38854,2,0,P|414:172|320:6,1,495.000018882752,6|0,3:2|0:0,0:0:0:0:
0,219,40071,6,0,L|0:0,1,220,4|4,3:2|3:2,0:0:0:0:
512,367,40757,2,0,L|511:147,1,220,4|4,3:2|3:2,0:0:0:0:
488,264,41420,1,4,3:2:0:0:
512,0,41586,6,0,L|268:0,1,220,14|10,3:2|0:0,0:0:0:0:
0,368,42275,2,0,L|220:368,1,220,10|2,0:0|3:2,0:0:0:0:
346,368,42766,1,10,0:0:0:0:
361,384,43094,1,10,0:0:0:0:
429,312,43258,1,2,3:2:0:0:
91,32,43422,5,8,0:0:0:0:
215,156,43586,1,10,0:0:0:0:
390,97,43750,1,8,0:0:0:0:
511,218,43914,1,8,0:0:0:0:
0,368,44242,6,0,L|220:368,1,220,10|10,0:0|0:0,0:0:0:0:
512,0,44923,2,0,L|292:0,1,220,10|2,0:0|3:2,0:0:0:0:
0,0,45412,1,10,0:0:0:0:
507,263,45738,1,10,0:0:0:0:
507,263,46064,5,8,0:0:0:0:
347,330,46227,1,10,0:0:0:0:
159,304,46390,1,8,0:0:0:0:
0,368,46553,1,8,0:0:0:0:
0,368,46879,6,0,L|220:368,1,220,10|10,0:0|0:0,0:0:0:0:
512,0,47549,2,0,L|292:0,1,220,10|2,0:0|3:2,0:0:0:0:
96,0,48052,1,10,0:0:0:0:
79,16,48381,1,10,0:0:0:0:
165,69,48543,1,2,3:2:0:0:
0,345,48705,5,8,0:0:0:0:
153,265,48867,1,10,0:0:0:0:
276,382,49029,1,8,0:0:0:0:
423,302,49191,1,8,0:0:0:0:
292,0,49516,6,0,L|512:0,1,220,10|10,0:0|0:0,0:0:0:0:
220,368,50169,2,0,L|0:368,1,220,10|2,0:0|3:2,0:0:0:0:
416,368,50686,1,10,0:0:0:0:
401,384,51019,1,10,0:0:0:0:
336,304,51180,1,2,3:2:0:0:
512,337,51341,5,8,0:0:0:0:
321,203,51503,1,10,0:0:0:0:
191,384,51664,1,8,0:0:0:0:
0,250,51826,1,8,0:0:0:0:
435,34,52148,6,0,B|269:27|269:27|83:65,1,330.000012588501,4|0,3:2|0:0,0:0:0:0:
512,190,53374,5,4,3:2:0:0:
512,190,53705,1,4,3:2:0:0:
512,190,54036,1,4,3:2:0:0:
512,190,54358,1,4,3:2:0:0:
512,190,54681,1,4,3:2:0:0:
403,126,54842,6,0,B|241:168|241:168|75:174,1,330.000012588501,4|0,3:2|0:0,0:0:0:0:
512,190,56035,5,4,3:2:0:0:
512,190,56370,1,4,3:2:0:0:
512,190,56705,1,4,3:2:0:0:
512,190,57040,1,4,3:2:0:0:
512,190,57375,1,4,3:2:0:0:
391,263,57543,6,0,B|222:246|222:246|43:252,1,330.000012588501,4|0,3:2|0:0,0:0:0:0:
512,190,58771,5,4,3:2:0:0:
512,190,59100,1,4,3:2:0:0:
512,190,59430,1,4,3:2:0:0:
512,190,59760,1,4,3:2:0:0:
512,190,60089,1,4,3:2:0:0:
404,348,60254,6,0,B|234:348|234:348|55:314,1,330.000012588501,4|0,3:2|0:0,0:0:0:0:
512,190,61456,5,4,3:2:0:0:
398,228,61800,1,4,3:2:0:0:
290,264,62131,1,4,3:2:0:0:
179,302,62462,1,4,3:2:0:0:
179,302,62794,1,4,3:2:0:0:
2,379,62976,6,0,B|68:360|68:360|153:368|153:368|250:361,1,220,6|8,3:2|0:0,0:0:0:0:
504,351,63665,2,0,B|408:337|408:337|286:332,1,220,2|10,3:2|0:0,0:0:0:0:
192,259,64339,2,0,L|80:304,1,110,2|0,3:2|3:0,0:0:0:0:
362,281,64689,2,0,B|259:291|259:291|123:318,1,220,10|2,0:0|3:2,0:0:0:0:
452,334,65189,1,0,3:2:0:0:
452,334,65355,2,0,L|462:141,1,165,8|0,0:0|0:0,0:0:0:0:
478,160,65689,5,2,3:2:0:0:
340,156,65866,1,2,0:0:0:0:
210,100,66044,2,0,B|163:84|163:84|91:81,1,110,10|0,0:0|0:0,0:0:0:0:
59,219,66382,2,0,B|74:142|74:142|48:-18,1,220,2|8,3:2|0:0,0:0:0:0:
103,134,66891,1,0,0:0:0:0:
0,283,67060,1,2,3:2:0:0:
115,268,67224,1,2,3:2:0:0:
227,299,67389,2,0,B|281:310|281:310|336:308,1,110,10|0,0:0|0:0,0:0:0:0:
0,376,67719,2,0,B|121:361|121:361|232:331,1,220,2|8,3:2|0:0,0:0:0:0:
32,108,68378,6,0,B|15:55|15:55|3:-31,1,110,6|0,3:2|0:0,0:0:0:0:
363,174,68720,2,0,B|384:120|384:120|403:49,1,110,10|0,0:0|0:0,0:0:0:0:
250,153,69063,1,2,3:2:0:0:
265,249,69235,1,2,3:2:0:0:
284,344,69406,1,10,0:0:0:0:
390,83,69749,2,0,L|307:305,1,220,2|10,3:2|0:0,0:0:0:0:
512,30,70419,2,0,L|492:267,1,220,2|10,3:2|0:0,0:0:0:0:
478,220,70922,1,2,0:0:0:0:
361,384,71089,5,6,3:2:0:0:
329,289,71257,1,2,0:0:0:0:
304,193,71426,1,10,0:0:0:0:
395,146,71763,1,2,3:2:0:0:
341,234,71932,1,2,3:2:0:0:
286,323,72100,1,8,0:0:0:0:
0,14,72437,6,0,L|28:160,1,110,2|8,3:2|0:0,0:0:0:0:
4,147,72690,1,8,0:0:0:0:
24,182,72774,1,2,3:2:0:0:
302,384,72942,1,8,0:0:0:0:
166,245,73111,2,0,L|18:278,1,110,2|0,3:2|0:0,0:0:0:0:
417,345,73448,1,2,3:2:0:0:
316,128,73624,1,8,0:0:0:0:
359,148,73712,1,8,0:0:0:0:
350,176,73800,2,0,P|266:29|423:135,1,495.000018882752,6|0,3:2|0:0,0:0:0:0:
0,0,75013,6,0,L|0:220,1,220,4|4,3:2|3:2,0:0:0:0:
512,145,75698,2,0,L|512:365,1,220,4|4,3:2|3:2,0:0:0:0:
512,365,76384,1,4,3:2:0:0:
381,196,76555,1,6,3:2:0:0:
0,208,87470,5,2,0:0:0:0:
77,260,87642,2,0,L|204:294,1,110,2|2,0:0|0:0,0:0:0:0:
246,384,88332,1,2,0:0:0:0:
246,384,88676,1,2,0:0:0:0:
246,384,89843,2,0,L|317:356,1,55,2|2,0:0|0:0,0:0:0:0:
331,274,90174,2,0,L|440:270,1,110,2|2,0:0|0:0,0:0:0:0:
456,290,90688,1,2,0:0:0:0:
512,316,92391,5,2,0:0:0:0:
433,264,92551,2,0,L|383:287,1,55,2|0,0:0|0:0,0:0:0:0:
322,360,92898,2,0,L|202:387,1,110,2|2,0:0|0:0,0:0:0:0:
202,286,93419,2,0,L|128:284,1,55,2|0,0:0|0:0,0:0:0:0:
65,334,93767,1,2,0:0:0:0:
65,334,93941,2,0,L|-2:328,1,55,2|2,0:0|0:0,0:0:0:0:
224,236,94288,2,0,L|113:243,1,110,2|2,0:0|0:0,0:0:0:0:
301,299,94962,1,2,0:0:0:0:
387,243,95299,2,0,L|468:266,1,55,2|2,0:0|0:0,0:0:0:0:
512,176,95623,2,0,L|392:206,1,110,2|2,0:0|0:0,0:0:0:0:
388,384,96122,2,0,L|94:371,1,275,2|2,0:0|0:0,0:0:0:0:
29,105,97490,5,8,0:0:0:0:
29,105,97565,1,8,0:0:0:0:
29,105,97640,2,0,B|6:54|6:54|3:-22,1,110,8|8,0:0|0:0,0:0:0:0:
102,161,97961,1,8,0:0:0:0:
240,352,98298,5,2,2:0:0:0:
331,326,98475,1,0,0:0:0:0:
421,352,98653,1,2,0:0:0:0:
509,324,98991,2,0,L|277:286,2,220,10|2|2,0:0|3:2|0:0,0:0:0:0:
489,287,100517,1,2,0:0:0:0:
421,345,100686,2,0,L|347:347,1,55,0|2,0:0|0:0,0:0:0:0:
280,337,101025,6,0,L|196:326,1,55,2|0,2:0|0:0,0:0:0:0:
141,353,101367,1,2,0:0:0:0:
141,353,101710,2,0,L|21:354,1,110,2|0,0:0|0:0,0:0:0:0:
141,224,102377,2,0,L|275:213,1,110,2|0,3:2|0:0,0:0:0:0:
261,234,102867,1,0,0:0:0:0:
341,276,103034,2,0,L|415:285,2,55,2|0|2,0:0|0:0|0:0,0:0:0:0:
262,324,103534,1,2,0:0:0:0:
427,310,103701,6,0,L|495:311,1,55,2|0,2:0|0:0,0:0:0:0:
501,326,104034,1,2,0:0:0:0:
345,362,104378,2,0,L|219:372,1,110,2|0,0:0|0:0,0:0:0:0:
110,239,105054,2,0,L|-4:222,1,110,2|0,3:2|0:0,0:0:0:0:
143,326,105551,1,0,0:0:0:0:
57,354,105717,2,0,L|-8:358,1,55,2|2,0:0|0:0,0:0:0:0:
186,373,106048,2,0,L|279:370,1,82.5,2|0,0:0|0:0,0:0:0:0:
282,384,106380,5,2,3:2:0:0:
357,331,106550,1,2,0:0:0:0:
450,345,106720,1,2,0:0:0:0:
512,274,107061,2,0,L|387:278,1,110,2|4,0:0|0:0,0:0:0:0:
205,108,107678,5,0,3:2:0:0:
278,52,107832,1,8,3:2:0:0:
278,52,107909,1,8,3:2:0:0:
278,52,107987,2,0,B|317:52|317:52|399:60,1,110,8|8,0:2|0:0,0:0:0:0:
475,89,108284,2,0,B|451:96|451:96|427:98|427:98|330:109,1,110,8|8,0:0|0:0,0:0:0:0:
105,236,108604,1,12,0:0:0:0:
105,273,108956,6,0,L|21:238,1,82.5,2|2,3:2|0:0,0:0:0:0:
0,252,109309,1,0,0:0:0:0:
169,344,109481,2,0,L|304:351,1,110,2|2,0:0|0:0,0:0:0:0:
369,325,109998,1,2,0:0:0:0:
512,208,110333,2,0,L|447:228,1,55,0|0,3:2|0:0,0:0:0:0:
455,240,110668,1,0,0:0:0:0:
455,240,110835,1,2,0:0:0:0:
356,208,111003,2,0,L|288:218,1,55,2|2,0:0|0:0,0:0:0:0:
227,276,111338,2,0,L|154:280,1,55,2|2,0:0|0:0,0:0:0:0:
0,229,111673,1,2,3:2:0:0:
154,318,112010,2,0,L|27:311,1,110,2|2,0:0|0:0,0:0:0:0:
276,384,112684,6,0,L|354:375,1,55
411,324,113021,1,2,3:2:0:0:
411,324,113182,1,0,0:0:0:0:
305,285,113343,2,0,L|228:280,1,55,2|0,0:0|0:0,0:0:0:0:
324,195,113666,2,0,L|381:178,1,55,2|2,0:0|0:0,0:0:0:0:
463,203,114018,5,2,0:0:0:0:
273,309,114338,2,0,L|119:327,1,110,2|0,3:2|0:0,0:0:0:0:
77,348,114876,1,2,0:0:0:0:
0,211,115056,1,2,0:0:0:0:
0,211,115219,2,0,L|183:222,1,165,2|2,0:0|3:2,0:0:0:0:
178,311,116036,2,0,L|233:320,1,55,2|0,0:0|0:0,0:0:0:0:
261,350,116363,1,2,0:0:0:0:
299,351,116527,1,2,0:0:0:0:
337,327,116690,1,2,0:0:0:0:
386,335,116854,1,2,0:0:0:0:
440,374,117017,2,0,B|472:334|472:334|502:212,1,165.000006294251,2|2,3:2|0:0,0:0:0:0:
391,276,117690,2,0,L|337:262,1,55,2|0,0:0|0:0,0:0:0:0:
252,299,118020,2,0,L|142:297,1,110,2|0,0:0|3:0,0:0:0:0:
47,280,118509,5,0,0:0:0:0:
47,280,118669,1,2,0:0:0:0:
114,211,118828,1,0,0:0:0:0:
144,317,118988,2,0,B|202:324|202:324|253:319,1,110,2|2,0:0|0:0,0:0:0:0:
253,319,119648,5,2,3:2:0:0:
313,190,119820,2,0,L|199:225,1,110,2|2,0:0|0:0,0:0:0:0:
306,298,120337,1,0,0:0:0:0:
306,298,120504,2,0,L|384:303,1,55,2|0,0:0|0:0,0:0:0:0:
445,257,120839,1,2,0:0:0:0:
505,331,121007,2,0,L|483:392,2,55,0|0|0,3:0|0:0|0:0,0:0:0:0:
428,278,121498,1,2,0:0:0:0:
428,278,121662,2,0,L|439:216,1,55,2|2,0:0|0:0,0:0:0:0:
329,286,121999,2,0,L|330:343,1,55,2|2,0:0|0:0,0:0:0:0:
244,252,122336,1,2,3:2:0:0:
160,376,122673,2,0,L|137:253,1,110,2|0,0:0|0:0,0:0:0:0:
53,323,123347,5,0,0:0:0:0:
143,190,123684,2,0,L|62:185,1,55,0|0,3:2|0:0,0:0:0:0:
0,215,124015,1,2,0:0:0:0:
0,215,124181,5,2,0:0:0:0:
74,308,124346,2,0,L|139:279,1,55,2|2,0:0|0:0,0:0:0:0:
204,337,124678,2,0,L|274:346,1,55,2|0,0:0|0:0,0:0:0:0:
412,250,125009,2,0,L|277:258,1,110,2|0,3:2|0:0,0:0:0:0:
286,241,125706,2,0,L|160:233,1,110,2|0,0:0|0:0,0:0:0:0:
151,250,126195,1,2,0:0:0:0:
194,357,126358,2,0,L|82:342,1,110,2|2,3:2|0:0,0:0:0:0:
10,289,126860,1,2,0:0:0:0:
97,218,127028,2,0,L|163:200,1,55,2|0,0:0|0:0,0:0:0:0:
228,255,127363,2,0,L|292:266,1,55,2|8,0:0|0:0,0:0:0:0:
302,288,127614,5,8,0:0:0:0:
302,288,127698,1,10,0:0:0:0:
512,132,128212,1,8,0:0:0:0:
512,132,128284,1,8,0:0:0:0:
512,132,128356,1,10,0:0:0:0:
346,0,129004,6,0,L|211:13,1,110,8|8,0:0|0:0,0:0:0:0:
195,53,129310,2,0,L|50:90,1,110,8|8,0:0|0:0,0:0:0:0:
123,183,129616,2,0,L|-7:216,1,123.750004720688,8|0,0:0|0:0,0:0:0:0:
32,231,129946,1,6,0:0:0:0:
250,374,130290,5,6,3:2:0:0:
258,359,130634,1,2,0:0:0:0:
338,320,130979,1,2,0:0:0:0:
322,133,131324,1,2,0:0:0:0:
419,282,131496,1,2,0:0:0:0:
427,267,131833,1,2,0:0:0:0:
319,319,132163,1,2,0:0:0:0:
418,352,132328,2,0,L|198:351,1,220,2|2,0:0|3:2,0:0:0:0:
53,384,133154,5,2,0:0:0:0:
0,357,133322,1,2,0:0:0:0:
273,264,133657,2,0,L|31:281,1,220,2|2,0:0|3:2,0:0:0:0:
108,298,134993,2,0,L|-17:320,1,110,2|2,0:0|0:0,0:0:0:0:
247,384,135660,5,2,3:2:0:0:
255,369,135997,1,2,0:0:0:0:
194,297,136334,1,2,0:0:0:0:
258,126,136671,1,2,0:0:0:0:
134,225,136839,1,2,0:0:0:0:
142,210,137163,1,2,0:0:0:0:
194,314,137318,2,0,L|314:314,1,110,2|2,0:0|0:0,0:0:0:0:
512,194,137984,2,0,B|461:201|461:201|385:221,1,123.750004720688,2|0,0:0|0:0,0:0:0:0:
376,205,138318,5,2,3:2:0:0:
291,185,138486,1,2,0:0:0:0:
238,256,138655,1,2,0:0:0:0:
152,236,138992,2,0,L|60:230,1,82.5,2|0,0:0|0:0,0:0:0:0:
0,267,139329,2,0,B|49:293|49:293|161:375,1,165,4|0,0:0|0:0,0:0:0:0:
153,384,139666,5,4,3:2:0:0:
297,295,139825,1,8,0:0:0:0:
297,295,139905,1,8,0:0:0:0:
297,295,139985,2,0,L|225:366,3,55,8|8|8|0,0:0|0:0|0:0|0:0,0:0:0:0:
457,201,140304,1,8,0:0:0:0:
392,263,140463,2,0,L|414:212,1,55,0|0,3:2|3:2,0:0:0:0:
412,122,140623,1,0,3:2:0:0:
412,122,140703,1,0,3:2:0:0:
412,122,140783,2,0,L|444:201,2,55,0|0|6,3:2|3:2|3:2,0:0:0:0:
219,17,141111,6,0,L|91:5,1,110,2|2,0:0|3:1,0:0:0:0:
0,61,141450,2,0,L|146:27,1,110,2|0,0:0|3:2,0:0:0:0:
380,23,141789,2,0,L|226:48,1,110,2|2,0:0|3:1,0:0:0:0:
102,64,142128,1,2,0:0:0:0:
269,192,142297,2,0,L|251:47,1,110,0|0,3:2|0:0,0:0:0:0:
223,311,142636,2,0,L|246:159,1,110,2|0,3:1|0:0,0:0:0:0:
292,384,142975,1,0,3:2:0:0:
326,238,143135,1,0,3:2:0:0:
326,238,143215,1,0,3:2:0:0:
326,238,143295,2,0,L|309:81,1,110,2|2,3:1|0:0,0:0:0:0:
218,229,143616,6,0,L|71:206,1,110,2|0,3:2|0:0,0:0:0:0:
375,210,143953,2,0,L|240:204,1,110,2|2,3:1|0:0,0:0:0:0:
512,238,144290,2,0,L|358:249,1,110,0|0,3:2|0:0,0:0:0:0:
475,349,144619,1,2,3:1:0:0:
475,349,144784,1,2,0:0:0:0:
316,272,144949,2,0,L|351:415,1,110,0|0,3:2|0:0,0:0:0:0:
364,137,145279,2,0,L|375:268,1,110,2|2,3:1|0:0,0:0:0:0:
293,355,145608,1,0,3:2:0:0:
204,221,145819,2,0,L|246:395,1,165.000006294251,0|0,3:2|3:2,0:0:0:0:
121,318,146263,6,0,L|-3:282,1,110,6|2,3:2|0:0,0:0:0:0:
101,222,146596,2,0,L|-26:161,1,110,2|2,3:1|0:0,0:0:0:0:
294,192,146929,2,0,L|168:180,1,110,0|2,3:0|0:0,0:0:0:0:
320,302,147263,2,0,L|186:282,1,110,2|2,3:1|0:0,0:0:0:0:
368,377,147596,1,0,3:0:0:0:
495,317,147763,1,0,0:0:0:0:
410,284,147929,1,2,3:1:0:0:
333,340,148096,1,2,0:0:0:0:
243,352,148263,1,0,3:0:0:0:
130,273,148429,1,8,0:0:0:0:
231,170,148596,1,2,0:1:0:0:
0,218,148763,5,8,0:0:0:0:
0,218,148846,1,8,0:0:0:0:
0,218,148929,2,0,L|144:247,1,110,6|0,3:2|0:0,0:0:0:0:
85,134,149263,2,0,L|223:149,1,110,2|0,3:1|0:0,0:0:0:0:
211,177,149596,1,2,3:2:0:0:
269,87,149763,2,0,L|508:63,1,220
375,172,150263,1,4,3:2:0:0:
139,0,150426,5,8,0:2:0:0:
139,0,150507,1,8,0:2:0:0:
139,0,150589,2,0,L|155:79,1,55,10|8,0:1|0:0,0:0:0:0:
180,90,150752,2,0,L|177:170,1,55,8|8,0:0|0:0,0:0:0:0:
137,184,150915,1,8,0:0:0:0:
185,264,151078,1,0,3:0:0:0:
185,264,151159,1,0,3:0:0:0:
185,264,151241,2,0,L|171:330,2,55,2|0|0,3:1|3:0|3:0,0:0:0:0:
0,384,151581,6,0,L|46:242,1,110,6|0,3:2|0:0,0:0:0:0:
8,199,151922,2,0,L|18:51,1,110,8|2,0:2|0:0,0:0:0:0:
102,298,152263,2,0,L|107:146,1,110,0|2,3:2|0:0,0:0:0:0:
184,141,152598,2,0,L|171:-4,1,110,8|2,0:0|0:0,0:0:0:0:
335,226,152933,1,2,3:2:0:0:
251,216,153100,1,0,0:0:0:0:
174,343,153268,1,8,0:0:0:0:
226,372,153436,1,0,0:0:0:0:
333,294,153603,1,2,3:2:0:0:
287,309,153771,1,2,0:0:0:0:
224,235,153938,2,0,L|190:131,1,110,10|2,0:2|0:0,0:0:0:0:
335,65,154274,6,0,B|311:224|311:224|329:278|329:278|316:347|316:347|128:376,1,440,2|10,3:2|0:0,0:0:0:0:
1,368,155097,1,0,0:0:0:0:
31,383,155261,1,2,3:2:0:0:
136,202,155426,1,10,0:0:0:0:
73,284,155590,2,0,L|90:175,1,110,2|2,3:2|0:0,0:0:0:0:
254,75,155920,1,8,0:0:0:0:
227,97,156249,1,2,3:2:0:0:
0,0,156413,1,10,0:0:0:0:
158,83,156578,2,0,L|208:278,1,165,6|0,3:2|0:0,0:0:0:0:
145,181,156907,6,0,L|88:303,1,110,6|0,3:2|0:0,0:0:0:0:
189,279,157279,2,0,L|150:416,1,110,0|2,3:2|3:2,0:0:0:0:
292,238,157617,2,0,L|264:354,1,110,2|0,3:2|3:2,0:0:0:0:
415,227,157956,2,0,L|377:343,1,110,0|2,3:2|3:2,0:0:0:0:
512,139,158295,2,0,L|478:268,1,110,2|0,3:2|3:2,0:0:0:0:
382,195,158634,2,0,L|365:332,1,110,0|0,3:2|3:2,0:0:0:0:
260,138,158965,2,0,L|203:240,1,110,2|0,3:2|3:2,0:0:0:0:
95,58,159296,2,0,L|52:214,1,110,0|0,3:2|3:2,0:0:0:0:
0,357,159628,1,0,3:2:0:0:
72,371,159794,1,0,3:2:0:0:
146,305,159959,1,0,3:2:0:0:
234,317,160129,1,0,3:2:0:0:
326,368,160299,1,0,3:2:0:0:
398,317,160470,1,0,3:2:0:0:
493,357,160640,1,2,3:2:0:0:
471,372,160812,1,2,3:2:0:0:
450,158,160984,1,10,0:0:0:0:
387,310,161157,1,10,0:0:0:0:
202,148,161332,1,8,0:0:0:0:
346,183,161502,1,10,0:0:0:0:
213,56,161672,1,8,0:0:0:0:
436,0,161843,1,8,0:0:0:0:
263,100,162013,1,8,0:0:0:0:
418,164,162184,1,8,0:0:0:0:
512,376,162354,6,0,L|171:384,1,330,14|0,0:1|0:0,0:0:0:0:
283,293,163574,2,0,B|176:328|176:328|107:319|107:319|13:324,3,275,12|12|12|12,3:2|3:2|3:2|3:2,0:0:0:0:
316,268,164953,1,12,3:2:0:0:
411,384,165125,6,0,L|76:363,1,330,14|0,3:1|0:0,0:0:0:0:
5,253,166375,2,0,B|52:297|52:297|222:351|222:351|297:321,3,275,12|12|12|12,3:2|3:2|3:2|3:2,0:0:0:0:
325,384,167715,1,12,3:2:0:0:
512,359,167883,6,0,B|168:367,1,330,14|0,3:1|0:0,0:0:0:0:
283,377,169125,2,0,B|180:304|180:304|80:181,3,275,12|12|12|12,3:2|3:2|3:2|3:2,0:0:0:0:
173,384,170473,1,12,3:2:0:0:
1,363,170641,6,0,L|344:336,1,330,14|0,3:1|0:0,0:0:0:0:
512,30,171861,2,0,L|304:79,1,165,12|0,3:2|0:0,0:0:0:0:
402,114,172213,2,0,L|204:196,1,165,12|0,3:2|0:0,0:0:0:0:
162,127,172555,2,0,L|-33:162,1,165,12|0,3:2|0:0,0:0:0:0:
16,174,172898,1,12,3:2:0:0:
512,335,173241,1,12,3:2:0:0:
345,379,173431,6,0,B|269:375|269:375|272:375|272:375|158:344,1,165,14|0,3:1|0:0,0:0:0:0:
158,329,173777,1,8,0:0:0:0:
0,375,173951,1,0,0:0:0:0:
282,318,174124,2,0,B|168:297|168:297|155:296|155:296|39:282,1,220,2|8,3:1|0:0,0:0:0:0:
342,296,174632,2,0,B|400:282|400:282|445:256,1,110,2|0,3:1|0:0,0:0:0:0:
206,235,174970,2,0,B|154:235|154:235|99:254,1,110,2|8,3:1|0:0,0:0:0:0:
384,340,175311,2,0,B|412:353|412:353|487:342|487:342|511:315,1,110,2|2,0:1|3:1,0:0:0:0:
265,214,175651,1,0,3:0:0:0:
6,305,175825,2,0,B|60:284|60:284|150:276,1,110,8|0,0:0|0:0,0:0:0:0:
512,150,176174,6,0,B|485:177|485:177|446:191|446:191|338:176|338:176|312:160|312:160|251:163|251:163|183:183,1,330,2|0,3:1|3:2,0:0:0:0:
144,217,176785,1,0,3:0:0:0:
100,164,176872,2,0,B|103:195|103:195|134:282,1,110,2|0,3:1|3:0,0:0:0:0:
249,343,177221,1,10,0:1:0:0:
257,16,177389,2,0,B|246:52|246:52|236:138,1,110,2|0,3:1|0:0,0:0:0:0:
372,270,177726,2,0,B|356:296|356:296|336:421,1,110,2|10,3:1|0:0,0:0:0:0:
462,236,178052,1,2,0:1:0:0:
317,44,178209,1,2,3:1:0:0:
454,331,178380,1,0,3:0:0:0:
401,0,178551,1,8,0:0:0:0:
292,257,178723,5,0,3:0:0:0:
347,221,178809,1,0,3:0:0:0:
402,196,178894,2,0,B|513:173|513:173|497:121|497:121|427:80,1,220,2|8,3:1|0:0,0:0:0:0:
408,294,179414,1,0,0:0:0:0:
512,341,179587,2,0,B|454:319|454:319|352:301,1,165,2|0,3:1|0:0,0:0:0:0:
322,322,179934,1,10,0:0:0:0:
97,384,180107,1,2,3:1:0:0:
231,348,180281,2,0,B|40:363|40:363|-31:360,1,220,2|8,0:1|0:0,0:0:0:0:
0,347,180782,1,2,0:1:0:0:
225,249,180949,1,2,3:1:0:0:
294,315,181116,1,0,3:0:0:0:
321,254,181200,1,0,0:0:0:0:
348,198,181283,2,0,B|344:237|344:237|362:282|362:282|382:388,1,165,10|0,0:1|0:0,0:0:0:0:
419,382,181618,6,0,B|441:320|441:320|471:267,1,110,6|0,3:2|0:0,0:0:0:0:
482,143,181955,2,0,B|495:86|495:86|518:15,1,110,10|0,0:1|3:2,0:0:0:0:
506,19,182207,1,0,3:2:0:0:
485,35,182292,2,0,L|363:59,1,110,2|2,3:1|3:2,0:0:0:0:
207,227,182629,2,0,B|131:219|131:219|44:229|44:229|-24:175,1,220,8|2,0:0|3:1,0:0:0:0:
96,80,183134,1,8,0:0:0:0:
66,97,183219,1,8,0:0:0:0:
37,112,183303,1,8,0:0:0:0:
221,38,183471,1,8,0:0:0:0:
188,58,183556,1,8,0:0:0:0:
159,80,183640,1,10,0:1:0:0:
382,86,183809,1,0,3:2:0:0:
351,100,183893,1,0,3:2:0:0:
308,113,183977,2,0,L|222:122,2,55,0|0|0,3:2|3:2|3:2,0:0:0:0:
512,353,184314,6,0,B|454:356|454:356|353:345|353:345|218:336,1,275,14|10,3:2|0:1,0:0:0:0:
0,320,184843,1,0,3:0:0:0:
150,370,185019,2,0,B|223:381|223:381|299:378,1,110,10|0,0:1|0:0,0:0:0:0:
32,350,185352,1,2,3:2:0:0:
369,352,185514,2,0,B|334:351|334:351|208:328,1,137.5,10|0,0:1|3:0,0:0:0:0:
46,295,185840,2,0,B|95:289|95:289|225:263,1,137.5,10|2,0:1|3:1,0:0:0:0:
403,224,186168,1,8,0:0:0:0:
180,358,186334,1,10,0:1:0:0:
468,302,186500,1,8,0:0:0:0:
249,217,186665,2,0,B|201:203|201:203|103:189,1,137.5,10|0,0:1|0:0,0:0:0:0:
459,356,187000,5,10,0:1:0:0:
0,302,187335,1,10,0:1:0:0:
512,197,187690,1,10,0:1:0:0:
96,362,188045,1,2,3:1:0:0:
383,291,188198,1,10,0:1:0:0:
217,219,188351,2,0,B|171:210|171:210|38:199,1,137.5,0|10,3:0|0:1,0:0:0:0:
282,354,188689,2,0,B|345:344|345:344|429:313,1,137.5,0|10,3:0|0:1,0:0:0:0:
486,253,189016,1,8,0:0:0:0:
177,350,189180,1,8,0:0:0:0:
396,212,189344,1,8,0:0:0:0:
0,384,189672,5,10,0:1:0:0:
511,302,190003,1,10,0:1:0:0:
52,206,190334,1,10,0:1:0:0:
371,344,190689,1,0,3:0:0:0:
102,309,190849,1,10,0:1:0:0:
297,234,191009,2,0,B|356:225|356:225|477:219,1,137.5,0|10,3:0|0:1,0:0:0:0:
215,346,191330,2,0,B|153:353|153:353|52:345,1,137.5,2|10,3:2|0:1,0:0:0:0:
345,321,191651,1,8,0:0:0:0:
135,265,191811,1,8,0:0:0:0:
405,384,191971,1,8,0:0:0:0:
0,185,192309,5,10,0:1:0:0:
492,269,192646,1,10,0:1:0:0:
71,384,192983,1,10,0:1:0:0:
332,226,193320,1,2,3:2:0:0:
127,284,193482,1,10,0:1:0:0:
324,344,193644,2,0,B|399:360|399:360|465:368,1,137.5,0|10,3:0|0:1,0:0:0:0:
201,213,193968,2,0,B|135:225|135:225|70:250,1,137.5,0|10,3:0|0:1,0:0:0:0:
351,238,194292,1,8,0:0:0:0:
35,162,194455,1,8,0:0:0:0:
481,41,194617,1,8,0:0:0:0:
256,384,194941,5,14,3:1:0:0:
256,192,195022,12,0,200374,0:0:0:0:
256,192,200455,12,0,202401,0:0:0:0:
