osu file format v14

[General]
AudioFilename: audio.mp3
AudioLeadIn: 0
PreviewTime: 202151
Countdown: 0
SampleSet: Soft
StackLeniency: 0.7
Mode: 0
LetterboxInBreaks: 0
WidescreenStoryboard: 0

[Editor]
Bookmarks: 11829,16990,27313,37635,55700,76345,96990,107313,117635,127958,138280,148603,169248,180861,191184,212474,233119
DistanceSpacing: 1.2
BeatDivisor: 4
GridSize: 32
TimelineZoom: 1.92

[Metadata]
Title:Yoru to Enshinryoku
TitleUnicode:夜と遠心力
Artist:Numakura Manami
ArtistUnicode:沼倉愛美
Creator:domSaur
Version:Grotesque
Source:
Tags:アイ ai
BeatmapID:1960496
BeatmapSetID:938546

[Difficulty]
HPDrainRate:6
CircleSize:4.2
OverallDifficulty:8
ApproachRate:9.2
SliderMultiplier:1.8
SliderTickRate:1

[Events]
//Background and Video events
0,0,"nu.jpg",0,0
//Break Periods
2,99771,106743
2,169447,173809
2,202151,204001
//Storyboard Layer 0 (Background)
//Storyboard Layer 1 (Fail)
//Storyboard Layer 2 (Pass)
//Storyboard Layer 3 (Foreground)
//Storyboard Layer 4 (Overlay)
//Storyboard Sound Samples

[TimingPoints]
6668,322.58064516129,4,2,1,50,1,0
6668,-166.666666666667,4,2,1,50,0,0
11829,-133.333333333333,4,2,1,50,0,0
16667,-333.333333333333,4,2,1,60,0,0
16990,-100,4,2,1,60,0,0
27313,-133.333333333333,4,2,1,55,0,0
36990,-500,4,2,1,55,0,0
37635,-100,4,2,1,60,0,0
52474,-83.3333333333333,4,2,1,60,0,0
53119,-100,4,2,1,60,0,0
55700,-133.333333333333,4,2,1,50,0,0
66022,-100,4,2,1,70,0,0
76345,-100,4,2,1,75,0,1
86345,-100,4,2,1,75,0,0
86667,-100,4,2,1,75,0,1
96990,-100,4,2,1,60,0,0
107313,-133.333333333333,4,2,1,55,0,0
116990,-133.333333333333,4,2,1,70,0,0
117635,-100,4,2,1,55,0,0
127958,-100,4,2,1,50,0,0
137958,-333.333333333333,4,2,1,60,0,0
138280,-100,4,2,1,70,0,0
138280,-100,4,2,1,60,0,0
148603,-100,4,2,1,75,0,1
158603,-100,4,2,1,75,0,0
158926,-100,4,2,1,75,0,1
169248,-100,4,2,1,60,0,0
174409,-133.333333333333,4,2,1,55,0,0
179732,-500,4,2,1,60,0,0
180861,-100,4,2,1,60,0,0
181184,-166.666666666667,4,2,1,60,0,0
181667,-133.333333333333,4,2,1,60,0,0
181990,-100,4,2,1,60,0,0
183442,-100,4,2,1,60,0,0
185700,-133.333333333333,4,2,1,60,0,0
186022,-100,4,2,1,60,0,0
186829,-100,4,2,1,60,0,0
191184,-100,4,2,1,65,0,0
202151,322.58064516129,4,2,1,60,1,0
204571,-133.333333333333,4,2,1,65,0,0
207313,-100,4,2,1,65,0,0
212474,-100,4,2,1,75,0,1
222797,-133.333333333333,4,2,1,60,0,0
233119,-100,4,2,1,60,0,0
243441,-83.3333333333333,4,2,1,70,0,0

[Colours]
Combo1 : 31,143,167
Combo2 : 173,238,250
Combo3 : 4,143,210
Combo4 : 113,208,255

[HitObjects]
73,98,6668,5,2,0:2:0:0:
60,183,6829,1,2,0:2:0:0:
142,157,6990,2,0,P|200:151|260:146,1,107.999996704102,2|0,0:2|0:0,0:0:0:0:
395,208,7474,2,0,P|340:204|294:233,1,107.999996704102,2|0,0:2|0:0,0:0:0:0:
265,350,7958,5,2,0:2:0:0:
180,334,8119,1,2,0:2:0:0:
96,312,8280,2,0,B|82:277|82:277|95:190,1,107.999996704102,2|2,0:2|0:2,0:0:0:0:
149,142,8764,1,2,0:2:0:0:
98,71,8926,2,0,L|26:79,1,53.9999983520508,2|2,0:2|0:2,0:0:0:0:
156,148,9248,5,2,0:2:0:0:
235,114,9409,1,2,0:2:0:0:
314,149,9571,2,0,B|345:166|359:180|359:180|354:205|328:233,1,107.999996704102,2|0,0:2|0:0,0:0:0:0:
245,264,10055,2,0,L|267:394,1,107.999996704102,2|0,0:2|0:0,0:0:0:0:
470,273,10538,5,2,0:2:0:0:
397,295,10700,1,2,0:2:0:0:
337,247,10861,2,0,P|332:215|331:178,1,53.9999983520508,2|0,0:2|0:0,0:0:0:0:
341,68,11184,1,2,0:2:0:0:
274,31,11345,1,2,0:2:0:0:
203,57,11506,2,0,L|137:53,1,53.9999983520508,2|2,0:2|0:2,0:0:0:0:
46,194,11829,6,0,L|99:197,1,53.9999983520508,2|0,1:2|0:0,0:0:0:0:
223,147,12151,2,0,P|209:215|200:282,1,135.000005149842,2|0,1:2|1:0,0:0:0:0:
264,341,12635,1,2,0:2:0:0:
355,209,12797,2,0,B|377:214|387:222|387:222|382:240|366:255,1,67.5000025749208,0|0,1:0|0:0,0:0:0:0:
268,333,13119,6,0,B|339:328|320:368|403:368,1,135.000005149842,2|0,1:2|1:0,0:0:0:0:
308,135,13603,1,0,0:0:0:0:
258,204,13764,2,0,B|244:236|238:270|238:270|249:301|281:339,1,135.000005149842,2|2,1:2|1:2,0:0:0:0:
436,250,14248,1,0,0:0:0:0:
347,246,14409,6,0,L|264:239,1,67.5000025749208,0|0,1:0|0:0,0:0:0:0:
178,211,14732,2,0,P|162:149|200:89,1,135.000005149842,2|0,1:2|1:0,0:0:0:0:
366,147,15216,2,0,B|346:166|318:173|318:173|293:162|277:146|277:146|248:158|230:160,1,135.000005149842,2|0,0:2|0:0,0:0:0:0:
93,212,15700,5,2,0:0:0:0:
276,331,16022,1,2,0:0:0:0:
376,144,16345,1,8,0:2:0:0:
427,150,16426,1,8,0:2:0:0:
452,194,16506,1,8,0:2:0:0:
435,241,16587,1,8,0:2:0:0:
388,258,16667,6,0,L|343:255,1,40.4999987640381,8|0,0:2|0:0,0:0:0:0:
267,250,16990,5,2,1:1:0:0:
128,129,17151,1,0,1:0:0:0:
43,297,17313,2,0,P|86:287|131:281,1,90,10|0,0:1|0:0,0:0:0:0:
239,89,17635,1,2,1:2:0:0:
190,231,17797,1,2,1:2:0:0:
54,123,17958,2,0,B|38:142|27:163|27:163|32:187|47:210,1,90,10|0,0:2|0:0,0:0:0:0:
174,342,18280,5,2,1:1:0:0:
249,167,18442,1,0,1:0:0:0:
124,244,18603,2,0,P|176:248|221:256,1,90,8|2,0:2|1:1,0:0:0:0:
326,327,18926,2,0,L|424:320,1,90,0|2,0:0|1:1,0:0:0:0:
456,151,19248,2,0,L|359:137,1,90,10|8,0:1|0:2,0:0:0:0:
293,128,19490,1,8,0:2:0:0:
289,120,19571,5,2,1:1:0:0:
401,244,19732,1,0,1:0:0:0:
186,334,19893,2,0,P|177:294|179:231,1,90,10|0,0:1|0:0,0:0:0:0:
364,344,20216,2,0,P|307:349|265:354,1,90,2|2,1:2|1:2,0:0:0:0:
179,326,20538,2,0,P|134:330|89:336,1,90,10|0,0:2|0:0,0:0:0:0:
369,338,20861,5,2,1:1:0:0:
380,221,21022,1,0,1:0:0:0:
223,177,21184,1,10,0:1:0:0:
234,293,21345,1,0,1:0:0:0:
385,227,21506,1,2,0:2:0:0:
398,110,21667,1,2,1:2:0:0:
236,305,21829,1,10,0:2:0:0:
260,321,21909,1,0,0:0:0:0:
288,321,21990,1,0,0:0:0:0:
315,307,22071,1,0,0:0:0:0:
320,278,22151,5,2,1:1:0:0:
190,167,22313,1,0,1:0:0:0:
60,257,22474,2,0,B|61:281|70:304|70:304|86:321|108:333,1,90,10|0,0:1|0:0,0:0:0:0:
266,218,22797,1,2,1:2:0:0:
112,339,22958,1,2,1:2:0:0:
44,155,23119,2,0,P|52:207|62:267,1,90,10|0,0:2|0:0,0:0:0:0:
245,330,23442,5,2,1:1:0:0:
294,165,23603,1,0,1:0:0:0:
248,340,23764,1,8,0:2:0:0:
177,209,23926,1,2,1:1:0:0:
369,178,24087,1,0,0:0:0:0:
175,199,24248,1,2,1:1:0:0:
430,107,24409,2,0,B|411:95|386:85|386:85|362:88|334:97,1,90,10|8,0:1|0:2,0:0:0:0:
274,124,24651,1,8,0:2:0:0:
269,118,24732,5,2,1:1:0:0:
99,54,24893,1,0,1:0:0:0:
64,224,25055,2,0,P|110:219|169:215,1,90,10|0,0:1|0:0,0:0:0:0:
359,176,25377,1,2,1:2:0:0:
186,116,25538,1,2,1:2:0:0:
332,269,25700,2,0,P|273:262|235:259,1,90,10|0,0:2|0:0,0:0:0:0:
27,131,26022,5,2,1:1:0:0:
48,246,26184,1,0,1:0:0:0:
171,185,26345,1,10,0:1:0:0:
241,318,26506,2,0,P|245:273|251:229,1,90,2|0,1:1|0:0,0:0:0:0:
259,138,26829,1,2,1:1:0:0:
483,140,26990,1,8,0:2:0:0:
455,123,27070,1,8,0:2:0:0:
425,122,27151,1,8,0:2:0:0:
398,139,27231,1,8,0:2:0:0:
386,167,27313,6,0,B|301:170|335:121|247:129,1,135.000005149842,2|0,1:2|0:0,0:0:0:0:
158,20,27797,2,0,P|190:32|213:57,2,67.5000025749208,2|2|0,1:2|0:2|0:0,0:0:0:0:
61,70,28280,2,0,P|51:101|58:134,2,67.5000025749208,2|2|0,1:2|0:2|0:0,0:0:0:0:
239,196,28764,6,0,P|241:129|219:66,1,135.000005149842,0|0,1:0|0:0,0:0:0:0:
146,267,29248,2,0,P|203:301|269:312,1,135.000005149842,0|0,1:0|0:0,0:0:0:0:
353,257,29732,1,0,0:0:0:0:
146,119,29893,6,0,P|149:152|159:185,2,67.5000025749208,2|2|0,1:2|0:2|0:0,0:0:0:0:
305,53,30377,2,0,L|294:186,1,135.000005149842,2|0,1:2|0:0,0:0:0:0:
250,265,30861,2,0,L|182:257,2,67.5000025749208,2|2|0,1:2|0:2|0:0,0:0:0:0:
381,307,31345,6,0,P|389:233|396:159,1,135.000005149842,0|0,1:0|0:0,0:0:0:0:
281,43,31829,2,0,P|273:117|266:191,1,135.000005149842,0|0,1:0|0:0,0:0:0:0:
254,270,32313,1,0,0:0:0:0:
478,155,32474,6,0,B|400:162|417:113|336:116,1,135.000005149842,2|0,1:2|0:0,0:0:0:0:
255,95,32958,2,0,P|252:60|238:14,2,67.5000025749208,2|2|0,1:2|0:2|0:0,0:0:0:0:
147,180,33442,2,0,P|150:215|164:261,2,67.5000025749208,2|2|0,1:2|0:2|0:0,0:0:0:0:
240,294,33926,6,0,P|171:334|97:312,1,135.000005149842,0|0,1:0|0:0,0:0:0:0:
123,115,34409,2,0,P|143:180|158:246,1,135.000005149842,0|0,1:0|0:0,0:0:0:0:
408,317,35055,6,0,L|248:306,1,135.000005149842,2|0,1:2|0:0,0:0:0:0:
167,325,35538,2,0,P|134:330|84:337,2,67.5000025749208,2|2|0,1:2|0:2|0:0,0:0:0:0:
276,302,36022,1,2,1:2:0:0:
196,216,36184,1,2,0:2:0:0:
302,61,36345,5,0,0:0:0:0:
192,224,36667,1,2,0:2:0:0:
342,344,36990,2,0,P|370:339|408:336,1,63,2|0,0:2|0:0,0:0:0:0:
476,337,37635,5,2,1:2:0:0:
349,180,37797,1,2,1:2:0:0:
450,69,37958,2,0,B|412:164|485:143|438:258,1,180,10|0,0:1|0:0,0:0:0:0:
232,287,38442,1,2,1:1:0:0:
308,355,38603,2,0,P|355:347|414:343,1,90,8|0,0:2|1:0,0:0:0:0:
158,221,38926,6,0,P|112:222|64:228,1,90,2|0,0:1|1:0,0:0:0:0:
310,249,39248,1,8,0:2:0:0:
237,291,39409,2,0,B|229:231|229:231|253:181|253:181|241:100,1,180,2|0,0:1|1:0,0:0:0:0:
101,199,39893,2,0,P|95:148|89:83,1,90,10|8,0:1|0:2,0:0:0:0:
123,42,40135,1,8,0:2:0:0:
123,42,40216,5,2,1:2:0:0:
23,177,40377,1,2,1:2:0:0:
219,255,40538,2,0,B|123:247|150:308|49:302,1,180,10|0,0:1|0:0,0:0:0:0:
312,355,41022,2,0,P|263:352|198:346,1,90,2|8,1:1|0:2,0:0:0:0:
221,268,41345,1,0,1:0:0:0:
339,90,41506,6,0,P|336:135|334:180,1,90,2|0,0:1|1:0,0:0:0:0:
154,297,41829,1,8,0:2:0:0:
147,189,41990,1,2,0:1:0:0:
307,247,42151,1,8,0:2:0:0:
293,355,42313,1,0,1:0:0:0:
406,103,42474,1,10,0:1:0:0:
445,96,42555,1,0,0:0:0:0:
475,124,42635,1,8,0:2:0:0:
473,164,42716,1,8,0:2:0:0:
439,187,42797,6,0,L|332:181,1,90,2|2,1:2|0:2,0:0:0:0:
247,88,43119,2,0,B|143:70|172:144|61:133,2,180,10|2|10,0:2|1:2|0:2,0:0:0:0:
336,109,43926,1,2,1:2:0:0:
174,197,44087,5,0,0:0:0:0:
258,216,44248,1,2,1:2:0:0:
233,129,44409,1,8,0:2:0:0:
106,349,44571,2,0,P|96:270|88:162,1,180,2|2,1:2|1:2,0:0:0:0:
202,88,45055,1,8,0:2:0:0:
114,79,45216,6,0,P|61:75|1:71,2,90,2|2|2,0:2|1:2|0:2,0:0:0:0:
290,102,45700,2,0,P|320:190|321:288,2,180,10|2|10,0:2|1:2|0:2,0:0:0:0:
172,199,46506,1,2,1:2:0:0:
320,286,46667,6,0,P|275:292|230:296,1,90,0|2,0:0|1:2,0:0:0:0:
60,272,46990,1,8,0:2:0:0:
223,300,47151,2,0,P|216:255|212:210,1,90,2|0,1:2|0:0,0:0:0:0:
493,324,47474,2,0,B|395:332|419:269|314:282,1,180,2|2,1:2|0:2,0:0:0:0:
460,193,47958,6,0,P|418:171|368:169,1,90,2|2,1:2|0:2,0:0:0:0:
255,209,48280,2,0,P|216:286|259:361,2,180,10|2|10,0:2|1:2|0:2,0:0:0:0:
319,79,49087,1,2,1:2:0:0:
397,188,49248,5,0,0:0:0:0:
263,203,49409,1,2,1:2:0:0:
325,154,49571,1,8,0:2:0:0:
395,315,49732,2,0,P|315:313|203:307,1,180,2|2,1:2|1:2,0:0:0:0:
139,132,50216,2,0,P|94:136|55:157,1,90,8|2,0:2|0:2,0:0:0:0:
67,332,50538,6,0,P|156:327|246:324,2,180,2|10|2,1:2|0:2|1:2,0:0:0:0:
109,110,51506,1,10,0:2:0:0:
208,227,51667,1,2,1:2:0:0:
40,237,51829,2,0,P|89:234|134:232,1,90,0|2,0:0|1:2,0:0:0:0:
234,158,52151,1,8,0:2:0:0:
255,164,52232,1,0,0:0:0:0:
277,162,52313,1,0,0:0:0:0:
318,144,52393,1,0,0:0:0:0:
365,169,52474,6,0,P|356:228|349:293,1,107.999996704102,8|0,0:2|0:0,0:0:0:0:
284,339,52716,2,0,P|227:331|173:326,1,107.999996704102,8|0,0:2|0:0,0:0:0:0:
100,272,52958,1,8,0:2:0:0:
145,139,53119,6,0,P|139:89|136:33,1,90,2|2,0:1|0:1,0:0:0:0:
145,139,53764,6,0,P|139:89|136:33,1,90,2|2,0:1|0:1,0:0:0:0:
145,139,54409,6,0,P|139:89|136:33,1,90,2|2,0:1|0:1,0:0:0:0:
112,224,55055,2,0,P|162:231|209:210,1,90
264,103,55377,2,0,P|306:89|350:96,1,90
479,142,55700,6,0,P|484:179|487:215,1,67.5000025749208,2|2,1:2|0:2,0:0:0:0:
480,341,56022,1,0,0:0:0:0:
390,356,56184,2,0,B|317:365|332:331|235:340,1,135.000005149842,2|0,0:2|0:0,0:0:0:0:
163,271,56667,2,0,P|121:273|75:295,1,67.5000025749208,2|0,0:2|0:0,0:0:0:0:
261,331,56990,6,0,L|249:174,1,135.000005149842,2|2,0:2|0:2,0:0:0:0:
194,108,57474,2,0,P|155:104|109:126,1,67.5000025749208
256,198,57797,2,0,B|336:183|320:232|408:216,1,135.000005149842,2|2,0:2|0:2,0:0:0:0:
474,115,58280,6,0,P|437:121|402:142,1,67.5000025749208
330,184,58603,1,0,0:0:0:0:
292,59,58764,2,0,P|225:55|148:82,1,135.000005149842,2|0,0:2|0:0,0:0:0:0:
90,184,59248,2,0,P|83:152|74:97,1,67.5000025749208,2|0,0:2|0:0,0:0:0:0:
47,312,59571,6,0,P|92:264|157:270,1,135.000005149842,2|2,0:2|0:2,0:0:0:0:
256,290,60055,2,0,P|263:258|272:203,1,67.5000025749208,2|0,0:2|0:0,0:0:0:0:
109,362,60377,2,0,P|102:330|93:275,1,67.5000025749208,2|0,0:2|0:0,0:0:0:0:
76,192,60700,1,2,0:2:0:0:
117,77,60861,6,0,P|179:70|269:61,1,135.000005149842,0|0,1:0|1:0,0:0:0:0:
369,51,61345,2,0,P|394:112|379:176,1,135.000005149842,2|0,0:2|0:0,0:0:0:0:
268,299,61829,2,0,P|302:293|336:291,1,67.5000025749208,2|2,1:2|0:2,0:0:0:0:
174,223,62151,6,0,P|181:298|198:386,1,135.000005149842,2|2,1:2|1:2,0:0:0:0:
259,207,62635,1,2,0:2:0:0:
245,109,62797,2,0,P|216:108|167:127,1,67.5000025749208,0|2,1:0|0:2,0:0:0:0:
107,233,63119,2,0,L|181:221,1,67.5000025749208,0|2,1:0|0:2,0:0:0:0:
286,191,63442,6,0,B|269:134|308:116|281:57,1,135.000005149842,0|0,1:0|1:0,0:0:0:0:
187,33,63926,2,0,P|113:35|74:98,1,135.000005149842,2|0,0:2|0:0,0:0:0:0:
113,219,64409,2,0,P|115:180|103:142,1,67.5000025749208,2|0,1:2|0:0,0:0:0:0:
39,289,64732,6,0,P|71:310|110:318,1,67.5000025749208,2|0,1:2|0:0,0:0:0:0:
260,236,65055,1,2,1:2:0:0:
184,338,65216,2,0,L|337:327,1,135.000005149842,2|2,0:2|0:2,0:0:0:0:
135,153,65700,1,8,0:2:0:0:
125,178,65780,1,8,0:2:0:0:
124,205,65861,1,8,0:2:0:0:
130,231,65941,1,8,0:2:0:0:
141,255,66022,6,0,P|193:250|255:248,1,90,10|0,0:1|0:0,0:0:0:0:
341,252,66345,1,0,1:0:0:0:
317,44,66506,2,0,P|266:42|226:63,1,90,10|0,0:1|0:0,0:0:0:0:
158,126,66829,1,0,1:0:0:0:
374,240,66990,1,10,0:1:0:0:
378,217,67071,1,0,0:0:0:0:
382,195,67151,1,0,0:0:0:0:
405,76,67313,5,0,1:0:0:0:
269,298,67474,2,0,P|198:285|151:282,1,90,10|0,0:1|0:0,0:0:0:0:
65,297,67797,1,0,1:0:0:0:
35,130,67958,1,10,0:1:0:0:
60,105,68038,1,8,0:2:0:0:
93,92,68119,1,0,0:0:0:0:
128,96,68200,1,0,0:0:0:0:
157,116,68280,5,10,0:1:0:0:
197,135,68361,1,8,0:3:0:0:
242,130,68442,1,0,0:0:0:0:
276,102,68522,1,0,0:0:0:0:
305,67,68603,6,0,P|352:63|408:60,1,90,10|0,0:1|0:0,0:0:0:0:
494,136,68926,1,0,1:0:0:0:
350,295,69087,2,0,P|344:246|335:202,1,90,10|0,0:1|0:0,0:0:0:0:
308,73,69409,1,0,1:0:0:0:
473,228,69571,1,10,0:1:0:0:
450,227,69651,1,8,0:2:0:0:
427,226,69732,1,0,0:0:0:0:
232,222,69893,5,0,1:0:0:0:
410,335,70055,2,0,P|361:328|303:324,1,90,10|0,0:1|0:0,0:0:0:0:
172,327,70377,1,0,1:0:0:0:
304,107,70538,1,10,0:1:0:0:
316,130,70618,1,8,0:2:0:0:
323,156,70699,1,8,0:2:0:0:
324,183,70779,1,8,0:2:0:0:
321,211,70861,2,0,P|272:218|214:222,1,90,10|0,0:1|0:0,0:0:0:0:
57,164,71184,5,10,0:1:0:0:
168,131,71345,1,8,0:2:0:0:
80,308,71506,1,0,1:0:0:0:
194,311,71667,1,10,0:1:0:0:
229,311,71747,1,8,0:2:0:0:
263,322,71828,1,8,1:2:0:0:
297,334,71908,1,8,0:2:0:0:
333,335,71989,1,8,0:2:0:0:
144,226,72151,1,10,0:1:0:0:
151,191,72231,1,8,0:2:0:0:
178,168,72312,1,8,0:2:0:0:
213,167,72392,1,8,0:2:0:0:
242,188,72473,5,0,1:0:0:0:
220,28,72635,1,10,0:1:0:0:
220,28,72716,2,0,P|150:39|109:89,1,135,8|0,0:2|1:0,0:0:0:0:
340,107,73119,1,10,0:2:0:0:
343,69,73200,1,8,0:2:0:0:
310,56,73281,1,0,0:0:0:0:
284,82,73361,1,0,0:0:0:0:
303,113,73442,1,10,0:2:0:0:
319,168,73522,5,8,0:3:0:0:
295,217,73603,1,8,0:3:0:0:
241,224,73684,1,8,0:3:0:0:
198,191,73764,5,0,1:0:0:0:
75,97,76345,6,0,P|78:149|82:187,1,90,2|0,1:1|1:0,0:0:0:0:
235,261,76667,1,8,0:2:0:0:
173,142,76829,1,0,0:0:0:0:
78,305,76990,2,0,B|171:291|145:364|253:352,1,180,2|8,1:1|0:2,0:0:0:0:
319,174,77474,1,0,0:0:0:0:
437,307,77635,5,2,1:1:0:0:
322,361,77797,2,0,P|315:318|322:265,1,90,2|8,1:1|0:2,0:0:0:0:
489,217,78119,2,0,B|388:222|413:161|309:175,1,180,2|0,0:1|1:0,0:0:0:0:
206,51,78603,2,0,P|162:60|125:85,1,90,8|0,0:2|0:0,0:0:0:0:
320,272,78926,6,0,P|334:229|331:184,1,90,2|0,1:1|1:0,0:0:0:0:
75,165,79248,1,8,0:2:0:0:
267,101,79409,1,0,0:0:0:0:
69,178,79571,6,0,L|85:276,1,90,2|0,1:1|1:0,0:0:0:0:
228,355,79893,1,8,0:2:0:0:
244,220,80055,1,0,0:0:0:0:
437,313,80216,5,2,1:1:0:0:
305,342,80377,1,2,1:1:0:0:
341,163,80538,1,8,0:2:0:0:
439,324,80700,2,0,B|481:297|500:256|500:256|488:215|444:172,1,180,2|2,0:1|1:1,0:0:0:0:
351,248,81184,1,8,0:2:0:0:
402,61,81345,1,10,0:1:0:0:
402,61,81426,1,8,0:2:0:0:
402,61,81506,6,0,B|215:69,1,180,2|8,1:1|0:2,0:0:0:0:
99,104,81990,1,0,0:0:0:0:
173,269,82151,2,0,P|116:274|68:295,1,90,0|0,1:0|1:0,0:0:0:0:
269,334,82474,2,0,P|313:331|356:317,1,90,10|0,0:1|0:0,0:0:0:0:
228,100,82797,6,0,P|139:118|124:206,1,180,2|10,1:1|0:1,0:0:0:0:
270,325,83280,2,0,L|276:219,1,90,2|0,0:1|1:0,0:0:0:0:
469,71,83603,1,2,1:1:0:0:
345,191,83764,1,8,0:2:0:0:
267,32,83926,6,0,B|164:22|189:93|74:77,1,180,2|0,0:1|0:0,0:0:0:0:
169,172,84409,2,0,P|78:167|61:170,1,90,10|0,0:2|0:0,0:0:0:0:
267,312,84732,2,0,B|317:320|359:289|359:289|375:249|371:208,1,180,2|10,1:1|0:2,0:0:0:0:
348,122,85216,1,0,0:0:0:0:
124,65,85377,6,0,L|132:257,1,180,2|8,1:1|0:2,0:0:0:0:
175,339,85861,1,2,1:1:0:0:
371,347,86022,1,8,0:2:0:0:
373,328,86103,2,0,P|376:291|380:264,1,45,8|0,0:2|0:0,0:0:0:0:
387,131,86264,1,8,0:3:0:0:
347,126,86344,1,8,0:2:0:0:
307,103,86425,1,8,0:2:0:0:
269,111,86505,1,8,0:2:0:0:
229,120,86586,1,8,0:2:0:0:
186,144,86667,6,0,B|169:177|169:177|180:244,1,90,2|0,1:1|1:0,0:0:0:0:
296,256,86990,1,8,0:2:0:0:
286,35,87151,1,0,0:0:0:0:
173,69,87313,2,0,B|112:55|112:55|32:76|-6:117,1,180,2|8,1:1|0:2,0:0:0:0:
179,236,87797,1,0,0:0:0:0:
408,95,87958,5,2,1:1:0:0:
314,125,88119,2,0,P|307:172|307:223,1,90,2|8,1:1|0:2,0:0:0:0:
438,326,88442,2,0,P|445:279|445:228,1,90,2|0,0:1|1:0,0:0:0:0:
331,47,88764,1,0,1:0:0:0:
441,137,88926,2,0,P|391:141|325:144,1,90,8|0,0:2|0:0,0:0:0:0:
213,253,89248,6,0,P|263:249|329:246,1,90,2|0,1:1|1:0,0:0:0:0:
440,253,89571,1,8,0:2:0:0:
282,159,89732,1,0,0:0:0:0:
126,354,89893,2,0,B|95:310|82:274|82:274|87:234|113:176,1,180,2|8,1:1|0:2,0:0:0:0:
184,119,90377,1,0,0:0:0:0:
407,85,90538,5,2,1:1:0:0:
297,40,90700,2,0,B|287:64|284:84|284:84|291:107|311:133,1,90,2|8,1:1|0:2,0:0:0:0:
464,224,91022,2,0,B|354:203|388:286|271:261,1,180,2|2,0:1|1:1,0:0:0:0:
165,317,91506,2,0,P|214:328|255:345,1,90,8|0,0:2|0:0,0:0:0:0:
211,182,91829,6,0,P|111:197|22:225,1,180,2|8,1:1|0:2,0:0:0:0:
55,125,92313,1,0,0:0:0:0:
158,315,92474,1,0,1:0:0:0:
217,174,92635,1,0,1:0:0:0:
358,326,92797,2,0,P|319:345|261:351,1,90,10|0,0:1|0:0,0:0:0:0:
365,141,93119,6,0,B|394:242|326:221|368:342,1,180,2|8,1:1|0:2,0:0:0:0:
238,52,93603,2,0,P|282:59|329:71,1,90,2|0,0:1|1:0,0:0:0:0:
261,196,93926,1,2,1:1:0:0:
65,86,94087,1,8,0:2:0:0:
55,272,94248,1,10,0:1:0:0:
55,272,94329,1,8,0:2:0:0:
55,272,94409,6,0,L|163:261,1,90,0|0,1:0|0:0,0:0:0:0:
327,323,94732,2,0,L|435:334,1,90,10|0,0:2|0:0,0:0:0:0:
382,131,95055,2,0,L|292:140,1,90,2|0,1:2|0:0,0:0:0:0:
154,339,95377,2,0,B|140:319|132:299|132:299|138:277|155:248,1,90,10|0,0:1|0:0,0:0:0:0:
314,176,95700,5,2,1:1:0:0:
211,216,95861,1,8,0:2:0:0:
196,182,95942,1,8,0:2:0:0:
208,148,96022,1,0,1:0:0:0:
396,227,96184,5,10,0:1:0:0:
408,261,96264,1,8,0:2:0:0:
393,295,96345,1,0,1:0:0:0:
120,181,96506,5,10,0:1:0:0:
116,137,96586,1,8,0:2:0:0:
134,96,96667,1,8,0:2:0:0:
168,67,96748,1,8,0:2:0:0:
211,57,96828,1,8,0:2:0:0:
254,69,96909,1,8,0:2:0:0:
288,99,96989,1,2,1:1:0:0:
256,192,97071,12,2,99571,1:2:0:0:
70,126,107313,6,0,P|74:178|76:212,1,67.5000025749208,2|2,1:2|0:2,0:0:0:0:
53,298,107635,2,0,P|105:294|139:292,1,67.5000025749208,8|2,0:2|1:2,0:0:0:0:
231,282,107958,2,0,P|240:219|217:140,1,135.000005149842,2|10,1:2|0:2,0:0:0:0:
189,57,108442,1,2,1:2:0:0:
372,115,108603,5,0,0:0:0:0:
372,115,108764,2,0,L|293:110,1,67.5000025749208,2|8,1:2|0:2,0:0:0:0:
460,208,109087,1,2,0:2:0:0:
460,208,109167,1,8,0:2:0:0:
460,208,109248,2,0,L|381:213,1,67.5000025749208,0|2,0:0|1:2,0:0:0:0:
289,309,109571,2,0,L|356:313,1,67.5000025749208,8|2,0:2|0:2,0:0:0:0:
191,343,109893,6,0,B|178:311|178:311|192:268,1,67.5000025749208,2|2,1:2|0:2,0:0:0:0:
304,163,110216,2,0,B|317:195|317:195|303:238,1,67.5000025749208,8|2,0:2|1:2,0:0:0:0:
199,193,110538,2,0,B|179:120|214:128|191:34,1,135.000005149842,2|10,1:2|0:2,0:0:0:0:
45,34,111022,1,2,1:2:0:0:
45,34,111184,6,0,P|48:73|51:109,1,67.5000025749208,0|2,0:0|1:2,0:0:0:0:
64,269,111506,1,8,0:2:0:0:
175,207,111667,2,0,B|184:189|187:173|187:173|179:160|165:140,1,67.5000025749208,2|0,0:2|0:0,0:0:0:0:
60,274,111990,1,2,1:2:0:0:
88,130,112151,1,8,0:2:0:0:
176,292,112313,1,10,0:2:0:0:
176,292,112393,1,8,0:2:0:0:
176,292,112474,6,0,L|250:287,1,67.5000025749208,2|2,1:2|0:2,0:0:0:0:
407,188,112797,2,0,L|333:183,1,67.5000025749208,8|2,0:2|1:2,0:0:0:0:
454,340,113119,2,0,L|380:345,1,67.5000025749208,2|0,1:2|0:0,0:0:0:0:
277,272,113442,1,10,0:2:0:0:
401,212,113603,1,2,1:2:0:0:
335,86,113764,6,0,P|302:94|272:113,1,67.5000025749208,0|2,0:0|1:2,0:0:0:0:
404,207,114087,1,8,0:2:0:0:
404,207,114248,2,0,L|412:137,1,67.5000025749208,2|0,0:2|0:0,0:0:0:0:
277,283,114571,2,0,L|269:215,2,67.5000025749208,2|8|8,1:2|0:2|0:2,0:0:0:0:
220,345,114974,1,8,0:2:0:0:
220,345,115055,6,0,P|180:351|133:357,1,67.5000025749208,2|2,1:2|1:2,0:0:0:0:
273,211,115377,2,0,P|306:205|339:201,1,67.5000025749208,8|2,0:2|1:2,0:0:0:0:
171,114,115700,2,0,B|196:177|154:188|175:246,1,135.000005149842,2|10,1:2|0:2,0:0:0:0:
90,157,116184,1,2,1:2:0:0:
277,101,116345,6,0,L|286:14,1,67.5000025749208,0|0,0:0|1:0,0:0:0:0:
166,105,116667,1,10,0:2:0:0:
191,223,116829,1,8,0:2:0:0:
191,223,116909,1,0,0:0:0:0:
191,223,116990,1,8,0:2:0:0:
284,62,117151,1,8,0:2:0:0:
322,256,117313,1,8,0:2:0:0:
418,56,117474,1,8,0:2:0:0:
495,275,117635,6,0,L|382:262,1,90,2|2,1:2|1:2,0:0:0:0:
277,323,117958,2,0,B|170:356|198:274|83:326,2,180,2|10|2,0:1|0:1|1:2,0:0:0:0:
403,256,118764,1,2,1:1:0:0:
502,283,118926,5,2,0:1:0:0:
419,169,119087,2,0,B|307:170|359:240|233:226,1,180,8|2,0:2|0:1,0:0:0:0:
143,143,119571,2,0,B|167:164|181:185|181:185|176:250|140:300,1,180,8|2,0:2|0:1,0:0:0:0:
68,217,120055,1,0,1:0:0:0:
215,351,120216,5,2,1:1:0:0:
264,213,120377,1,0,1:0:0:0:
135,308,120538,2,0,L|45:299,1,90,2|0,0:1|1:0,0:0:0:0:
46,132,120861,2,0,P|146:126|177:205,1,180,8|0,0:2|1:0,0:0:0:0:
101,187,121345,1,0,1:0:0:0:
253,297,121506,6,0,P|257:245|269:177,1,90,2|8,0:1|0:2,0:0:0:0:
284,51,121829,1,0,1:0:0:0:
355,153,121990,1,2,0:1:0:0:
431,98,122151,2,0,P|503:143|491:237,1,180,8|0,0:2|0:0,0:0:0:0:
419,305,122635,1,0,1:0:0:0:
292,180,122797,5,2,1:1:0:0:
224,339,122958,1,0,1:0:0:0:
412,303,123119,2,0,P|367:299|322:295,1,90,2|0,0:1|1:0,0:0:0:0:
204,257,123442,2,0,B|170:194|247:163|197:80,1,180,8|0,0:2|1:0,0:0:0:0:
94,32,123926,6,0,B|49:28|9:57|9:57|12:100|58:130,1,180,0|8,1:0|0:2,0:0:0:0:
161,170,124409,1,0,1:0:0:0:
227,80,124571,1,2,0:1:0:0:
302,233,124732,1,8,0:2:0:0:
416,119,124893,2,0,B|450:153|457:180|457:180|450:207|425:240|425:240|442:267|434:301,1,180,0|0,1:0|1:0,0:0:0:0:
272,342,125377,5,0,1:0:0:0:
438,286,125538,2,0,B|340:295|367:228|266:243,1,180,0|0,1:0|1:0,0:0:0:0:
344,129,126022,2,0,P|292:142|225:149,1,90,8|2,0:2|0:1,0:0:0:0:
92,235,126345,1,0,1:0:0:0:
83,199,126426,1,0,1:0:0:0:
85,163,126506,1,8,0:2:0:0:
65,315,127958,6,0,P|111:310|182:305,1,90,2|0,1:2|0:0,0:0:0:0:
53,225,128280,1,0,1:0:0:0:
237,353,128442,2,0,L|248:168,1,180,2|0,0:2|0:0,0:0:0:0:
338,73,128926,2,0,P|349:124|352:186,1,90,2|8,1:2|0:2,0:0:0:0:
442,253,129248,6,0,P|452:163|490:83,1,180,2|2,1:2|1:2,0:0:0:0:
351,40,129732,2,0,B|326:32|304:32|304:32|285:43|268:64,1,90,2|0,0:2|1:0,0:0:0:0:
384,203,130055,2,0,B|402:185|414:166|414:166|414:144|404:119,1,90,2|0,0:2|1:0,0:0:0:0:
259,59,130377,1,8,0:2:0:0:
228,51,130458,1,8,0:2:0:0:
200,65,130538,6,0,P|178:158|210:250,1,180,2|0,1:2|1:0,0:0:0:0:
305,297,131022,2,0,L|399:288,1,90,2|0,0:2|1:0,0:0:0:0:
289,199,131345,1,0,0:0:0:0:
216,345,131506,2,0,L|126:336,1,90,2|8,1:2|0:2,0:0:0:0:
45,185,131829,6,0,B|81:164|128:159|128:159|166:185|195:222,1,180,2|2,1:2|1:2,0:0:0:0:
292,307,132313,2,0,L|305:218,1,90,10|0,0:2|1:0,0:0:0:0:
320,108,132635,1,2,0:2:0:0:
477,203,132797,1,8,1:2:0:0:
504,224,132877,1,8,0:2:0:0:
510,259,132958,1,10,0:2:0:0:
491,288,133038,1,8,0:2:0:0:
457,296,133119,6,0,P|415:293|364:288,1,90,0|0,1:0|0:0,0:0:0:0:
255,275,133442,1,0,1:0:0:0:
81,284,133603,2,0,B|59:252|50:221|50:221|57:194|70:169|70:169|62:138|59:89,1,180,2|8,0:2|0:3,0:0:0:0:
142,47,134087,1,2,1:2:0:0:
320,108,134248,1,8,0:3:0:0:
320,108,134329,1,8,0:3:0:0:
320,108,134409,6,0,P|267:102|220:91,1,90,2|0,1:2|0:0,0:0:0:0:
372,182,134732,2,0,P|416:172|460:168,1,90,0|2,1:0|0:2,0:0:0:0:
301,256,135055,1,0,1:0:0:0:
415,354,135216,2,0,B|430:307|430:307|410:260,1,90,10|0,0:2|1:0,0:0:0:0:
368,176,135538,1,2,0:2:0:0:
296,262,135700,6,0,L|171:256,1,90,0|0,1:0|0:0,0:0:0:0:
95,252,136022,1,0,1:0:0:0:
35,129,136184,2,0,B|66:105|98:99|98:99|129:120|144:154|144:154|172:153|199:176,1,180,2|0,0:2|0:0,0:0:0:0:
290,111,136667,1,2,1:2:0:0:
140,36,136829,1,8,0:2:0:0:
140,36,136909,1,8,0:2:0:0:
140,36,136990,6,0,P|145:83|150:139,1,90,2|0,1:2|0:0,0:0:0:0:
161,297,137313,1,10,1:2:0:0:
92,239,137474,1,2,0:2:0:0:
175,205,137635,1,8,1:2:0:0:
47,318,137797,1,10,0:2:0:0:
265,229,137958,2,0,L|263:179,1,40.4999987640381,8|0,1:2|0:0,0:0:0:0:
314,124,138280,6,0,P|319:80|319:22,1,90,10|0,0:1|0:0,0:0:0:0:
183,108,138603,1,0,1:0:0:0:
332,287,138764,2,0,P|389:279|444:276,1,90,10|0,0:1|0:0,0:0:0:0:
477,201,139087,1,0,1:0:0:0:
276,112,139248,1,10,0:1:0:0:
265,146,139329,1,8,0:2:0:0:
272,180,139409,1,0,0:0:0:0:
391,152,139571,5,0,1:0:0:0:
289,354,139732,2,0,P|245:351|176:344,1,90,10|0,0:1|0:0,0:0:0:0:
55,333,140055,1,0,1:0:0:0:
199,207,140216,1,10,0:1:0:0:
217,238,140297,1,8,0:2:0:0:
214,273,140377,1,0,0:0:0:0:
47,56,140538,1,10,0:1:0:0:
22,82,140619,1,8,0:3:0:0:
17,117,140700,1,0,0:0:0:0:
35,147,140780,1,8,0:3:0:0:
69,159,140861,6,0,P|121:153|182:144,1,90,10|0,0:1|0:0,0:0:0:0:
289,134,141184,1,0,1:0:0:0:
147,353,141345,2,0,P|150:308|157:261,1,90,10|0,0:1|0:0,0:0:0:0:
173,151,141667,1,0,1:0:0:0:
332,287,141829,1,10,0:1:0:0:
300,304,141909,1,8,0:2:0:0:
264,298,141990,1,0,0:0:0:0:
287,161,142151,5,0,1:0:0:0:
426,317,142313,2,0,P|429:272|435:220,1,90,10|0,0:1|0:0,0:0:0:0:
442,69,142635,1,0,1:0:0:0:
197,30,142797,1,10,0:1:0:0:
198,51,142877,1,8,0:2:0:0:
200,73,142958,1,8,0:2:0:0:
202,95,143038,1,8,0:2:0:0:
206,117,143119,2,0,P|211:160|218:208,1,90,10|0,0:1|0:0,0:0:0:0:
371,279,143442,5,10,0:1:0:0:
205,336,143603,1,8,0:2:0:0:
195,310,143684,1,8,0:2:0:0:
198,283,143764,1,8,1:2:0:0:
427,175,143926,1,10,0:1:0:0:
391,176,144006,1,8,0:2:0:0:
357,189,144087,1,8,0:2:0:0:
325,205,144167,1,8,0:2:0:0:
290,206,144248,1,8,0:2:0:0:
132,106,144409,1,10,0:1:0:0:
156,80,144489,1,8,0:2:0:0:
191,80,144570,1,8,0:2:0:0:
215,105,144650,1,8,0:2:0:0:
214,140,144731,5,0,1:0:0:0:
149,307,144893,1,10,0:1:0:0:
116,310,144974,2,0,B|82:255|89:209|89:209|123:233,1,135,8|0,0:2|1:0,0:0:0:0:
265,248,145377,1,10,0:1:0:0:
298,235,145457,1,8,0:2:0:0:
333,243,145538,1,0,0:0:0:0:
358,268,145618,1,0,0:0:0:0:
403,289,145700,5,10,0:1:0:0:
449,274,145780,1,8,0:2:0:0:
480,236,145861,1,0,0:0:0:0:
485,187,145941,1,8,0:3:0:0:
462,144,146022,5,0,0:0:0:0:
124,282,148603,6,0,P|121:237|116:190,1,90,2|0,1:1|1:0,0:0:0:0:
240,112,148925,1,8,0:2:0:0:
199,236,149087,1,0,0:0:0:0:
30,86,149248,2,0,P|30:180|39:270,1,180,2|8,1:1|0:2,0:0:0:0:
141,170,149732,1,0,0:0:0:0:
205,328,149893,5,2,1:1:0:0:
386,279,150055,2,0,P|330:275|291:270,1,90,2|8,1:1|0:2,0:0:0:0:
425,94,150377,2,0,B|469:109|496:151|496:151|478:193|434:221,1,180,2|0,0:1|1:0,0:0:0:0:
323,162,150861,2,0,P|314:116|307:58,1,90,8|0,0:2|0:0,0:0:0:0:
205,255,151184,6,0,P|210:300|212:345,1,90,2|0,1:1|1:0,0:0:0:0:
119,307,151506,1,8,0:2:0:0:
326,267,151667,1,0,0:0:0:0:
418,306,151829,2,0,B|440:278|440:278|445:201,1,90,2|0,1:1|1:0,0:0:0:0:
318,156,152151,2,0,L|204:165,1,90,8|0,0:2|0:0,0:0:0:0:
76,228,152474,5,2,1:1:0:0:
143,148,152635,1,2,1:1:0:0:
232,282,152796,1,8,0:2:0:0:
344,37,152958,2,0,P|425:91|413:176,1,180,2|2,0:1|1:1,0:0:0:0:
330,242,153442,1,8,0:2:0:0:
256,64,153603,1,10,0:1:0:0:
256,64,153684,1,8,0:2:0:0:
256,64,153764,6,0,B|143:111|166:55|69:80,1,180,2|8,1:1|0:2,0:0:0:0:
43,164,154248,1,0,0:0:0:0:
199,274,154409,2,0,P|204:227|208:183,1,90,0|0,1:0|1:0,0:0:0:0:
347,46,154732,2,0,P|352:92|356:136,1,90,10|0,0:1|0:0,0:0:0:0:
501,290,155055,6,0,P|408:281|346:342,1,180,2|10,1:1|0:1,0:0:0:0:
278,178,155538,2,0,B|266:217|266:217|294:280,1,90,2|0,0:1|1:0,0:0:0:0:
373,274,155861,1,2,1:1:0:0:
402,54,156022,1,8,0:2:0:0:
307,87,156184,6,0,B|204:77|229:148|114:132,1,180,2|0,0:1|0:0,0:0:0:0:
28,54,156667,2,0,P|33:99|37:149,1,90,10|0,0:2|0:0,0:0:0:0:
132,266,156990,2,0,B|138:246|152:219|152:219|92:262|18:242,1,180,2|10,1:1|0:2,0:0:0:0:
145,141,157474,1,0,0:0:0:0:
180,325,157635,6,0,B|204:340|233:350|233:350|361:314,1,180,2|8,1:1|0:2,0:0:0:0:
402,128,158119,1,2,1:1:0:0:
486,284,158280,1,8,0:2:0:0:
474,299,158361,2,0,L|409:294,1,45,8|0,0:2|0:0,0:0:0:0:
296,260,158522,1,8,0:3:0:0:
260,260,158602,1,8,0:2:0:0:
228,277,158683,1,8,0:2:0:0:
199,297,158763,1,8,0:2:0:0:
163,302,158844,1,8,0:2:0:0:
127,294,158925,6,0,P|118:253|108:193,1,90,2|0,1:1|1:0,0:0:0:0:
254,106,159248,1,10,0:2:0:0:
233,281,159409,1,0,0:0:0:0:
156,109,159571,2,0,B|122:92|71:89|71:89|25:112|-6:166,1,180,2|10,1:1|0:2,0:0:0:0:
170,189,160055,1,0,0:0:0:0:
27,325,160216,6,0,P|11:282|12:235,1,90,2|2,1:1|1:1,0:0:0:0:
201,264,160538,1,8,0:2:0:0:
70,91,160700,6,0,B|50:201|115:164|96:273,1,180,2|0,0:1|1:0,0:0:0:0:
260,352,161184,2,0,P|266:311|283:265,1,90,8|0,0:2|0:0,0:0:0:0:
248,127,161506,6,0,P|199:123|143:116,1,90,2|0,1:1|1:0,0:0:0:0:
339,75,161829,1,8,0:2:0:0:
287,258,161990,1,0,0:0:0:0:
507,180,162151,2,0,B|453:147|402:132|402:132|365:145|325:166,1,180,2|10,1:1|0:2,0:0:0:0:
254,220,162635,1,0,0:0:0:0:
369,57,162796,5,2,1:1:0:0:
230,28,162958,2,0,B|219:73|219:73|246:122,1,90,2|8,1:1|0:2,0:0:0:0:
382,232,163280,2,0,P|336:227|275:221,1,90,2|0,0:1|1:0,0:0:0:0:
150,327,163603,2,0,P|194:331|239:336,1,90,2|8,1:1|0:2,0:0:0:0:
346,314,163926,1,0,0:0:0:0:
178,203,164087,6,0,B|139:191|90:193|90:193|57:226|36:271,1,180,2|8,1:1|0:2,0:0:0:0:
132,282,164571,1,0,0:0:0:0:
215,81,164732,1,0,1:0:0:0:
275,213,164893,1,0,1:0:0:0:
129,116,165055,2,0,P|82:113|29:117,1,90,10|0,0:1|0:0,0:0:0:0:
280,221,165377,6,0,P|327:224|380:220,1,90,2|0,1:1|1:0,0:0:0:0:
211,154,165700,1,8,0:2:0:0:
117,217,165861,2,0,L|128:323,1,90,2|0,0:1|1:0,0:0:0:0:
219,350,166184,1,2,1:1:0:0:
301,309,166345,1,8,0:2:0:0:
43,312,166506,1,10,0:1:0:0:
43,312,166587,1,8,0:2:0:0:
43,312,166667,6,0,L|156:298,1,90,0|0,1:0|0:0,0:0:0:0:
364,218,166990,6,0,L|274:206,1,90,10|0,0:2|0:0,0:0:0:0:
72,103,167313,6,0,L|161:91,1,90,2|0,1:2|0:0,0:0:0:0:
335,41,167635,2,0,B|349:61|357:81|357:81|351:103|334:132,1,90,10|0,0:1|0:0,0:0:0:0:
161,219,167958,5,2,1:1:0:0:
406,200,168119,1,8,0:2:0:0:
369,197,168200,1,8,0:2:0:0:
333,194,168280,1,0,1:0:0:0:
172,302,168442,5,2,0:1:0:0:
208,299,168522,1,0,0:0:0:0:
245,296,168603,1,8,1:2:0:0:
360,103,168764,5,10,0:1:0:0:
315,104,168844,1,8,0:2:0:0:
273,120,168925,1,8,0:3:0:0:
241,152,169005,1,8,0:3:0:0:
209,183,169086,1,8,0:3:0:0:
167,199,169167,1,8,0:3:0:0:
123,203,169247,1,0,1:0:0:0:
53,108,174409,6,0,L|126:104,1,67.5000025749208,2|2,1:2|0:2,0:0:0:0:
227,65,174732,2,0,B|234:114|234:114|214:156|214:156|222:198,1,135.000005149842,2|0,0:2|0:0,0:0:0:0:
396,238,175216,2,0,P|326:224|276:270,1,135.000005149842,2|0,0:2|1:0,0:0:0:0:
179,316,175700,2,0,P|143:319|99:325,2,67.5000025749208,2|2|2,0:2|0:2|0:2,0:0:0:0:
276,273,176184,1,0,1:0:0:0:
210,184,176345,2,0,P|174:176|138:172,1,67.5000025749208,2|2,0:2|0:2,0:0:0:0:
52,87,176667,2,0,P|88:79|124:75,1,67.5000025749208,2|0,0:2|0:0,0:0:0:0:
258,33,176990,6,0,L|250:107,1,67.5000025749208,2|2,1:2|0:2,0:0:0:0:
422,170,177313,2,0,L|414:102,1,67.5000025749208,2|0,1:2|0:0,0:0:0:0:
238,56,177635,2,0,L|230:130,1,67.5000025749208,2|2,1:2|0:2,0:0:0:0:
402,193,177958,2,0,L|394:125,1,67.5000025749208,2|0,1:2|0:0,0:0:0:0:
219,77,178280,6,0,L|211:151,1,67.5000025749208,2|0,1:2|0:0,0:0:0:0:
383,214,178603,2,0,L|375:146,1,67.5000025749208,2|0,1:2|0:0,0:0:0:0:
139,285,178926,2,0,P|142:318|149:351,1,67.5000025749208,2|0,1:2|0:0,0:0:0:0:
167,166,179248,1,2,0:2:0:0:
123,158,179329,1,0,0:0:0:0:
82,173,179409,1,0,0:0:0:0:
230,365,179571,5,2,0:1:0:0:
363,237,179732,2,0,B|374:211|391:190|391:190|365:192|328:183,1,117,2|0,0:1|0:0,0:0:0:0:
270,148,180861,6,0,P|313:143|375:135,1,90,2|0,1:1|1:0,0:0:0:0:
171,39,181184,2,0,B|177:81|177:81|162:108|162:108|172:163,1,107.999996704102,0|0,1:0|1:0,0:0:0:0:
280,344,181667,2,0,B|299:327|307:307|307:307|288:289|250:284,1,101.250003862381,8|0,0:2|0:0,0:0:0:0:
200,330,181990,6,0,B|113:344|125:242|21:256,1,180,2|2,1:1|1:1,0:0:0:0:
140,86,182474,1,8,0:2:0:0:
189,233,182635,1,2,1:1:0:0:
357,121,182797,1,8,0:2:0:0:
370,78,182878,1,8,0:3:0:0:
333,52,182958,1,8,0:3:0:0:
297,79,183039,1,8,0:3:0:0:
311,122,183119,2,0,B|321:159|321:159|308:221,1,90,10|0,0:1|0:0,0:0:0:0:
143,341,183442,5,2,1:1:0:0:
386,293,183603,1,0,1:0:0:0:
226,368,183764,2,0,L|222:309,1,45,2|0,1:1|0:0,0:0:0:0:
322,229,183926,1,0,0:0:0:0:
322,229,184006,1,0,0:0:0:0:
322,229,184087,2,0,L|261:222,1,45,2|0,1:1|0:0,0:0:0:0:
135,152,184248,1,8,0:2:0:0:
135,152,184329,1,8,0:2:0:0:
135,152,184409,2,0,B|129:126|129:126|135:88,1,45,10|0,0:1|0:0,0:0:0:0:
275,53,184571,2,0,B|277:71|277:71|271:97,1,45,0|0,1:0|0:0,0:0:0:0:
192,250,184732,6,0,L|87:242,1,90,2|0,0:1|1:0,0:0:0:0:
267,141,185055,1,8,0:2:0:0:
399,298,185216,1,10,0:1:0:0:
401,287,185297,1,8,0:2:0:0:
403,278,185377,2,0,L|398:223,1,45,8|8,0:2|0:3,0:0:0:0:
255,197,185538,2,0,L|260:142,1,45,8|8,0:3|0:3,0:0:0:0:
402,56,185700,2,0,B|379:66|343:76|343:76|314:68|287:56,1,101.250003862381,8|0,0:2|0:0,0:0:0:0:
156,45,186022,5,10,0:1:0:0:
126,36,186102,1,8,0:2:0:0:
97,46,186183,1,8,0:2:0:0:
79,71,186263,1,8,0:2:0:0:
79,102,186345,2,0,B|97:140|95:160|95:160|75:188|68:218|68:218|68:245|86:281,1,180,8|0,1:2|1:0,0:0:0:0:
206,367,186829,2,0,L|214:266,1,90,8|0,0:2|0:0,0:0:0:0:
412,257,187151,6,0,P|368:251|323:244,1,90,2|0,1:1|0:0,0:0:0:0:
339,128,187474,1,2,1:1:0:0:
172,276,187635,1,8,0:2:0:0:
184,154,187797,1,2,1:1:0:0:
24,52,187958,1,8,0:2:0:0:
27,83,188038,1,8,0:3:0:0:
30,114,188119,1,8,0:3:0:0:
34,145,188199,1,8,0:3:0:0:
39,176,188280,2,0,L|47:240,1,45,8|0,0:2|0:0,0:0:0:0:
193,295,188442,2,0,L|198:250,1,45,8|8,0:2|0:2,0:0:0:0:
160,154,188603,5,2,1:1:0:0:
52,321,188764,1,2,1:2:0:0:
237,361,188926,2,0,B|327:378|301:294|409:317,1,180,2|0,1:1|1:0,0:0:0:0:
445,165,189409,1,8,0:2:0:0:
412,138,189490,1,8,0:2:0:0:
372,138,189571,1,8,0:2:0:0:
229,275,189732,6,0,B|319:258|293:342|401:319,1,180,2|2,1:1|1:1,0:0:0:0:
452,148,190216,1,8,0:2:0:0:
419,121,190297,1,8,0:3:0:0:
379,121,190378,1,10,0:1:0:0:
210,149,190538,1,8,0:2:0:0:
378,236,190700,1,2,1:1:0:0:
158,321,190861,2,0,P|129:249|142:186,1,135,8|0,0:2|0:0,0:0:0:0:
188,142,191184,5,10,0:1:0:0:
230,155,191264,1,8,0:2:0:0:
272,139,191345,1,8,0:2:0:0:
308,98,191426,1,0,0:0:0:0:
360,106,191506,1,10,0:1:0:0:
445,254,191667,1,8,0:2:0:0:
433,296,191747,1,8,0:2:0:0:
399,324,191828,1,10,0:1:0:0:
355,325,191908,1,8,0:2:0:0:
318,300,191989,1,8,0:2:0:0:
189,149,192151,1,10,0:1:0:0:
172,200,192232,1,8,0:2:0:0:
197,247,192313,1,10,0:1:0:0:
374,161,192474,5,8,0:2:0:0:
391,110,192555,1,8,0:2:0:0:
366,63,192635,2,0,B|313:60|313:60|276:86|276:86|222:82,1,135,10|0,0:1|0:0,0:0:0:0:
173,49,192958,1,10,0:1:0:0:
137,42,193038,1,8,0:2:0:0:
104,53,193119,1,8,0:2:0:0:
79,78,193199,1,8,0:2:0:0:
69,113,193280,1,10,0:1:0:0:
178,271,193442,1,8,0:2:0:0:
188,241,193523,1,8,0:2:0:0:
177,211,193603,1,8,0:2:0:0:
429,321,193764,6,0,L|319:316,1,90,2|8,0:1|0:2,0:0:0:0:
313,229,194006,1,8,0:2:0:0:
308,218,194087,2,0,B|300:193|300:193|309:165,1,45,10|0,0:1|0:0,0:0:0:0:
328,85,194248,1,8,0:2:0:0:
316,77,194329,1,8,0:2:0:0:
304,71,194409,1,10,0:1:0:0:
254,78,194490,1,8,0:2:0:0:
205,88,194571,1,0,0:0:0:0:
61,201,194732,1,10,0:1:0:0:
110,191,194813,1,8,0:2:0:0:
160,184,194894,1,10,0:1:0:0:
300,311,195055,5,8,0:2:0:0:
250,318,195135,1,8,0:2:0:0:
200,325,195216,2,0,B|189:302|189:302|192:271,1,45,10|0,0:1|0:0,0:0:0:0:
192,184,195377,1,0,0:0:0:0:
386,337,195538,1,10,0:1:0:0:
394,302,195618,1,8,0:2:0:0:
384,268,195699,1,0,0:0:0:0:
372,234,195779,1,8,0:2:0:0:
376,198,195861,2,0,P|376:169|383:143,1,45,10|0,0:1|0:0,0:0:0:0:
466,68,196022,1,8,0:2:0:0:
425,66,196103,1,8,0:2:0:0:
384,61,196184,2,0,L|318:54,1,45,10|0,0:1|0:0,0:0:0:0:
178,63,196345,5,8,0:2:0:0:
151,91,196425,1,8,0:2:0:0:
141,130,196506,1,8,0:2:0:0:
152,167,196586,1,8,0:2:0:0:
180,194,196667,2,0,L|238:188,1,45
358,232,196829,5,10,0:2:0:0:
309,236,196909,1,8,0:3:0:0:
275,271,196990,1,8,0:3:0:0:
243,309,197070,1,8,0:2:0:0:
198,327,197151,1,0,0:0:0:0:
357,329,197313,1,10,0:2:0:0:
462,184,197474,1,8,0:2:0:0:
464,170,197555,1,8,0:2:0:0:
443,125,197635,5,8,0:2:0:0:
398,103,197716,1,8,0:2:0:0:
348,110,197797,2,0,L|350:159,1,45,2|0,0:2|0:0,0:0:0:0:
359,277,197958,1,8,0:3:0:0:
330,298,198038,1,8,0:3:0:0:
295,300,198119,1,8,0:3:0:0:
264,281,198199,1,8,0:3:0:0:
234,246,198280,5,10,0:2:0:0:
200,217,198360,1,8,0:2:0:0:
157,208,198441,1,8,0:2:0:0:
115,222,198521,1,8,0:2:0:0:
71,254,198603,5,8,0:2:0:0:
58,201,198683,1,8,0:2:0:0:
66,147,198764,1,10,0:2:0:0:
74,95,198844,1,0,0:0:0:0:
64,41,198925,5,2,1:1:0:0:
210,212,199087,1,10,0:1:0:0:
291,106,199409,1,0,1:0:0:0:
321,346,199571,5,10,0:1:0:0:
476,211,199732,1,8,0:3:0:0:
458,208,199813,1,8,0:3:0:0:
440,205,199893,1,0,0:0:0:0:
196,170,200055,5,10,0:1:0:0:
298,28,200377,1,10,0:1:0:0:
392,261,200538,1,0,1:0:0:0:
374,258,200619,1,0,1:0:0:0:
356,255,200699,1,10,0:1:0:0:
90,222,201022,1,10,0:1:0:0:
292,37,201184,1,10,0:1:0:0:
74,109,204571,5,0,0:0:0:0:
74,109,204651,1,0,0:0:0:0:
74,109,204732,2,0,B|148:106|123:155|222:136,1,135.000005149842,8|0,0:2|0:0,0:0:0:0:
305,89,205216,1,0,0:0:0:0:
422,175,205377,6,0,B|404:120|404:120|425:29,1,135.000005149842
286,101,206022,1,0,0:0:0:0:
272,99,206103,1,0,0:0:0:0:
258,98,206184,1,8,0:2:0:0:
244,96,206264,1,8,0:2:0:0:
206,80,206345,1,8,0:3:0:0:
165,74,206426,1,8,0:3:0:0:
133,98,206506,1,8,0:3:0:0:
124,137,206587,1,8,0:3:0:0:
145,178,206667,5,8,0:3:0:0:
175,214,206748,1,8,0:2:0:0:
170,261,206829,1,0,0:0:0:0:
142,298,206909,1,0,0:0:0:0:
152,344,206990,1,8,0:2:0:0:
441,290,207313,6,0,L|345:285,1,90,2|0,1:1|0:0,0:0:0:0:
405,183,207635,1,0,1:0:0:0:
231,349,207797,1,10,0:1:0:0:
210,340,207877,1,8,0:2:0:0:
189,329,207958,2,0,B|176:309|171:289|171:289|173:269|182:236,1,90,8|0,0:2|0:0,0:0:0:0:
156,129,208280,1,10,0:2:0:0:
133,131,208361,1,8,0:2:0:0:
111,134,208442,1,8,0:2:0:0:
223,50,208603,5,10,0:1:0:0:
246,52,208684,1,8,0:2:0:0:
268,55,208765,1,8,0:2:0:0:
278,169,208926,1,0,0:0:0:0:
437,59,209087,1,10,0:1:0:0:
437,81,209167,1,8,0:2:0:0:
445,120,209248,1,8,0:2:0:0:
453,159,209329,1,8,0:2:0:0:
459,198,209409,1,10,0:1:0:0:
373,339,209571,1,8,0:2:0:0:
365,300,209652,1,8,0:2:0:0:
359,261,209732,1,10,0:1:0:0:
258,136,209893,5,10,0:2:0:0:
200,332,210055,1,8,0:2:0:0:
192,293,210136,1,8,0:2:0:0:
186,254,210216,1,0,0:0:0:0:
19,109,210377,1,8,0:2:0:0:
23,126,210458,1,8,0:3:0:0:
50,161,210538,1,2,0:1:0:0:
92,176,210619,1,8,0:2:0:0:
134,161,210700,1,0,0:0:0:0:
160,125,210780,1,0,0:0:0:0:
199,102,210861,2,0,P|226:106|262:111,1,45,8|0,0:2|0:0,0:0:0:0:
379,212,211022,2,0,P|352:216|316:221,1,45,8|0,0:2|0:0,0:0:0:0:
343,43,211184,5,10,0:1:0:0:
346,65,211264,1,8,0:2:0:0:
350,87,211345,2,0,P|353:117|357:140,1,45
391,300,211506,1,8,0:2:0:0:
369,322,211586,1,8,0:2:0:0:
338,327,211667,1,0,0:0:0:0:
311,313,211747,1,0,0:0:0:0:
258,284,211829,5,10,0:1:0:0:
199,277,211909,1,8,0:2:0:0:
146,304,211990,1,0,0:0:0:0:
92,329,212070,1,0,0:0:0:0:
32,325,212151,1,8,0:2:0:0:
188,194,212313,1,0,0:0:0:0:
37,231,212473,6,0,P|22:189|34:131,1,90,2|0,1:1|1:0,0:0:0:0:
219,85,212797,1,8,0:2:0:0:
122,246,212958,1,0,0:0:0:0:
2,51,213119,2,0,B|53:40|53:40|117:75|117:75|134:137,1,180,2|8,1:1|0:2,0:0:0:0:
149,265,213604,1,0,0:0:0:0:
298,142,213764,5,2,1:1:0:0:
238,244,213926,1,2,1:1:0:0:
216,91,214087,1,8,0:2:0:0:
326,269,214249,2,0,B|420:255|375:340|507:321,1,180,2|0,0:1|1:0,0:0:0:0:
278,354,214733,2,0,L|165:345,1,90,8|0,0:2|0:0,0:0:0:0:
365,174,215055,6,0,B|392:170|412:170|412:170|428:181|451:214,1,90,2|0,1:1|1:0,0:0:0:0:
303,274,215378,1,8,0:2:0:0:
279,142,215539,1,0,0:0:0:0:
432,370,215700,2,0,L|448:182,1,180,2|8,1:1|0:2,0:0:0:0:
395,111,216184,1,0,0:0:0:0:
292,277,216345,5,2,1:1:0:0:
439,189,216506,1,2,1:1:0:0:
266,88,216667,1,8,0:2:0:0:
381,269,216829,2,0,P|335:264|274:258,1,90,2|0,0:1|1:0,0:0:0:0:
104,327,217151,2,0,P|148:331|193:336,1,90,2|8,1:1|0:2,0:0:0:0:
308,177,217475,1,0,0:0:0:0:
276,353,217635,6,0,B|292:274|216:278|233:175,1,180,2|8,1:1|0:2,0:0:0:0:
155,239,218120,1,0,0:0:0:0:
270,22,218281,1,0,1:0:0:0:
321,187,218442,1,0,1:0:0:0:
169,70,218604,2,0,L|69:61,1,90,10|0,0:1|0:0,0:0:0:0:
327,193,218926,6,0,L|416:184,1,90,2|0,1:1|1:0,0:0:0:0:
127,85,219249,1,8,0:2:0:0:
59,186,219409,2,0,B|48:235|48:235|75:296,1,90,2|0,0:1|1:0,0:0:0:0:
322,358,219732,2,0,B|333:309|333:309|306:248,1,90,2|8,1:1|0:2,0:0:0:0:
155,177,220055,1,2,0:1:0:0:
77,283,220216,6,0,L|190:269,1,90,2|0,1:2|0:0,0:0:0:0:
417,149,220538,2,0,L|327:137,1,90,10|0,0:2|0:0,0:0:0:0:
52,50,220862,2,0,L|141:38,1,90,2|0,1:2|0:0,0:0:0:0:
334,144,221184,2,0,B|352:192|352:192|323:248,1,90,10|0,0:1|0:0,0:0:0:0:
154,189,221507,5,2,1:1:0:0:
232,288,221667,1,0,0:0:0:0:
82,77,221829,1,0,0:0:0:0:
13,307,221990,1,2,1:1:0:0:
282,144,222151,5,8,0:2:0:0:
307,76,222258,1,8,0:2:0:0:
255,24,222366,1,8,0:2:0:0:
193,61,222474,1,8,0:3:0:0:
198,132,222581,1,8,0:3:0:0:
139,172,222688,1,8,0:3:0:0:
60,153,222797,6,0,B|112:155|112:155|144:175|144:175|210:177,1,135.000005149842,2|0,1:2|0:0,0:0:0:0:
306,162,223280,1,0,1:0:0:0:
424,56,223442,2,0,B|459:68|480:91|480:91|459:119|424:130,1,135.000005149842,8|0,0:2|1:0,0:0:0:0:
296,156,223926,6,0,L|304:290,1,135.000005149842,2|8,1:2|0:2,0:0:0:0:
408,355,224409,2,0,L|411:276,1,67.5000025749208,0|0,1:0|0:0,0:0:0:0:
502,201,224731,2,0,L|499:122,1,67.5000025749208,8|0,0:2|1:0,0:0:0:0:
426,49,225055,2,0,B|395:50|395:50|366:71,1,67.5000025749208,0|0,0:0|1:0,0:0:0:0:
278,181,225377,6,0,P|276:117|252:44,1,135.000005149842,2|0,1:2|0:0,0:0:0:0:
172,47,225861,1,0,1:0:0:0:
189,203,226022,2,0,P|131:196|48:194,1,135.000005149842,8|0,0:2|1:0,0:0:0:0:
24,347,226506,6,0,L|174:344,1,135.000005149842,2|8,1:2|0:2,0:0:0:0:
290,319,226990,2,0,P|258:302|218:304,1,67.5000025749208,0|0,1:0|0:0,0:0:0:0:
370,352,227313,2,0,P|377:289|392:199,1,135.000005149842,10|0,0:2|0:0,0:0:0:0:
404,117,227797,1,0,1:0:0:0:
291,26,227958,6,0,B|261:43|242:72|242:72|261:96|299:108,1,135.000005149842,2|0,1:2|0:0,0:0:0:0:
408,122,228442,1,0,1:0:0:0:
340,209,228603,2,0,B|261:197|287:258|193:241,1,135.000005149842,8|2,0:2|1:2,0:0:0:0:
115,298,229087,6,0,P|105:237|99:150,1,135.000005149842,2|8,1:2|0:2,0:0:0:0:
204,72,229571,2,0,P|200:105|198:139,1,67.5000025749208,0|2,1:0|0:2,0:0:0:0:
295,248,229892,2,0,P|292:214|289:180,1,67.5000025749208,8|0,0:2|1:0,0:0:0:0:
413,116,230215,2,0,P|409:149|407:183,1,67.5000025749208,2|0,0:2|1:0,0:0:0:0:
496,305,230538,6,0,L|329:312,1,135.000005149842,2|0,1:2|0:0,0:0:0:0:
199,325,231022,1,0,1:0:0:0:
278,265,231184,2,0,P|272:197|262:121,1,135.000005149842,8|2,0:2|1:2,0:0:0:0:
177,84,231667,6,0,B|95:78|131:135|49:127,1,135.000005149842,2|8,1:2|0:2,0:0:0:0:
55,32,232151,1,0,1:0:0:0:
130,202,232313,1,8,0:2:0:0:
152,209,232393,1,8,0:2:0:0:
175,208,232474,1,0,1:0:0:0:
376,224,232634,5,8,0:2:0:0:
338,227,232714,1,8,0:2:0:0:
305,241,232795,1,8,0:2:0:0:
278,268,232875,1,8,0:2:0:0:
255,297,232956,1,8,0:2:0:0:
223,314,233037,1,8,0:2:0:0:
187,319,233117,5,0,1:0:0:0:
133,137,233280,1,0,1:0:0:0:
8,243,233442,2,0,L|118:236,1,90,8|0,0:2|0:0,0:0:0:0:
215,230,233764,2,0,P|244:158|200:65,1,180,2|8,1:1|0:2,0:0:0:0:
129,150,234248,1,0,0:0:0:0:
196,326,234409,5,2,1:1:0:0:
329,227,234571,1,0,1:0:0:0:
191,333,234732,2,0,L|96:323,1,90,8|0,0:2|0:0,0:0:0:0:
202,172,235055,2,0,B|248:159|290:155|290:155|319:188|341:257,1,180,2|8,1:1|0:2,0:0:0:0:
327,319,235538,1,0,0:0:0:0:
480,139,235700,5,2,1:1:0:0:
427,256,235862,1,0,1:0:0:0:
379,78,236022,2,0,B|356:71|334:70|334:70|310:81|281:101,1,90,8|0,0:2|0:0,0:0:0:0:
174,208,236345,2,0,B|279:192|241:268|363:255,1,180,2|8,1:1|0:2,0:0:0:0:
342,173,236829,1,0,0:0:0:0:
184,345,236990,5,2,1:1:0:0:
162,177,237151,1,0,1:0:0:0:
347,272,237313,2,0,P|304:270|239:266,1,90,8|0,0:2|0:0,0:0:0:0:
115,247,237635,2,0,P|79:158|130:100,2,180,2|8|2,1:1|0:2|1:1,0:0:0:0:
248,179,238442,5,0,1:0:0:0:
115,96,238603,2,0,L|8:101,1,90,8|0,0:2|0:0,0:0:0:0:
255,185,238925,2,0,B|362:174|320:253|449:233,1,180,2|8,1:1|0:2,0:0:0:0:
382,128,239409,1,0,0:0:0:0:
370,323,239571,6,0,P|318:303|275:309,1,90,2|0,1:1|1:0,0:0:0:0:
173,359,239892,2,0,P|168:310|164:254,1,90,8|0,0:2|0:0,0:0:0:0:
340,209,240216,2,0,P|256:220|191:127,1,180,2|8,1:1|0:2,0:0:0:0:
198,67,240699,1,0,0:0:0:0:
85,238,240861,5,2,1:1:0:0:
65,127,241022,1,0,1:0:0:0:
174,275,241183,2,0,L|186:183,1,90,8|0,0:2|0:0,0:0:0:0:
347,306,241505,2,0,P|262:313|231:318,1,90,2|0,1:2|1:0,0:0:0:0:
345,194,241828,2,0,P|430:187|461:182,1,90,10|0,0:2|0:0,0:0:0:0:
203,106,242150,5,2,1:2:0:0:
254,267,242312,1,0,1:0:0:0:
355,58,242473,1,10,0:2:0:0:
192,194,242634,1,2,1:2:0:0:
403,299,242796,1,8,0:2:0:0:
258,370,242957,1,2,1:2:0:0:
258,370,243038,1,0,1:0:0:0:
258,370,243118,2,0,P|254:313|251:272,1,90,8|0,0:2|0:0,0:0:0:0:
159,147,243442,6,0,B|133:126|110:117|110:117|84:120|32:142,1,107.999996704102,2|0,1:1|0:0,0:0:0:0:
100,235,243683,2,0,B|131:222|150:207|150:207|160:183|167:127,1,107.999996704102,2|0,1:1|0:0,0:0:0:0:
50,133,243926,1,0,1:0:0:0:
201,36,244086,1,8,0:2:0:0:
198,71,244166,1,8,0:2:0:0:
195,107,244247,1,8,0:2:0:0:
192,143,244327,1,8,0:2:0:0:
189,179,244408,1,8,0:2:0:0:
254,350,244571,1,8,0:2:0:0:
256,334,244651,1,8,0:2:0:0:
258,318,244732,6,0,B|288:337|306:343|306:343|340:342|375:328,1,107.999996704102,2|0,1:1|0:0,0:0:0:0:
326,224,244973,2,0,B|294:240|280:253|280:253|264:283|258:320,1,107.999996704102,2|0,1:1|0:0,0:0:0:0:
370,339,245216,1,0,1:0:0:0:
459,193,245376,1,8,0:2:0:0:
486,160,245456,1,8,0:2:0:0:
485,118,245537,1,8,0:2:0:0:
457,86,245617,1,8,0:2:0:0:
405,105,245699,5,8,0:2:0:0:
353,89,245780,1,8,0:2:0:0:
319,34,245860,1,8,0:2:0:0:
254,30,245941,1,8,0:2:0:0:
204,72,246022,6,0,B|183:104|177:126|177:126|181:145|193:175,1,107.999996704102,2|0,1:1|0:0,0:0:0:0:
295,127,246263,2,0,B|277:92|261:76|261:76|243:70|211:65,1,107.999996704102,2|0,1:1|0:0,0:0:0:0:
194,179,246506,1,0,1:0:0:0:
57,59,246667,1,8,0:2:0:0:
41,104,246747,1,8,0:2:0:0:
41,152,246828,1,8,0:2:0:0:
58,198,246908,1,8,0:2:0:0:
90,260,246990,5,8,0:2:0:0:
158,242,247071,1,8,0:2:0:0:
217,278,247151,1,8,0:2:0:0:
282,251,247232,1,8,0:2:0:0:
350,268,247313,6,0,B|371:245|382:224|382:224|377:193|361:153,1,107.999996704102,2|0,1:1|0:0,0:0:0:0:
261,207,247554,6,0,B|270:236|283:256|283:256|312:267|355:274,1,107.999996704102,2|0,1:1|0:0,0:0:0:0:
365,159,247797,1,0,1:0:0:0:
106,46,247958,6,0,L|140:42,1,22.5,10|0,0:1|0:0,0:0:0:0:
355,156,248199,2,0,L|332:153,1,22.5,10|0,0:1|0:0,0:0:0:0:
127,259,248441,2,0,L|161:255,1,22.5,10|0,0:1|0:0,0:0:0:0:
