osu file format v14

[General]
AudioFilename: audio.mp3
AudioLeadIn: 0
PreviewTime: 53061
Countdown: 0
SampleSet: Normal
StackLeniency: 0.7
Mode: 1
LetterboxInBreaks: 0
WidescreenStoryboard: 0

[Editor]
DistanceSpacing: 1.3
BeatDivisor: 4
GridSize: 32
TimelineZoom: 1.7

[Metadata]
Title:Sakebe (TV Size)
TitleUnicode:叫べ (TV Size)
Artist:Numakura Manami
ArtistUnicode:沼倉愛美
Creator:Erowdi
Version:Inner Oni
Source:魔法少女育成計画
Tags:pop jpop j-pop まほいく mahoiku slim-san slim san slim_san Undead Alice Undead_Alice UndeadAlice hac alexander aiexander japanese anime rock j-rock j rock Mahou Shoujo Ikusei Keikaku Magical Girl Raising Project hivie
BeatmapID:4391401
BeatmapSetID:2080673

[Difficulty]
HPDrainRate:6
CircleSize:5
OverallDifficulty:6.5
ApproachRate:5
SliderMultiplier:1.44
SliderTickRate:1

[Events]
//Background and Video events
0,0,"bg.png",0,0
//Break Periods
//Storyboard Layer 0 (Background)
//Storyboard Layer 1 (Fail)
//Storyboard Layer 2 (Pass)
//Storyboard Layer 3 (Foreground)
//Storyboard Layer 4 (Overlay)
//Storyboard Sound Samples

[TimingPoints]
837,304.568527918782,4,1,0,20,1,0
989,-100,4,1,0,23,0,0
1141,-125,4,1,0,31,0,0
1293,-125,4,1,0,35,0,0
1446,-125,4,1,0,39,0,0
1598,-125,4,1,0,42,0,0
1750,-125,4,1,0,48,0,0
1902,-125,4,1,0,54,0,0
2055,-125,4,1,0,59,0,0
2207,-125,4,1,0,62,0,0
2359,-125,4,1,0,65,0,0
2512,-125,4,1,0,69,0,0
2664,-125,4,1,0,75,0,0
2892,-116.279069767442,4,1,0,60,0,0
3273,304.568527918782,4,1,0,78,1,8
3305,307.692307692308,4,1,0,78,1,0
3305,-96.1538461538461,4,1,0,78,0,0
3324,-102.040816326531,4,1,0,78,0,0
12221,-101.010101010101,4,1,0,78,0,0
12374,-99.6749495145841,4,1,0,78,0,0
12451,-99.0162738556272,4,1,0,78,0,0
12528,-98.3662464165059,4,1,0,78,0,0
12682,-97.091463735339,4,1,0,78,0,0
12836,-95.8492995628109,4,1,0,78,0,0
12913,-95.2400606729747,4,1,0,78,0,0
12990,-94.6385177742005,4,1,0,78,0,0
13067,-94.0445259564929,4,1,0,78,0,0
13144,-93.4579439252336,4,1,0,82,0,0
13228,-102.040816326531,4,1,0,78,0,0
22374,-103.092783505155,4,1,0,78,0,0
22451,-104.529616724739,4,1,0,78,0,0
22528,-106.007067137809,4,1,0,78,0,0
22605,-107.52688172043,4,1,0,78,0,0
22682,-109.090909090909,4,1,0,78,0,0
22759,-110.70110701107,4,1,0,78,0,0
22836,-112.359550561798,4,1,0,78,0,0
22920,-112.359550561798,4,1,0,40,0,0
23298,-113.636363636364,4,1,0,55,0,0
23451,-114.499082022528,4,1,0,55,0,0
23605,-115.380769038452,4,1,0,55,0,0
23913,-117.185516225687,4,1,0,54,0,0
24067,-118.109228643087,4,1,0,53,0,0
24221,-119.047619047619,4,1,0,50,0,0
34048,-113.636363636364,4,1,0,61,0,0
42682,-112.359550561798,4,1,0,64,0,0
42836,-111.419856448503,4,1,0,64,0,0
42913,-110.955879039164,4,1,0,64,0,0
42990,-110.495749818234,4,1,0,64,0,0
43144,-109.586846017573,4,1,0,64,0,0
43298,-108.692772946007,4,1,0,64,0,0
43451,-107.818836327328,4,1,0,64,0,0
43605,-106.953265506486,4,1,0,64,0,0
43682,-106.525670869426,4,1,0,64,0,0
43759,-106.101481628326,4,1,0,64,0,0
43836,-105.680657263292,4,1,0,64,0,0
43913,-105.263157894737,4,1,0,67,0,0
50067,-104.166666666667,4,1,0,70,0,0
50221,-102.959134173065,4,1,0,70,0,0
50298,-102.365805995593,4,1,0,70,0,0
50374,-101.786851222517,4,1,0,70,0,0
50528,-100.633558144288,4,1,0,70,0,0
50682,-99.5061069751275,4,1,0,70,0,0
50759,-98.9518021928555,4,1,0,70,0,0
50836,-98.4036387763096,4,1,0,70,0,0
50990,-97.32533225809,4,1,0,70,0,0
51144,-96.27040173928,4,1,0,70,0,0
51298,-95.2380952380952,4,1,0,65,0,0
51381,-95.2380952380952,4,1,0,40,0,0
52528,-97.0873786407767,4,1,0,70,0,0
52605,-98.2800982800983,4,1,0,70,0,0
52682,-99.5024875621891,4,1,0,70,0,0
52759,-100.755667506297,4,1,0,70,0,0
52836,-102.040816326531,4,1,0,70,0,0
53144,-101.010101010101,4,1,0,74,0,0
53221,-99.3341808700898,4,1,0,74,0,0
53298,-97.7129655143178,4,1,0,74,0,0
53374,-96.1638749243831,4,1,0,74,0,0
53451,-94.6437003428524,4,1,0,74,0,0
53528,-93.170840154409,4,1,0,74,0,0
53605,-91.743119266055,4,1,0,74,0,0
53612,-91.743119266055,4,1,0,84,0,1
53689,-95.2380952380952,4,1,0,84,0,1
60682,-96.1538461538461,4,1,0,84,0,1
60836,-96.8997128897396,4,1,0,84,0,1
60913,-97.2770024271845,4,1,0,84,0,1
60990,-97.6572414843393,4,1,0,84,0,1
61067,-98.0404647844256,4,1,0,84,0,1
61144,-98.4267075978511,4,1,0,84,0,1
61151,-98.4267075978511,4,1,0,84,0,0
61298,-99.2083956474653,4,1,0,84,0,0
61374,-99.5987574424023,4,1,0,84,0,0
61451,-99.9974009772326,4,1,0,84,0,0
61605,-100.804338713058,4,1,0,84,0,0
61759,-101.62440570523,4,1,0,84,0,0
61913,-102.457925010652,4,1,0,84,0,0
61990,-102.879833146158,4,1,0,84,0,0
62067,-103.305230372677,4,1,0,84,0,0
62221,-104.166666666667,4,1,0,84,0,0
62528,-102.040816326531,4,1,0,84,0,0
62682,-99.4998059592083,4,1,0,84,0,0
62759,-98.2761741500655,4,1,0,84,0,0
62836,-97.0822727559585,4,1,0,84,0,0
62990,-94.7794298858129,4,1,0,84,0,0
63067,-93.6684967373324,4,1,0,84,0,0
63144,-92.5833049130339,4,1,0,84,0,0
63221,-91.5229699848288,4,1,0,84,0,0
63298,-90.4866475824477,4,1,0,84,0,0
63374,-89.4865430853952,4,1,0,84,0,0
63451,-88.495575221239,4,1,0,89,0,0
63458,-88.495575221239,4,1,0,89,0,1
63555,-91.743119266055,4,1,0,89,0,1
70528,-92.5925925925926,4,1,0,89,0,1
70682,-93.545994967116,4,1,0,89,0,1
70759,-94.0300969628095,4,1,0,89,0,1
70836,-94.519235493539,4,1,0,89,0,1
70913,-95.0134895695068,4,1,0,89,0,1
70990,-95.5129398622231,4,1,0,89,0,1
70997,-95.5129398622231,4,1,0,89,0,0
71144,-96.5277603552523,4,1,0,89,0,0
71220,-97.0365699873897,4,1,0,89,0,0
71297,-97.5575741824244,4,1,0,89,0,0
71451,-98.6165488693379,4,1,0,89,0,0
71605,-99.6987659119619,4,1,0,89,0,0
71759,-100.804998984745,4,1,0,89,0,0
71836,-101.367372747392,4,1,0,89,0,0
71913,-101.936056485425,4,1,0,89,0,0
71990,-102.511156997269,4,1,0,89,0,0
72067,-103.092783505155,4,1,0,89,0,0
72374,-102.040816326531,4,1,0,89,0,0
72528,-99.7129895380057,4,1,0,89,0,0
72605,-98.5884549898391,4,1,0,89,0,0
72682,-97.4890019371074,4,1,0,89,0,0
72836,-95.3620570578548,4,1,0,89,0,0
72913,-94.333012174827,4,1,0,89,0,0
72990,-93.3259388918736,4,1,0,89,0,0
73067,-92.3401409537528,4,1,0,89,0,0
73144,-91.3749512157874,4,1,0,89,0,0
73221,-90.4297301382055,4,1,0,89,0,0
73298,-89.5038643729743,4,1,0,89,0,0
73374,-88.6084280848403,4,1,0,89,0,0
73451,-87.719298245614,4,1,0,93,0,0
73458,-87.719298245614,4,1,0,93,0,1
73605,-88.495575221239,4,1,0,93,0,1
73682,-88.7981174799094,4,1,0,93,0,1
73759,-89.1027354539785,4,1,0,93,0,1
73913,-89.7182845863987,4,1,0,93,0,1
74067,-90.3423976872346,4,1,0,93,0,1
74221,-90.9752547307132,4,1,0,93,0,1
74374,-91.6128441207457,4,1,0,93,0,1
74451,-91.9371150133309,4,1,0,93,0,1
74528,-92.2636896249481,4,1,0,93,0,1
74605,-92.5925925925926,4,1,0,93,0,1
74682,-86.9565217391304,4,1,0,93,0,1
74836,-87.566205818524,4,1,0,93,0,1
74913,-87.8742651762054,4,1,0,93,0,1
74990,-88.1844997019761,4,1,0,93,0,1
75144,-88.8115870646,4,1,0,93,0,1
75298,-89.4476568434434,4,1,0,93,0,1
75451,-90.0886834873845,4,1,0,93,0,1
75605,-90.7432453684773,4,1,0,93,0,1
75682,-91.0741062268171,4,1,0,93,0,1
75759,-91.4073886318991,4,1,0,93,0,1
75836,-91.743119266055,4,1,0,93,0,1
75913,-85.4700854700855,4,1,0,93,0,1
76067,-86.2075865877965,4,1,0,93,0,1
76144,-86.5811306193324,4,1,0,93,0,1
76221,-86.9579259283183,4,1,0,93,0,1
76374,-87.7164405205975,4,1,0,93,0,1
76528,-88.4933938079274,4,1,0,93,0,1
76682,-89.2842339130867,4,1,0,93,0,1
76759,-89.6849783906668,4,1,0,93,0,1
76836,-90.0893365008197,4,1,0,93,0,1
76990,-90.9090909090909,4,1,0,93,0,1
77144,-90.0900900900901,4,1,0,93,0,1
77221,-89.5848506919155,4,1,0,93,0,1
77298,-89.0852466140364,4,1,0,93,0,1
77374,-88.5975653677159,4,1,0,93,0,1
77451,-88.10888252149,4,1,0,93,0,1
77528,-87.6255610173114,4,1,0,93,0,1
77605,-87.1475131075528,4,1,0,93,0,1
77682,-86.6746529490522,4,1,0,93,0,1
77759,-86.2068965517241,4,1,0,93,0,1
77836,-85.7441617288254,4,1,0,93,0,1
77913,-85.2863680488143,4,1,0,93,0,1
77990,-84.8334367887441,4,1,0,93,0,1
78067,-84.3852908891328,4,1,0,93,0,1
78144,-83.9418549102573,4,1,0,93,0,1
78221,-83.5030549898167,4,1,0,93,0,1
78298,-83.068818801918,4,1,0,93,0,1
78374,-82.6446280991736,4,1,0,93,0,1
78381,-82.6446280991736,4,1,0,93,0,0
78535,-95.2380952380952,4,1,0,85,0,0
87605,-94.3396226415094,4,1,0,87,0,0
87682,-92.8792569659443,4,1,0,87,0,0
87759,-91.4634146341463,4,1,0,87,0,0
87836,-90.0900900900901,4,1,0,87,0,0
87913,-88.7573964497041,4,1,0,87,0,0
87990,-87.4635568513119,4,1,0,87,0,0
88067,-86.2068965517241,4,1,0,90,0,0

[HitObjects]
256,192,837,12,0,2816,0:0:0:0:
194,201,2968,5,0,0:0:0:0:
226,208,3305,1,12,0:0:0:0:
266,156,3612,1,8,0:0:0:0:
266,156,3766,1,0,0:0:0:0:
221,128,3843,1,0,0:0:0:0:
266,156,3920,1,8,0:0:0:0:
242,106,4074,1,0,0:0:0:0:
277,130,4228,1,0,0:0:0:0:
242,106,4381,1,8,0:0:0:0:
177,177,4458,1,8,0:0:0:0:
281,206,4535,1,0,0:0:0:0:
281,206,4612,1,0,0:0:0:0:
298,154,4689,1,0,0:0:0:0:
298,154,4843,1,8,0:0:0:0:
297,172,4997,5,0,0:0:0:0:
318,168,5074,1,0,0:0:0:0:
318,168,5151,1,8,0:0:0:0:
192,141,5305,1,0,0:0:0:0:
277,124,5458,1,8,0:0:0:0:
277,124,5535,1,0,0:0:0:0:
277,124,5612,1,0,0:0:0:0:
277,124,5689,1,0,0:0:0:0:
277,124,5766,1,8,0:0:0:0:
238,127,6074,1,0,0:0:0:0:
238,127,6228,1,8,0:0:0:0:
238,127,6305,1,8,0:0:0:0:
238,127,6381,1,0,0:0:0:0:
271,131,6535,1,8,0:0:0:0:
271,131,6689,1,0,0:0:0:0:
271,131,6843,1,8,0:0:0:0:
271,130,6920,1,8,0:0:0:0:
314,193,6997,1,8,0:0:0:0:
314,193,7151,1,0,0:0:0:0:
319,189,7305,1,8,0:0:0:0:
319,189,7458,1,0,0:0:0:0:
319,189,7535,1,0,0:0:0:0:
319,189,7612,1,8,0:0:0:0:
268,159,7766,1,8,0:0:0:0:
268,159,7920,1,0,0:0:0:0:
268,159,7997,1,0,0:0:0:0:
268,159,8074,1,8,0:0:0:0:
268,159,8151,1,8,0:0:0:0:
268,159,8228,1,0,0:0:0:0:
336,188,8381,1,8,0:0:0:0:
336,188,8535,1,0,0:0:0:0:
336,188,8689,1,8,0:0:0:0:
336,188,8766,1,0,0:0:0:0:
336,188,8843,1,0,0:0:0:0:
307,174,8997,1,0,0:0:0:0:
186,181,9151,1,8,0:0:0:0:
186,181,9228,1,8,0:0:0:0:
186,181,9305,1,0,0:0:0:0:
286,137,9612,1,0,0:0:0:0:
286,137,9766,1,8,0:0:0:0:
286,137,9843,1,8,0:0:0:0:
286,137,9920,1,8,0:0:0:0:
256,181,10074,1,0,0:0:0:0:
256,181,10228,1,8,0:0:0:0:
256,181,10305,1,0,0:0:0:0:
256,181,10381,1,8,0:0:0:0:
256,181,10458,1,8,0:0:0:0:
256,181,10535,1,0,0:0:0:0:
256,181,10612,1,0,0:0:0:0:
256,181,10689,1,8,0:0:0:0:
286,197,10997,1,8,0:0:0:0:
286,197,11151,1,0,0:0:0:0:
286,197,11228,1,0,0:0:0:0:
286,197,11305,1,8,0:0:0:0:
286,197,11458,1,0,0:0:0:0:
286,197,11612,1,8,0:0:0:0:
286,197,11766,1,0,0:0:0:0:
286,197,12074,1,0,0:0:0:0:
270,127,12228,5,8,0:0:0:0:
270,127,12381,1,0,0:0:0:0:
270,127,12458,1,0,0:0:0:0:
270,127,12535,1,8,0:0:0:0:
278,141,12689,1,0,0:0:0:0:
270,127,12843,1,8,0:0:0:0:
270,127,12920,1,0,0:0:0:0:
270,127,12997,1,8,0:0:0:0:
270,127,13074,1,8,0:0:0:0:
270,127,13151,1,4,0:0:0:0:
266,156,13458,1,8,0:0:0:0:
266,156,13612,1,0,0:0:0:0:
221,128,13689,1,0,0:0:0:0:
266,156,13766,1,8,0:0:0:0:
242,106,13920,1,0,0:0:0:0:
277,130,14074,1,0,0:0:0:0:
242,106,14227,1,8,0:0:0:0:
177,177,14304,1,8,0:0:0:0:
281,206,14381,1,0,0:0:0:0:
298,154,14535,1,0,0:0:0:0:
298,154,14689,1,8,0:0:0:0:
297,172,14843,5,0,0:0:0:0:
318,168,14920,1,0,0:0:0:0:
318,168,14997,1,8,0:0:0:0:
192,141,15151,1,0,0:0:0:0:
277,124,15304,1,8,0:0:0:0:
277,124,15381,1,0,0:0:0:0:
277,124,15458,1,0,0:0:0:0:
277,124,15535,1,0,0:0:0:0:
277,124,15612,1,8,0:0:0:0:
238,127,15920,1,0,0:0:0:0:
238,127,16074,1,8,0:0:0:0:
238,127,16151,1,8,0:0:0:0:
238,127,16227,1,0,0:0:0:0:
271,131,16381,1,8,0:0:0:0:
271,131,16535,1,0,0:0:0:0:
271,131,16689,1,8,0:0:0:0:
271,130,16766,1,8,0:0:0:0:
314,193,16843,1,8,0:0:0:0:
314,193,16997,1,0,0:0:0:0:
319,189,17151,1,8,0:0:0:0:
319,189,17304,1,0,0:0:0:0:
319,189,17381,1,0,0:0:0:0:
319,189,17458,1,8,0:0:0:0:
268,159,17612,1,8,0:0:0:0:
268,159,17766,1,8,0:0:0:0:
268,159,17843,1,0,0:0:0:0:
268,159,17920,1,0,0:0:0:0:
268,159,17997,1,0,0:0:0:0:
268,159,18074,1,8,0:0:0:0:
336,188,18227,1,0,0:0:0:0:
336,188,18381,1,0,0:0:0:0:
212,81,18458,1,0,0:0:0:0:
336,188,18535,1,8,0:0:0:0:
336,188,18612,1,8,0:0:0:0:
336,188,18689,1,0,0:0:0:0:
307,174,18843,1,8,0:0:0:0:
186,181,18920,1,0,0:0:0:0:
186,181,18997,1,8,0:0:0:0:
186,181,19151,1,0,0:0:0:0:
286,137,19458,1,0,0:0:0:0:
286,137,19612,1,8,0:0:0:0:
286,137,19689,1,8,0:0:0:0:
286,137,19766,1,8,0:0:0:0:
256,181,19920,1,0,0:0:0:0:
256,181,20074,1,8,0:0:0:0:
256,181,20227,1,8,0:0:0:0:
256,181,20304,1,8,0:0:0:0:
256,181,20381,1,0,0:0:0:0:
256,181,20458,1,0,0:0:0:0:
256,181,20535,1,0,0:0:0:0:
286,197,20843,1,8,0:0:0:0:
286,197,20997,1,0,0:0:0:0:
286,197,21074,1,0,0:0:0:0:
286,197,21151,1,8,0:0:0:0:
286,197,21304,5,0,0:0:0:0:
286,197,21458,1,8,0:0:0:0:
286,197,21612,1,0,0:0:0:0:
286,197,21920,1,0,0:0:0:0:
270,127,22074,5,8,0:0:0:0:
273,163,22151,1,8,0:0:0:0:
273,163,22228,1,0,0:0:0:0:
273,163,22381,1,8,0:0:0:0:
196,155,22458,1,0,0:0:0:0:
136,154,22535,1,8,0:0:0:0:
146,155,22612,1,8,0:0:0:0:
146,155,22689,1,0,0:0:0:0:
136,154,22766,1,0,0:0:0:0:
166,154,22843,1,0,0:0:0:0:
261,186,23305,1,8,0:0:0:0:
261,186,23458,1,0,0:0:0:0:
261,186,23612,1,8,0:0:0:0:
261,186,23920,1,8,0:0:0:0:
261,186,24074,1,0,0:0:0:0:
261,186,24228,1,0,0:0:0:0:
273,198,24535,1,8,0:0:0:0:
223,171,24766,1,0,0:0:0:0:
273,198,24843,1,0,0:0:0:0:
273,198,24997,1,8,0:0:0:0:
273,198,25151,1,8,0:0:0:0:
273,198,25305,1,8,0:0:0:0:
273,198,25612,1,0,0:0:0:0:
273,198,25766,1,8,0:0:0:0:
223,171,25997,1,0,0:0:0:0:
273,198,26074,1,0,0:0:0:0:
273,198,26228,1,8,0:0:0:0:
273,198,26381,1,8,0:0:0:0:
273,198,26535,1,0,0:0:0:0:
273,198,26689,1,8,0:0:0:0:
242,164,26997,1,8,0:0:0:0:
242,164,27228,1,0,0:0:0:0:
242,164,27305,1,0,0:0:0:0:
252,150,27458,1,8,0:0:0:0:
252,150,27612,1,8,0:0:0:0:
252,150,27766,1,0,0:0:0:0:
272,143,28074,1,0,0:0:0:0:
281,140,28228,1,8,0:0:0:0:
281,140,28458,1,0,0:0:0:0:
281,140,28535,1,0,0:0:0:0:
291,168,28689,1,0,0:0:0:0:
291,168,28843,1,8,0:0:0:0:
291,168,28997,1,0,0:0:0:0:
291,168,29151,1,8,0:0:0:0:
284,174,29458,1,8,0:0:0:0:
284,174,29689,1,0,0:0:0:0:
284,174,29766,1,0,0:0:0:0:
284,174,29920,1,8,0:0:0:0:
284,174,30074,1,8,0:0:0:0:
284,174,30228,1,0,0:0:0:0:
284,174,30535,1,0,0:0:0:0:
284,174,30689,1,8,0:0:0:0:
301,171,30920,1,0,0:0:0:0:
301,171,30997,1,0,0:0:0:0:
301,171,31151,1,0,0:0:0:0:
301,171,31305,1,8,0:0:0:0:
301,171,31458,1,8,0:0:0:0:
301,171,31612,1,0,0:0:0:0:
341,167,31920,1,8,0:0:0:0:
221,147,32151,1,0,0:0:0:0:
248,153,32228,1,0,0:0:0:0:
248,153,32381,1,8,0:0:0:0:
248,153,32535,1,8,0:0:0:0:
248,153,32689,1,0,0:0:0:0:
341,167,32997,5,8,0:0:0:0:
341,167,33151,1,8,0:0:0:0:
341,167,33381,1,0,0:0:0:0:
341,167,33458,1,0,0:0:0:0:
120,151,33612,1,8,0:0:0:0:
288,160,33766,5,0,0:0:0:0:
288,160,33920,1,8,0:0:0:0:
288,160,34074,5,4,0:0:0:0:
271,176,34381,1,8,0:0:0:0:
271,176,34612,1,8,0:0:0:0:
271,176,34689,1,0,0:0:0:0:
271,176,34843,1,8,0:0:0:0:
271,176,34997,1,0,0:0:0:0:
271,176,35151,1,8,0:0:0:0:
218,122,35305,1,0,0:0:0:0:
271,176,35458,1,0,0:0:0:0:
271,176,35612,1,8,0:0:0:0:
271,176,35843,1,8,0:0:0:0:
271,176,35920,1,0,0:0:0:0:
277,132,36074,1,8,0:0:0:0:
277,132,36228,1,8,0:0:0:0:
277,132,36381,1,0,0:0:0:0:
277,132,36535,1,8,0:0:0:0:
277,132,36843,1,8,0:0:0:0:
277,132,37074,1,8,0:0:0:0:
277,132,37151,1,0,0:0:0:0:
277,132,37305,1,8,0:0:0:0:
277,132,37458,1,0,0:0:0:0:
277,132,37612,1,8,0:0:0:0:
277,132,37766,1,8,0:0:0:0:
277,132,37920,1,0,0:0:0:0:
277,132,38074,1,8,0:0:0:0:
277,132,38305,1,8,0:0:0:0:
277,132,38381,1,0,0:0:0:0:
277,132,38535,1,8,0:0:0:0:
277,132,38689,1,8,0:0:0:0:
277,132,38843,1,0,0:0:0:0:
277,132,38997,1,8,0:0:0:0:
235,110,39305,1,8,0:0:0:0:
305,131,39535,1,8,0:0:0:0:
305,131,39612,1,0,0:0:0:0:
305,131,39766,1,0,0:0:0:0:
305,131,39920,1,8,0:0:0:0:
305,131,40074,1,8,0:0:0:0:
344,147,40228,1,0,0:0:0:0:
305,131,40381,1,0,0:0:0:0:
338,144,40535,1,8,0:0:0:0:
344,147,40766,1,8,0:0:0:0:
344,147,40843,1,0,0:0:0:0:
344,147,40997,1,8,0:0:0:0:
275,138,41151,1,8,0:0:0:0:
275,138,41305,1,0,0:0:0:0:
275,138,41458,1,8,0:0:0:0:
348,151,41766,5,8,0:0:0:0:
348,151,41997,1,8,0:0:0:0:
348,151,42074,1,0,0:0:0:0:
348,151,42228,1,8,0:0:0:0:
348,151,42381,1,0,0:0:0:0:
348,151,42535,1,8,0:0:0:0:
263,179,42689,5,8,0:0:0:0:
263,179,42843,1,0,0:0:0:0:
263,179,42920,1,0,0:0:0:0:
263,179,42997,1,8,0:0:0:0:
263,179,43151,1,0,0:0:0:0:
263,179,43305,1,8,0:0:0:0:
263,179,43458,1,8,0:0:0:0:
263,179,43612,1,0,0:0:0:0:
263,179,43689,1,0,0:0:0:0:
263,179,43766,1,8,0:0:0:0:
263,179,43843,1,8,0:0:0:0:
263,179,43920,1,4,0:0:0:0:
311,157,44074,1,8,0:0:0:0:
272,161,44228,1,8,0:0:0:0:
263,179,44381,1,0,0:0:0:0:
271,138,44689,1,0,0:0:0:0:
272,161,44843,1,8,0:0:0:0:
282,157,44997,1,0,0:0:0:0:
271,138,45074,1,0,0:0:0:0:
282,157,45151,1,8,0:0:0:0:
282,157,45305,1,0,0:0:0:0:
282,157,45612,1,0,0:0:0:0:
282,157,45766,1,8,0:0:0:0:
58,170,45843,1,8,0:0:0:0:
282,157,45920,1,8,0:0:0:0:
282,157,46074,1,8,0:0:0:0:
282,157,46228,1,0,0:0:0:0:
282,157,46305,1,0,0:0:0:0:
282,157,46381,1,8,0:0:0:0:
304,173,46535,5,0,0:0:0:0:
291,146,46689,1,8,0:0:0:0:
291,146,46843,1,8,0:0:0:0:
304,173,47151,1,8,0:0:0:0:
304,173,47305,1,0,0:0:0:0:
304,173,47458,1,8,0:0:0:0:
304,173,47535,1,8,0:0:0:0:
304,173,47612,1,0,0:0:0:0:
304,173,47766,1,8,0:0:0:0:
271,150,48074,1,0,0:0:0:0:
271,150,48228,1,8,0:0:0:0:
271,150,48381,1,0,0:0:0:0:
255,177,48535,5,8,0:0:0:0:
218,113,48612,1,8,0:0:0:0:
255,177,48689,1,0,0:0:0:0:
255,177,48766,1,0,0:0:0:0:
218,113,48843,1,8,0:0:0:0:
271,150,49151,1,0,0:0:0:0:
255,177,49305,1,0,0:0:0:0:
271,150,49458,1,8,0:0:0:0:
271,150,49612,1,0,0:0:0:0:
271,150,49766,1,8,0:0:0:0:
271,150,49843,1,8,0:0:0:0:
271,150,49920,1,0,0:0:0:0:
263,187,50074,5,8,0:0:0:0:
263,187,50228,1,0,0:0:0:0:
263,187,50305,1,0,0:0:0:0:
263,187,50381,1,0,0:0:0:0:
268,183,50535,1,8,0:0:0:0:
269,184,50689,1,0,0:0:0:0:
269,184,50766,1,0,0:0:0:0:
269,184,50843,1,0,0:0:0:0:
269,172,50997,1,8,0:0:0:0:
269,172,51151,1,8,0:0:0:0:
193,146,51305,1,0,0:0:0:0:
262,180,52535,1,8,0:0:0:0:
262,180,52612,1,8,0:0:0:0:
262,180,52689,1,0,0:0:0:0:
262,180,52766,1,0,0:0:0:0:
262,180,52843,1,8,0:0:0:0:
307,173,53151,1,0,0:0:0:0:
307,173,53228,1,0,0:0:0:0:
307,173,53305,1,8,0:0:0:0:
307,173,53381,1,0,0:0:0:0:
307,173,53458,1,8,0:0:0:0:
307,173,53535,1,8,0:0:0:0:
257,171,53612,1,4,0:0:0:0:
296,226,53920,1,8,0:0:0:0:
296,226,53997,1,8,0:0:0:0:
296,226,54074,1,8,0:0:0:0:
296,226,54228,1,0,0:0:0:0:
296,226,54381,1,8,0:0:0:0:
296,226,54535,1,0,0:0:0:0:
152,161,54612,1,0,0:0:0:0:
296,226,54689,1,8,0:0:0:0:
296,226,54766,1,0,0:0:0:0:
296,226,54843,1,8,0:0:0:0:
296,226,54997,1,0,0:0:0:0:
282,167,55151,1,0,0:0:0:0:
314,207,55228,1,0,0:0:0:0:
282,167,55305,1,8,0:0:0:0:
314,207,55458,1,0,0:0:0:0:
314,207,55612,1,8,0:0:0:0:
314,207,55766,1,0,0:0:0:0:
282,167,55920,1,8,0:0:0:0:
282,167,55997,1,8,0:0:0:0:
282,167,56074,1,0,0:0:0:0:
282,167,56151,1,0,0:0:0:0:
282,167,56228,1,8,0:0:0:0:
192,153,56381,1,0,0:0:0:0:
192,153,56458,1,0,0:0:0:0:
196,148,56535,1,8,0:0:0:0:
196,148,56689,1,0,0:0:0:0:
192,153,56843,1,8,0:0:0:0:
192,153,56997,1,0,0:0:0:0:
129,143,57074,1,0,0:0:0:0:
192,153,57151,1,8,0:0:0:0:
192,153,57228,1,8,0:0:0:0:
192,153,57305,1,0,0:0:0:0:
249,165,57458,1,8,0:0:0:0:
307,166,57612,1,8,0:0:0:0:
307,166,57689,1,0,0:0:0:0:
249,165,57766,1,0,0:0:0:0:
294,161,57920,1,8,0:0:0:0:
294,161,58074,1,8,0:0:0:0:
294,161,58228,1,0,0:0:0:0:
294,161,58381,1,8,0:0:0:0:
294,161,58458,1,8,0:0:0:0:
294,161,58535,1,0,0:0:0:0:
294,161,58612,1,0,0:0:0:0:
294,161,58689,1,0,0:0:0:0:
265,184,58843,1,8,0:0:0:0:
281,211,58920,1,0,0:0:0:0:
265,184,58997,1,8,0:0:0:0:
281,211,59151,1,0,0:0:0:0:
316,188,59305,1,8,0:0:0:0:
212,203,59458,1,0,0:0:0:0:
177,126,59535,1,0,0:0:0:0:
212,203,59612,1,8,0:0:0:0:
212,203,59689,1,0,0:0:0:0:
212,203,59766,1,0,0:0:0:0:
319,164,59920,1,8,0:0:0:0:
319,164,60074,1,0,0:0:0:0:
319,164,60151,1,0,0:0:0:0:
319,164,60228,1,0,0:0:0:0:
319,164,60381,1,8,0:0:0:0:
319,164,60689,1,8,0:0:0:0:
296,187,60843,1,0,0:0:0:0:
296,187,60920,1,8,0:0:0:0:
296,187,60997,1,0,0:0:0:0:
296,187,61074,1,0,0:0:0:0:
296,187,61151,1,8,0:0:0:0:
321,158,61305,1,0,0:0:0:0:
281,164,61381,1,0,0:0:0:0:
321,158,61458,1,8,0:0:0:0:
281,164,61612,1,0,0:0:0:0:
321,158,61766,1,8,0:0:0:0:
321,158,61920,1,0,0:0:0:0:
321,158,61997,1,0,0:0:0:0:
241,77,62074,1,0,0:0:0:0:
233,112,62228,1,8,0:0:0:0:
233,112,62535,1,8,0:0:0:0:
233,112,62689,1,0,0:0:0:0:
233,112,62766,1,0,0:0:0:0:
233,112,62843,1,0,0:0:0:0:
261,192,62997,1,8,0:0:0:0:
261,192,63074,1,0,0:0:0:0:
261,192,63151,1,0,0:0:0:0:
261,192,63228,1,0,0:0:0:0:
261,192,63305,1,8,0:0:0:0:
261,192,63381,1,8,0:0:0:0:
261,192,63458,1,4,0:0:0:0:
296,226,63766,1,8,0:0:0:0:
296,226,63843,1,8,0:0:0:0:
296,226,63920,1,0,0:0:0:0:
296,226,64074,1,8,0:0:0:0:
296,226,64227,1,0,0:0:0:0:
296,226,64381,1,8,0:0:0:0:
152,161,64458,1,8,0:0:0:0:
296,226,64535,1,0,0:0:0:0:
296,226,64612,1,0,0:0:0:0:
296,226,64689,1,8,0:0:0:0:
296,226,64843,1,8,0:0:0:0:
282,167,64997,1,0,0:0:0:0:
314,207,65074,1,0,0:0:0:0:
282,167,65151,1,8,0:0:0:0:
314,207,65304,1,0,0:0:0:0:
230,105,65381,1,0,0:0:0:0:
314,207,65458,1,0,0:0:0:0:
314,207,65612,1,8,0:0:0:0:
282,167,65766,1,8,0:0:0:0:
282,167,65843,1,8,0:0:0:0:
282,167,65920,1,8,0:0:0:0:
282,167,65997,1,8,0:0:0:0:
282,167,66074,1,0,0:0:0:0:
192,153,66228,1,8,0:0:0:0:
192,153,66304,1,0,0:0:0:0:
196,148,66381,1,8,0:0:0:0:
196,148,66535,1,0,0:0:0:0:
192,153,66689,1,8,0:0:0:0:
192,153,66843,1,0,0:0:0:0:
129,143,66920,1,0,0:0:0:0:
192,153,66997,1,8,0:0:0:0:
192,153,67074,1,8,0:0:0:0:
192,153,67151,1,0,0:0:0:0:
249,165,67304,1,8,0:0:0:0:
307,166,67458,1,8,0:0:0:0:
307,166,67535,1,0,0:0:0:0:
249,165,67612,1,0,0:0:0:0:
294,161,67766,1,8,0:0:0:0:
249,165,67843,1,8,0:0:0:0:
294,161,67920,1,8,0:0:0:0:
294,161,68074,1,0,0:0:0:0:
294,161,68227,1,8,0:0:0:0:
294,161,68304,1,0,0:0:0:0:
294,161,68381,1,0,0:0:0:0:
294,161,68458,1,0,0:0:0:0:
294,161,68535,1,8,0:0:0:0:
265,184,68689,1,0,0:0:0:0:
281,211,68766,1,0,0:0:0:0:
265,184,68843,1,8,0:0:0:0:
281,211,68997,1,0,0:0:0:0:
316,188,69151,1,8,0:0:0:0:
212,203,69304,1,0,0:0:0:0:
177,126,69381,1,0,0:0:0:0:
212,203,69458,1,8,0:0:0:0:
212,203,69535,1,8,0:0:0:0:
212,203,69612,1,8,0:0:0:0:
319,164,69766,1,0,0:0:0:0:
319,164,69920,1,8,0:0:0:0:
319,164,69997,1,8,0:0:0:0:
319,164,70074,1,8,0:0:0:0:
319,164,70227,1,0,0:0:0:0:
301,198,70305,1,0,0:0:0:0:
301,198,70381,1,0,0:0:0:0:
319,164,70535,1,8,0:0:0:0:
296,187,70689,1,8,0:0:0:0:
296,187,70766,1,0,0:0:0:0:
296,187,70843,1,8,0:0:0:0:
296,187,70920,1,8,0:0:0:0:
296,187,70997,1,0,0:0:0:0:
321,158,71151,1,0,0:0:0:0:
281,164,71227,1,0,0:0:0:0:
321,158,71304,1,8,0:0:0:0:
281,164,71458,1,0,0:0:0:0:
321,158,71612,1,8,0:0:0:0:
321,158,71766,1,0,0:0:0:0:
321,158,71843,1,0,0:0:0:0:
241,77,71920,1,0,0:0:0:0:
236,125,71997,1,0,0:0:0:0:
233,112,72074,1,8,0:0:0:0:
233,112,72381,1,8,0:0:0:0:
233,112,72535,1,0,0:0:0:0:
233,112,72612,1,0,0:0:0:0:
233,112,72689,1,0,0:0:0:0:
101,165,72843,1,8,0:0:0:0:
162,103,72920,1,0,0:0:0:0:
261,192,72997,1,0,0:0:0:0:
261,192,73074,1,0,0:0:0:0:
261,192,73151,1,8,0:0:0:0:
261,192,73228,1,0,0:0:0:0:
261,192,73305,1,8,0:0:0:0:
261,192,73381,1,8,0:0:0:0:
261,192,73458,1,4,0:0:0:0:
173,144,73612,1,8,0:0:0:0:
173,144,73689,1,8,0:0:0:0:
173,144,73766,1,8,0:0:0:0:
173,144,73920,1,4,0:0:0:0:
281,165,74074,1,8,0:0:0:0:
281,165,74228,1,8,0:0:0:0:
281,165,74381,1,0,0:0:0:0:
281,165,74458,1,0,0:0:0:0:
281,165,74535,1,0,0:0:0:0:
281,165,74612,1,0,0:0:0:0:
281,165,74689,1,12,0:0:0:0:
322,147,74843,1,0,0:0:0:0:
322,147,74920,1,0,0:0:0:0:
322,147,74997,1,0,0:0:0:0:
322,147,75151,1,12,0:0:0:0:
335,162,75305,1,0,0:0:0:0:
335,162,75458,1,0,0:0:0:0:
385,177,75612,1,0,0:0:0:0:
385,177,75689,1,0,0:0:0:0:
385,177,75766,1,8,0:0:0:0:
385,177,75843,1,8,0:0:0:0:
385,177,75920,1,4,0:0:0:0:
244,176,76074,1,8,0:0:0:0:
244,176,76151,1,8,0:0:0:0:
244,176,76228,1,0,0:0:0:0:
260,151,76381,1,12,0:0:0:0:
263,157,76535,1,0,0:0:0:0:
263,157,76689,1,8,0:0:0:0:
263,157,76766,1,8,0:0:0:0:
263,157,76843,1,0,0:0:0:0:
263,157,76997,1,0,0:0:0:0:
259,174,77151,1,8,0:0:0:0:
259,174,77228,1,8,0:0:0:0:
259,174,77305,1,0,0:0:0:0:
259,174,77381,1,0,0:0:0:0:
259,174,77458,1,8,0:0:0:0:
259,174,77535,1,0,0:0:0:0:
259,174,77612,1,8,0:0:0:0:
259,174,77689,1,8,0:0:0:0:
259,174,77766,1,0,0:0:0:0:
259,174,77843,1,0,0:0:0:0:
259,174,77920,1,0,0:0:0:0:
259,174,77997,1,0,0:0:0:0:
259,174,78074,1,8,0:0:0:0:
259,174,78151,1,8,0:0:0:0:
259,174,78228,1,8,0:0:0:0:
259,174,78305,1,8,0:0:0:0:
259,174,78381,1,4,0:0:0:0:
266,156,78689,1,8,0:0:0:0:
266,156,78843,1,0,0:0:0:0:
221,128,78920,1,0,0:0:0:0:
266,156,78997,1,8,0:0:0:0:
242,106,79151,1,0,0:0:0:0:
277,130,79305,1,0,0:0:0:0:
242,106,79458,1,8,0:0:0:0:
177,177,79535,1,8,0:0:0:0:
281,206,79612,1,0,0:0:0:0:
281,206,79689,1,0,0:0:0:0:
298,154,79766,1,0,0:0:0:0:
298,154,79920,1,8,0:0:0:0:
297,172,80074,5,0,0:0:0:0:
318,168,80151,1,0,0:0:0:0:
318,168,80228,1,8,0:0:0:0:
192,141,80382,1,0,0:0:0:0:
277,124,80535,1,8,0:0:0:0:
277,124,80612,1,0,0:0:0:0:
277,124,80689,1,0,0:0:0:0:
277,124,80766,1,0,0:0:0:0:
277,124,80843,1,8,0:0:0:0:
238,127,81151,1,0,0:0:0:0:
238,127,81305,1,8,0:0:0:0:
238,127,81382,1,8,0:0:0:0:
238,127,81458,1,0,0:0:0:0:
271,131,81612,1,8,0:0:0:0:
271,131,81766,1,0,0:0:0:0:
271,131,81920,1,8,0:0:0:0:
271,130,81997,1,8,0:0:0:0:
314,193,82074,1,8,0:0:0:0:
314,193,82228,1,0,0:0:0:0:
319,189,82382,1,8,0:0:0:0:
319,189,82535,1,0,0:0:0:0:
319,189,82612,1,0,0:0:0:0:
319,189,82689,1,8,0:0:0:0:
268,159,82843,1,8,0:0:0:0:
268,159,82997,1,8,0:0:0:0:
268,159,83074,1,0,0:0:0:0:
268,159,83151,1,8,0:0:0:0:
268,159,83228,1,8,0:0:0:0:
268,159,83305,1,0,0:0:0:0:
336,188,83458,1,8,0:0:0:0:
336,188,83612,1,0,0:0:0:0:
336,188,83766,1,8,0:0:0:0:
336,188,83843,1,8,0:0:0:0:
336,188,83920,1,0,0:0:0:0:
307,174,84074,1,0,0:0:0:0:
186,181,84228,1,8,0:0:0:0:
186,181,84305,1,0,0:0:0:0:
186,181,84382,1,8,0:0:0:0:
286,137,84689,1,0,0:0:0:0:
286,137,84843,1,8,0:0:0:0:
286,137,84920,1,8,0:0:0:0:
286,137,84997,1,8,0:0:0:0:
256,181,85151,1,0,0:0:0:0:
408,74,85228,1,0,0:0:0:0:
256,181,85305,1,8,0:0:0:0:
256,181,85382,1,0,0:0:0:0:
256,181,85458,1,8,0:0:0:0:
256,181,85535,1,8,0:0:0:0:
256,181,85612,1,0,0:0:0:0:
256,181,85689,1,0,0:0:0:0:
256,181,85766,1,8,0:0:0:0:
286,197,86074,1,8,0:0:0:0:
286,197,86228,1,0,0:0:0:0:
286,197,86305,1,0,0:0:0:0:
286,197,86382,1,8,0:0:0:0:
286,197,86535,1,0,0:0:0:0:
286,197,86689,1,8,0:0:0:0:
286,197,86843,1,0,0:0:0:0:
286,197,87151,1,0,0:0:0:0:
270,127,87305,5,8,0:0:0:0:
228,145,87381,1,8,0:0:0:0:
228,145,87458,1,0,0:0:0:0:
246,190,87612,5,8,0:0:0:0:
246,190,87689,1,0,0:0:0:0:
246,190,87766,1,8,0:0:0:0:
246,190,87843,1,8,0:0:0:0:
246,190,87920,1,0,0:0:0:0:
246,190,87997,1,0,0:0:0:0:
246,190,88074,5,12,0:0:0:0:
