osu file format v14

[General]
AudioFilename: mp3.mp3
AudioLeadIn: 0
PreviewTime: 40379
Countdown: 0
SampleSet: Soft
StackLeniency: 0
Mode: 0
LetterboxInBreaks: 0
WidescreenStoryboard: 1

[Editor]
Bookmarks: 154556
DistanceSpacing: 1.4
BeatDivisor: 4
GridSize: 32
TimelineZoom: 1.8

[Metadata]
Title:Kawaranai Mono
TitleUnicode:かわらないもの
Artist:Numakura Manami
ArtistUnicode:沼倉 愛美
Creator:Hyasalia
Version:Mitsuki
Source:
Tags:
BeatmapID:786682
BeatmapSetID:357661

[Difficulty]
HPDrainRate:7
CircleSize:4.5
OverallDifficulty:8
ApproachRate:9.3
SliderMultiplier:1.7
SliderTickRate:1

[Events]
//Background and Video events
0,0,"bg.jpg",0,0
//Break Periods
//Storyboard Layer 0 (Background)
//Storyboard Layer 1 (Fail)
//Storyboard Layer 2 (Pass)
//Storyboard Layer 3 (Foreground)
//Storyboard Layer 4 (Overlay)
//Storyboard Sound Samples

[TimingPoints]
674,352.941176470588,4,2,0,60,1,0
5791,-66.6666666666667,4,2,0,60,0,0
5968,-83.3333333333333,4,2,0,60,0,0
9497,-100,4,2,0,60,0,0
9850,-83.3333333333333,4,2,0,60,0,0
11615,-100,4,2,0,60,0,0
11968,-83.3333333333333,4,2,0,60,0,0
15144,-100,4,2,0,60,0,0
15497,-83.3333333333333,4,2,0,60,0,0
17615,-125,4,2,0,60,0,0
20085,-71.4285714285714,4,2,0,60,0,0
20438,-100,4,2,0,60,0,0
23438,-125,4,2,0,60,0,0
24497,-100,4,2,0,60,0,0
28909,-100,4,2,0,60,0,0
38615,-200,4,2,0,60,0,0
41615,-83.3333333333333,4,2,0,60,0,1
41879,-100,4,2,0,5,0,1
41968,-83.3333333333333,4,2,0,60,0,1
62791,-83.3333333333333,4,2,0,60,0,0
75497,-125,4,2,0,60,0,0
78321,-100,4,2,0,60,0,0
81144,-125,4,2,0,60,0,0
82909,-100,4,2,0,60,0,0
96497,-200,4,2,0,60,0,0
98791,-83.3333333333333,4,2,0,60,0,0
99497,-100,4,2,0,60,0,1
120673,-200,4,2,0,60,0,0
122085,-166.666666666667,4,2,0,60,0,0
127732,-100,4,2,0,60,0,0
133379,-100,4,2,0,60,0,0
144673,-125,4,2,0,60,0,0
153144,-100,4,2,0,60,0,0
165321,-125,4,2,0,60,0,0
165673,-100,4,2,0,60,0,0
167262,-100,4,2,0,60,0,1
177144,-166.666666666667,4,2,0,60,0,0
178556,-100,4,2,0,60,0,0
178656,-166.666666666667,4,2,0,60,0,0
189850,-83.3333333333333,4,2,0,60,0,0
206615,-100,4,2,0,5,0,0

[Colours]
Combo1 : 0,128,255
Combo2 : 255,128,192
Combo3 : 15,163,251
Combo4 : 128,128,255

[HitObjects]
208,288,674,5,0,0:0:0:0:
276,111,850,1,0,0:0:0:0:
208,288,1026,2,0,L|304:272,1,85
105,185,1379,1,0,0:0:0:0:
291,274,1556,1,0,0:0:0:0:
182,364,1732,2,0,P|133:324|131:267,1,85
32,168,2085,5,0,0:0:0:0:
32,168,2262,1,0,0:0:0:0:
238,32,2438,2,0,L|222:130,1,85
127,305,2791,1,0,0:0:0:0:
323,234,2968,1,0,0:0:0:0:
120,208,3144,2,0,L|106:124,1,85
212,239,3497,5,0,0:0:0:0:
333,30,3673,1,0,0:0:0:0:
212,239,3850,2,0,L|316:259,1,85
474,305,4203,1,0,0:0:0:0:
377,94,4379,1,0,0:0:0:0:
378,305,4556,2,0,P|341:340|277:347,1,85
99,275,4909,5,0,0:0:0:0:
281,171,5085,1,0,0:0:0:0:
100,354,5262,2,0,B|124:370|124:370|94:259,1,127.5
30,248,5615,1,0,0:0:0:0:
78,133,5791,6,0,P|105:147|93:153,1,63.7500024318696
97,153,5968,6,0,P|162:147|192:48,1,152.999995330811
218,45,6321,5,0,0:0:0:0:
329,117,6497,2,0,B|235:159|235:159|230:136|248:112,1,152.999995330811
325,44,6850,2,0,P|371:56|396:84,1,50.9999984436036
436,101,7026,5,0,0:0:0:0:
354,256,7203,2,0,B|391:218|387:162|387:162|410:206,1,152.999995330811
439,323,7556,2,0,P|412:328|388:319,1,50.9999984436036
268,299,7732,6,0,P|345:256|389:267,1,101.999996887207
255,384,8085,2,0,P|203:359|182:303,1,101.999996887207
56,238,8438,1,0,0:0:0:0:
268,299,8615,1,0,0:0:0:0:
31,361,8791,1,0,0:0:0:0:
227,226,8968,1,0,0:0:0:0:
119,94,9144,6,0,L|110:147,1,50.9999984436036
148,217,9321,1,0,0:0:0:0:
71,35,9497,2,0,B|111:85|164:69|164:69|128:36,1,127.5
149,55,9850,5,0,0:0:0:0:
36,111,10026,5,0,0:0:0:0:
20,233,10203,5,0,0:0:0:0:
99,324,10379,6,0,B|137:312|190:326|187:367|187:367|161:343|178:315|237:271,1,203.999993774414
369,243,10909,1,0,0:0:0:0:
121,167,11085,1,0,0:0:0:0:
266,64,11262,1,0,0:0:0:0:
296,292,11438,1,0,0:0:0:0:
266,64,11615,2,0,B|167:43|167:43|183:81,1,127.5
219,174,11968,5,0,0:0:0:0:
332,39,12144,2,0,B|333:23|325:1|325:1|382:38|359:99,1,152.999995330811
309,162,12497,2,0,P|310:198|332:232,1,50.9999984436036
384,294,12673,5,0,0:0:0:0:
214,357,12850,2,0,B|221:286|293:277|293:277|323:320,1,152.999995330811
377,344,13203,2,0,L|386:271,1,50.9999984436036
468,127,13379,6,0,P|485:175|435:218,1,101.999996887207,0|0,0:3|0:3,0:3:0:0:
288,151,13732,2,0,P|283:199|323:229,1,101.999996887207,0|0,0:3|0:3,0:3:0:0:
430,57,14085,1,0,0:3:0:0:
322,228,14262,1,0,0:3:0:0:
309,42,14438,1,0,0:3:0:0:
468,127,14615,1,0,0:3:0:0:
262,126,14791,6,0,L|179:115,1,50.9999984436036
87,167,14968,1,0,0:0:0:0:
118,23,15144,2,0,B|141:88|108:166,1,127.5
11,272,15497,5,0,0:0:0:0:
109,246,15673,1,0,0:0:0:0:
82,344,15850,1,0,0:0:0:0:
11,272,16026,5,0,0:0:0:0:
207,327,16203,1,0,0:0:0:0:
162,128,16379,1,0,0:0:0:0:
97,261,16556,1,0,0:0:0:0:
218,189,16732,5,0,0:0:0:0:
252,198,16821,1,0,0:0:0:0:
286,207,16909,2,0,L|344:190,1,50.9999984436036
446,276,17085,2,0,L|392:237,1,50.9999984436036
415,100,17262,2,0,L|409:150,1,50.9999984436036
512,191,17438,1,0,0:0:0:0:
424,9,17615,5,0,0:0:0:0:
263,30,17791,2,0,L|220:9,2,34
339,77,18144,1,0,0:0:0:0:
258,119,18321,1,0,0:0:0:0:
263,30,18497,1,0,0:0:0:0:
339,77,18673,1,0,0:0:0:0:
304,162,18850,6,0,P|275:146|257:118,1,68
395,281,19203,2,0,L|385:347,1,34
252,284,19379,1,0,0:0:0:0:
382,192,19556,1,0,0:0:0:0:
134,294,19732,1,0,0:0:0:0:
286,369,19909,1,0,0:0:0:0:
273,177,20085,6,0,P|235:150|151:164,1,118.999996368408
20,217,20438,6,0,L|105:207,1,85
126,226,20703,1,0,0:0:0:0:
126,226,20791,1,0,0:0:0:0:
93,93,20968,2,0,L|98:36,1,42.5
183,16,21144,1,0,0:0:0:0:
242,124,21321,2,0,P|287:163|293:222,1,85
202,352,21673,6,0,P|262:350|319:284,1,127.5
346,237,22026,1,0,0:0:0:0:
421,348,22203,1,0,0:0:0:0:
231,270,22379,1,0,0:0:0:0:
231,270,22468,1,0,0:0:0:0:
231,270,22556,5,0,0:0:0:0:
434,217,22732,1,0,0:0:0:0:
337,322,22909,1,0,0:0:0:0:
370,106,23085,1,0,0:0:0:0:
425,308,23262,1,0,0:0:0:0:
434,217,23438,6,0,L|482:228,2,34
355,184,23791,1,0,0:0:0:0:
270,209,23968,1,0,0:0:0:0:
291,124,24144,1,0,0:0:0:0:
355,184,24321,1,0,0:0:0:0:
269,47,24497,6,0,P|222:85|215:143,1,85
214,256,24850,2,0,P|186:249|166:214,1,42.5
38,193,25026,2,0,P|87:157|169:169,1,127.5
295,247,25379,6,0,L|288:315,1,42.5
230,366,25556,1,0,0:0:0:0:
445,285,25732,1,0,0:0:0:0:
304,164,25909,1,0,0:0:0:0:
277,125,25997,1,0,0:0:0:0:
286,78,26085,2,0,B|374:97|374:97|345:47,1,127.5
357,32,26438,1,0,0:0:0:0:
225,27,26615,6,0,P|208:70|216:97,1,42.5
227,183,26791,1,0,0:0:0:0:
83,46,26968,1,0,0:0:0:0:
83,46,27056,1,0,0:0:0:0:
83,46,27144,1,0,0:0:0:0:
12,190,27321,6,0,P|69:196|131:165,1,127.5
196,107,27673,1,0,0:0:0:0:
351,163,27850,1,0,0:0:0:0:
169,233,28026,1,0,0:0:0:0:
169,233,28115,1,0,0:0:0:0:
169,233,28203,5,0,0:0:0:0:
351,163,28379,1,0,0:0:0:0:
196,107,28556,1,0,0:0:0:0:
277,240,28732,1,0,0:0:0:0:
372,30,28909,5,0,0:0:0:0:
357,255,29085,1,0,0:0:0:0:
357,255,29173,1,0,0:0:0:0:
357,255,29262,1,0,0:0:0:0:
483,208,29438,1,0,0:0:0:0:
330,98,29615,1,0,0:0:0:0:
449,281,29791,1,0,0:0:0:0:
298,316,29968,1,0,0:0:0:0:
434,145,30144,6,0,B|455:39|455:39|398:65,1,170
188,138,30673,1,0,0:0:0:0:
316,34,30850,2,0,L|312:89,1,42.5
335,174,31026,1,0,0:0:0:0:
243,311,31203,1,0,0:0:0:0:
244,277,31291,1,0,0:0:0:0:
232,245,31379,2,0,P|191:203|193:124,1,127.5
150,41,31732,6,0,P|80:24|85:85,1,127.5
34,134,32085,1,0,0:0:0:0:
249,80,32262,1,0,0:0:0:0:
107,272,32438,2,0,P|106:227|141:173,1,85
114,153,32703,1,0,0:0:0:0:
114,153,32791,1,0,0:0:0:0:
320,11,32968,6,0,B|345:41|345:41|326:156,1,127.5
267,173,33321,1,0,0:0:0:0:
495,125,33497,1,0,0:0:0:0:
309,246,33673,1,0,0:0:0:0:
421,67,33850,1,0,0:0:0:0:
437,236,34026,1,0,0:0:0:0:
214,122,34203,2,0,P|221:80|249:49,1,85
267,173,34556,6,0,L|112:153,1,127.5
110,69,34909,1,0,0:0:0:0:
191,316,35085,1,0,0:0:0:0:
17,252,35262,2,0,P|59:221|118:217,1,85
121,234,35526,1,0,0:0:0:0:
121,234,35615,1,0,0:0:0:0:
245,248,35791,6,0,L|235:153,1,85
141,32,36144,2,0,L|129:134,1,85
39,320,36497,1,0,0:0:0:0:
131,116,36673,1,0,0:0:0:0:
169,286,36850,1,0,0:0:0:0:
42,104,37026,1,0,0:0:0:0:
217,22,37203,5,0,0:0:0:0:
244,54,37291,1,0,0:0:0:0:
248,96,37379,2,0,P|223:147|228:209,1,85
362,321,37732,2,0,P|399:332|418:298,1,85
256,285,38085,1,0,0:0:0:0:
149,320,38262,2,0,P|111:331|93:297,1,85
85,125,38615,6,0,P|61:152|54:190,1,63.75
116,224,38968,5,0,0:0:0:0:
208,210,39144,1,0,0:0:0:0:
294,147,39321,1,0,0:0:0:0:
317,30,39497,1,0,0:0:0:0:
234,6,39673,5,0,0:0:0:0:
284,123,39850,1,0,0:0:0:0:
385,154,40026,1,0,0:0:0:0:
475,134,40203,2,0,P|478:153|460:138,1,42.5
308,253,41615,6,0,B|418:286|418:286|365:313,1,152.999995330811
308,342,41968,1,0,0:0:0:0:
217,135,42144,1,0,0:0:0:0:
217,135,42232,1,0,0:0:0:0:
217,135,42321,1,0,0:0:0:0:
186,235,42497,1,0,0:0:0:0:
422,163,42673,1,0,0:0:0:0:
367,18,42850,6,0,L|356:125,1,101.999996887207
273,257,43203,1,0,0:0:0:0:
155,102,43379,2,0,P|236:63|271:74,1,101.999996887207
244,65,43644,1,0,0:0:0:0:
244,65,43732,1,0,0:0:0:0:
309,190,43909,1,0,0:0:0:0:
117,29,44085,2,0,P|75:82|75:128,1,101.999996887207
6,245,44438,6,0,P|71:257|163:209,1,152.999995330811
217,165,44791,1,0,0:0:0:0:
164,311,44968,1,0,0:0:0:0:
164,311,45056,1,0,0:0:0:0:
164,311,45144,1,0,0:0:0:0:
331,247,45321,1,0,0:0:0:0:
179,93,45497,1,0,0:0:0:0:
319,171,45673,1,0,0:0:0:0:
374,36,45850,6,0,B|340:62|340:62|318:171,1,152.999995330811
374,310,46203,2,0,P|382:277|311:260,1,101.999996887207
152,353,46556,5,0,0:3:0:0:
240,266,46732,1,0,0:3:0:0:
71,298,46909,1,0,0:3:0:0:
239,361,47085,1,0,0:3:0:0:
164,112,47262,6,0,L|146:275,1,152.999995330811,0|0,0:3|0:3,0:3:0:0:
71,298,47615,1,0,0:3:0:0:
244,174,47791,1,0,0:3:0:0:
74,114,47968,6,0,L|63:-13,1,101.999996887207
66,13,48232,1,0,0:0:0:0:
66,13,48321,1,0,0:0:0:0:
7,209,48497,1,0,0:0:0:0:
104,293,48673,6,0,P|163:269|252:288,1,152.999995330811
314,338,49026,1,0,0:0:0:0:
488,214,49203,2,0,P|435:213|383:184,1,101.999996887207
162,62,49556,2,0,P|215:82|250:132,1,101.999996887207
313,243,49909,5,0,0:0:0:0:
313,243,49997,1,0,0:0:0:0:
313,243,50085,1,0,0:0:0:0:
362,41,50262,1,0,0:0:0:0:
193,209,50438,5,0,0:0:0:0:
446,135,50615,1,0,0:0:0:0:
250,26,50791,5,0,0:0:0:0:
313,243,50968,1,0,0:0:0:0:
183,79,51144,5,0,0:0:0:0:
446,135,51321,2,0,L|293:152,1,152.999995330811
187,129,51673,5,0,0:0:0:0:
185,104,51761,1,0,0:0:0:0:
183,79,51850,1,0,0:0:0:0:
55,188,52026,5,0,0:0:0:0:
53,222,52115,1,0,0:0:0:0:
52,256,52203,1,0,0:0:0:0:
193,344,52379,5,0,0:0:0:0:
210,304,52468,1,0,0:0:0:0:
245,280,52556,1,0,0:0:0:0:
287,280,52644,1,0,0:0:0:0:
324,298,52732,5,0,0:0:0:0:
324,298,52821,1,0,0:0:0:0:
324,298,52909,2,0,P|325:231|351:177,1,101.999996887207
289,80,53262,1,0,0:0:0:0:
462,196,53438,1,0,0:0:0:0:
462,196,53526,1,0,0:0:0:0:
462,196,53615,1,0,0:0:0:0:
240,164,53791,1,0,0:0:0:0:
411,50,53968,1,0,0:0:0:0:
160,36,54144,2,0,P|144:98|75:173,1,152.999995330811
46,189,54497,1,0,0:0:0:0:
167,313,54673,2,0,P|169:260|206:210,1,101.999996887207
195,220,54938,1,0,0:0:0:0:
195,220,55026,1,0,0:0:0:0:
253,77,55203,1,0,0:0:0:0:
350,137,55379,2,0,L|184:131,1,152.999995330811
138,54,55732,2,0,L|251:43,1,101.999996887207
