osu file format v14

[General]
AudioFilename: audio.mp3
AudioLeadIn: 0
PreviewTime: 267618
Countdown: 0
SampleSet: Normal
StackLeniency: 0.7
Mode: 1
LetterboxInBreaks: 0
WidescreenStoryboard: 0

[Editor]
Bookmarks: 28962,38562,43362,77562,115362,117762,120162,136962,201762
DistanceSpacing: 1
BeatDivisor: 8
GridSize: 16
TimelineZoom: 3.699998

[Metadata]
Title:Chaotic Prayers
TitleUnicode:Chaotic Prayers
Artist:Null Specification
ArtistUnicode:Null Specification
Creator:Hana Hayashi
Version:Wish Upon a Collapsing Star
Source:さくら、もゆ。-as the Night's, Reincarnation-
Tags:electronic japanese psycore jcore sakuramoyu sakura moyu rinne yamamoto mineko 山本美禰子 sasaki sayaka 佐咲紗花 j-core hardcore bootleg remix mashup eroge galgame favorite
BeatmapID:3945382
BeatmapSetID:1912643

[Difficulty]
HPDrainRate:5
CircleSize:2
OverallDifficulty:6.5
ApproachRate:10
SliderMultiplier:1.4
SliderTickRate:1

[Events]
//Background and Video events
0,0,"wp5619989-hello-world-anime-wallpapers.jpg",0,100
//Break Periods
2,153856,167606
//Storyboard Layer 0 (Background)
//Storyboard Layer 1 (Fail)
//Storyboard Layer 2 (Pass)
//Storyboard Layer 3 (Foreground)
//Storyboard Layer 4 (Overlay)
//Storyboard Sound Samples

[TimingPoints]
56,300,4,1,0,55,1,0
56,-200,4,1,0,55,0,0
2381,-285.714285714286,4,1,0,55,0,0
4819,-200,4,1,0,55,0,0
7181,-285.714285714286,4,1,0,55,0,0
9619,-200,4,1,0,55,0,0
11981,-285.714285714286,4,1,0,55,0,0
14419,-200,4,1,0,55,0,0
16781,-285.714285714286,4,1,0,55,0,0
18876,-125,4,1,0,55,0,0
18951,-122.664885083683,4,1,0,55,0,0
19026,-118.18006523993,4,1,0,55,0,0
19101,-112.571712731112,4,1,0,55,0,0
19176,-106.388598591936,4,1,0,55,0,0
19252,-100,4,1,0,85,0,0
28551,-100,4,1,0,85,0,0
28626,-98.3773783872122,4,1,0,85,0,0
28701,-96.0972393526304,4,1,0,85,0,0
28776,-93.5629962302107,4,1,0,85,0,0
28851,-90.9090909090909,4,1,0,85,0,0
28927,-99.7506235859591,4,1,0,85,0,0
38447,-90.7029478427402,4,1,0,85,0,0
38746,-90.9090909090909,4,1,0,85,0,0
38817,-91.4231383599794,4,1,0,85,0,0
38892,-91.9400925034674,4,1,0,85,0,0
39042,-92.9827867050076,4,1,0,85,0,0
39117,-93.508559914312,4,1,0,85,0,0
39192,-94.0373061197743,4,1,0,85,0,0
39342,-95.1037848577183,4,1,0,85,0,0
39417,-95.6415512976539,4,1,0,85,0,0
39492,-96.1823585497333,4,1,0,85,0,0
39642,-97.2731643649056,4,1,0,85,0,0
39717,-97.8231976089037,4,1,0,85,0,0
39792,-98.3763410279586,4,1,0,85,0,0
39942,-99.4920288368948,4,1,0,85,0,0
40017,-100.054608698775,4,1,0,85,0,0
40092,-100.620369680839,4,1,0,85,0,0
40242,-101.761507058084,4,1,0,85,0,0
40317,-102.336919734404,4,1,0,85,0,0
40392,-102.915586094337,4,1,0,85,0,0
40467,-103.497524535911,4,1,0,85,0,0
40542,-104.082753561181,4,1,0,85,0,0
40696,-105.263157894737,4,1,0,85,0,0
40846,-90.9090909090909,4,1,0,85,0,0
40921,-91.3544311152941,4,1,0,85,0,0
40996,-91.8019529283891,4,1,0,85,0,0
41146,-92.7035841761279,4,1,0,85,0,0
41221,-93.1577151423484,4,1,0,85,0,0
41296,-93.6140707791285,4,1,0,85,0,0
41446,-94.5334997101048,4,1,0,85,0,0
41521,-94.9965949608989,4,1,0,85,0,0
41596,-95.4619587959723,4,1,0,85,0,0
41746,-96.3995367262364,4,1,0,85,0,0
41821,-96.8717732114355,4,1,0,85,0,0
41896,-97.3463230614652,4,1,0,85,0,0
42046,-98.3024082418443,4,1,0,85,0,0
42121,-98.783966404168,4,1,0,85,0,0
42196,-99.267883595816,4,1,0,85,0,0
42346,-100.242841348803,4,1,0,85,0,0
42421,-100.733905192806,4,1,0,85,0,0
42496,-101.227374632019,4,1,0,85,0,0
42646,-102.221577491363,4,1,0,85,0,0
42721,-102.722334653746,4,1,0,85,0,0
42796,-103.225544896406,4,1,0,85,0,0
42871,-103.731220236351,4,1,0,85,0,0
42946,-104.239372749459,4,1,0,85,0,0
43096,-105.263157894737,4,1,0,85,0,0
43242,-90.9090909090909,4,1,0,85,0,0
43374,-100,4,1,0,85,0,0
43842,-95.2380952380952,4,1,0,85,0,0
44124,-105.263157894737,4,1,0,85,0,0
44442,-100,4,1,0,85,0,0
44742,-111.111111111111,4,1,0,85,0,0
45042,-95.2380952380952,4,1,0,85,0,0
45342,-105.263157894737,4,1,0,85,0,0
45642,-90.9090909090909,4,1,0,85,0,0
45942,-100,4,1,0,85,0,0
46084,-95.2380952380952,4,1,0,85,0,0
46374,-105.263157894737,4,1,0,85,0,0
46834,-100.250626480304,4,1,0,85,0,0
47442,-108.695652173913,4,1,0,85,0,0
47592,-105.297636997197,4,1,0,85,0,0
47742,-100.694518725918,4,1,0,85,0,0
47892,-95.8003528118243,4,1,0,85,0,0
47967,-93.343197605558,4,1,0,85,0,0
48042,-90.9090909090909,4,1,0,85,0,0
48174,-100,4,1,0,85,0,0
48646,-90.9090909090909,4,1,0,85,0,0
48717,-91.5169133417952,4,1,0,85,0,0
48792,-92.1287997037061,4,1,0,85,0,0
48934,-93.3648730833016,4,1,0,85,0,0
49017,-93.9891149904543,4,1,0,85,0,0
49092,-94.6175306081877,4,1,0,85,0,0
49242,-95.8869947844711,4,1,0,85,0,0
49317,-96.5280997152517,4,1,0,85,0,0
49392,-97.1734911035773,4,1,0,85,0,0
49542,-98.4772480823048,4,1,0,85,0,0
49617,-99.1356715677543,4,1,0,85,0,0
49692,-99.7984973034151,4,1,0,85,0,0
49842,-101.137473456769,4,1,0,85,0,0
49917,-101.813683333464,4,1,0,85,0,0
49992,-102.494414381013,4,1,0,85,0,0
50142,-103.869561105827,4,1,0,85,0,0
50217,-104.564037848295,4,1,0,85,0,0
50296,-105.263157894737,4,1,0,85,0,0
50442,-95.2380952380952,4,1,0,85,0,0
50592,-97.358646591398,4,1,0,85,0,0
50742,-99.5264136941418,4,1,0,85,0,0
50892,-101.742447842251,4,1,0,85,0,0
50967,-102.868899974728,4,1,0,85,0,0
51042,-104.007823739583,4,1,0,85,0,0
51192,-106.323640019126,4,1,0,85,0,0
51267,-107.500813299034,4,1,0,85,0,0
51342,-108.691019775798,4,1,0,85,0,0
51492,-111.111111111111,4,1,0,85,0,0
51642,-100,4,1,0,85,0,0
51717,-102.669009608034,4,1,0,85,0,0
51792,-105.409255338946,4,1,0,85,0,0
51867,-108.2226384917,4,1,0,85,0,0
51942,-111.111111111111,4,1,0,85,0,0
52092,-117.647058823529,4,1,0,85,0,0
52842,-116.279069767442,4,1,0,85,0,0
52917,-115.616933580381,4,1,0,85,0,0
52987,-114.835827874487,4,1,0,85,0,0
53142,-114.402300572827,4,1,0,85,0,0
53292,-113.453625300726,4,1,0,85,0,0
53442,-112.40236007579,4,1,0,85,0,0
53517,-111.840720451893,4,1,0,85,0,0
53592,-111.256445370278,4,1,0,85,0,0
53742,-110.024221192008,4,1,0,85,0,0
53817,-109.378425850875,4,1,0,85,0,0
53892,-108.714294576615,4,1,0,85,0,0
54042,-107.335412167159,4,1,0,85,0,0
54117,-106.622854443279,4,1,0,85,0,0
54192,-105.896340773344,4,1,0,85,0,0
54267,-102.959855387244,4,1,0,85,0,0
54342,-104.405758213178,4,1,0,85,0,0
54417,-103.643813547925,4,1,0,85,0,0
54492,-102.872156123964,4,1,0,85,0,0
54642,-101.303755823735,4,1,0,85,0,0
54717,-100.508983943733,4,1,0,85,0,0
54792,-99.7084377387966,4,1,0,85,0,0
54942,-98.0936844104637,4,1,0,85,0,0
55018,-97.1407945518494,4,1,0,85,0,0
55092,-96.4665366690047,4,1,0,85,0,0
55167,-95.6503864034186,4,1,0,85,0,0
55242,-94.8335622226188,4,1,0,85,0,0
55392,-93.20083565487,4,1,0,85,0,0
55542,-91.5739286512452,4,1,0,85,0,0
55692,-89.9579091765453,4,1,0,85,0,0
55842,-88.3573482894675,4,1,0,85,0,0
55992,-86.7763332976255,4,1,0,85,0,0
56142,-85.2184860138691,4,1,0,85,0,0
56217,-84.4492601962195,4,1,0,85,0,0
56292,-83.6869849621186,4,1,0,85,0,0
56442,-82.184590488142,4,1,0,85,0,0
56517,-81.4450631196158,4,1,0,85,0,0
56592,-80.7136718492435,4,1,0,85,0,0
56667,-79.9906563657734,4,1,0,85,0,0
56742,-79.2762354796739,4,1,0,85,0,0
56817,-78.5706080240207,4,1,0,85,0,0
56892,-77.8739537501963,4,1,0,85,0,0
56967,-77.1864342150439,4,1,0,85,0,0
57042,-76.5081936565079,4,1,0,85,0,0
57117,-75.8393598551469,4,1,0,85,0,0
57192,-75.1800449792539,4,1,0,85,0,0
57259,-74.5303464116284,4,1,0,85,0,0
57342,-73.8903475563449,4,1,0,85,0,0
57417,-73.2601186241345,4,1,0,85,0,0
57492,-72.6397173952467,4,1,0,85,0,0
57567,-72.0291899588917,4,1,0,85,0,0
57656,-71.4285714285714,4,1,0,85,0,1
57947,-111.111111111111,4,1,0,85,0,1
58097,-112.675528280366,4,1,0,85,0,1
58397,-115.870752577279,4,1,0,85,0,1
58547,-117.502184329996,4,1,0,85,0,1
58847,-120.834281725424,4,1,0,85,0,1
59147,-124.260869900883,4,1,0,85,0,1
59297,-126.010432445939,4,1,0,85,0,1
59597,-129.583804601904,4,1,0,85,0,1
59747,-131.408312760893,4,1,0,85,0,1
59897,-133.258509546887,4,1,0,85,0,1
60047,-135.134756649447,4,1,0,85,0,1
60347,-138.966874096718,4,1,0,85,0,1
60497,-140.923493570869,4,1,0,85,0,1
60797,-144.919766564088,4,1,0,85,0,1
60947,-146.960201302883,4,1,0,85,0,1
61247,-151.12766173594,4,1,0,85,0,1
61547,-155.413301963982,4,1,0,85,0,1
61697,-157.60148310529,4,1,0,85,0,1
61997,-162.070706331779,4,1,0,85,0,1
62147,-164.352622092347,4,1,0,85,0,1
62297,-166.666666666667,4,1,0,85,0,1
62447,-111.111111111111,4,1,0,85,0,1
62747,-113.445640527809,4,1,0,85,0,1
62897,-114.631235170081,4,1,0,85,0,1
63197,-117.039725085273,4,1,0,85,0,1
63347,-118.262880689565,4,1,0,85,0,1
63647,-120.747674254424,4,1,0,85,0,1
63947,-123.284675232327,4,1,0,85,0,1
64097,-124.573095393292,4,1,0,85,0,1
64397,-127.190471394815,4,1,0,85,0,1
64547,-128.51971014504,4,1,0,85,0,1
64697,-129.862840467768,4,1,0,85,0,1
64847,-131.220007540672,4,1,0,85,0,1
65147,-133.977040249639,4,1,0,85,0,1
65297,-135.37720389073,4,1,0,85,0,1
65597,-138.221582474229,4,1,0,85,0,1
65747,-139.666104862796,4,1,0,85,0,1
66047,-142.600596535656,4,1,0,85,0,1
66347,-145.596744122717,4,1,0,85,0,1
66497,-147.118342651853,4,1,0,85,0,1
66797,-150.209411539762,4,1,0,85,0,1
66947,-151.779216009214,4,1,0,85,0,1
67097,-153.365426148902,4,1,0,85,0,1
67247,-154.968213410765,4,1,0,85,0,1
67547,-158.22421408651,4,1,0,85,0,1
67697,-159.87777943839,4,1,0,85,0,1
67997,-163.236933850967,4,1,0,85,0,1
68147,-164.942885999451,4,1,0,85,0,1
68297,-166.666666666667,4,1,0,85,0,1
68447,-111.111111111111,4,1,0,85,0,1
68747,-113.004210733954,4,1,0,85,0,1
68897,-113.962821829604,4,1,0,85,0,1
69197,-115.904508604817,4,1,0,85,0,1
69347,-116.887722834294,4,1,0,85,0,1
69647,-118.879243770407,4,1,0,85,0,1
69947,-120.904696034318,4,1,0,85,0,1
70097,-121.930326693404,4,1,0,85,0,1
70397,-124.007762992692,4,1,0,85,0,1
70547,-125.059716869272,4,1,0,85,0,1
70697,-126.120594436851,4,1,0,85,0,1
70847,-127.190471394815,4,1,0,85,0,1
71147,-129.357529495655,4,1,0,85,0,1
71297,-130.454865269915,4,1,0,85,0,1
71597,-132.67754177608,4,1,0,85,0,1
71747,-133.803041108042,4,1,0,85,0,1
72047,-136.082763487954,4,1,0,85,0,1
72347,-138.401327542065,4,1,0,85,0,1
72497,-139.57538156512,4,1,0,85,0,1
72797,-141.953452484912,4,1,0,85,0,1
72947,-143.157639069943,4,1,0,85,0,1
73097,-144.372040731156,4,1,0,85,0,1
73247,-145.596744122717,4,1,0,85,0,1
73547,-148.077406395189,4,1,0,85,0,1
73697,-149.333542284848,4,1,0,85,0,1
73997,-151.877871738043,4,1,0,85,0,1
74147,-153.166246853325,4,1,0,85,0,1
74447,-155.775877530678,4,1,0,85,0,1
74747,-158.42997082569,4,1,0,85,0,1
74897,-159.773927187409,4,1,0,85,0,1
75197,-162.496138839097,4,1,0,85,0,1
75347,-163.874588373673,4,1,0,85,0,1
75497,-165.264731251444,4,1,0,85,0,1
75647,-166.666666666667,4,1,0,85,0,1
75952,-166.666666666667,4,1,0,85,0,1
76026,-163.171480527525,4,1,0,85,0,1
76101,-158.316571486911,4,1,0,85,0,1
76176,-152.996749280508,4,1,0,85,0,1
76251,-147.509782755896,4,1,0,85,0,1
76401,-136.612021857924,4,1,0,85,0,1
76551,-123.597062853889,4,1,0,85,0,1
76626,-117.310321928539,4,1,0,85,0,1
76701,-111.26035943391,4,1,0,85,0,1
76776,-105.48353353126,4,1,0,85,0,1
76856,-100,4,1,0,85,0,0
92451,-99.7506234413965,4,1,0,85,0,0
92601,-99.0851306875702,4,1,0,85,0,0
92676,-98.6284609772766,4,1,0,85,0,0
92751,-98.1278197442787,4,1,0,85,0,0
92901,-97.0322532929115,4,1,0,85,0,0
93051,-95.8476611698483,4,1,0,85,0,0
93201,-94.6019433507567,4,1,0,85,0,0
93276,-93.9622097438296,4,1,0,85,0,0
93351,-93.3137202946003,4,1,0,85,0,0
93501,-91.9964853274945,4,1,0,85,0,0
93651,-90.6604970199831,4,1,0,85,0,0
93801,-89.3137927336399,4,1,0,85,0,0
93876,-88.638480169042,4,1,0,85,0,0
93951,-87.96279359989,4,1,0,85,0,0
94101,-86.6126951238166,4,1,0,85,0,0
94251,-85.2677348353799,4,1,0,85,0,0
94401,-83.9313843848277,4,1,0,85,0,0
94476,-83.2673492481882,4,1,0,85,0,0
94551,-82.6064925615041,4,1,0,85,0,0
94701,-81.2953949468461,4,1,0,85,0,0
94776,-80.6456300653818,4,1,0,85,0,0
94851,-80,4,1,0,85,0,0
95151,-78.8078997503781,4,1,0,85,0,0
95451,-75.5998083757848,4,1,0,85,0,0
95751,-71.2584959564457,4,1,0,85,0,0
96051,-66.7378537106247,4,1,0,85,0,0
96131,-99.5332513059988,4,1,0,85,0,0
100851,-100,4,1,0,85,0,0
101001,-99.5169170317918,4,1,0,85,0,0
101301,-98.0153830988108,4,1,0,85,0,0
101751,-95.251116524662,4,1,0,85,0,0
102051,-93.2429403037519,4,1,0,85,0,0
102501,-90.1200093930617,4,1,0,85,0,0
102951,-86.9565217391304,4,1,0,85,0,0
103247,-83.3194467588735,4,1,0,85,0,0
103397,-85.6931866905062,4,1,0,85,0,0
103547,-88.1398008437593,4,1,0,85,0,0
103697,-90.6618313689937,4,1,0,85,0,0
104147,-83.1739166597355,4,1,0,85,0,0
104297,-86.752699103627,4,1,0,85,0,0
104447,-90.497737556561,4,1,0,85,0,0
104739,-83.166999334664,4,1,0,85,0,0
104901,-86.5800865800866,4,1,0,85,0,0
105197,-81.6326530612245,4,1,0,85,0,0
105347,-79.706313161756,4,1,0,85,0,0
105497,-76.0602091328459,4,1,0,85,0,0
105647,-71.5973365790793,4,1,0,85,0,0
106251,-142.857142857143,4,1,0,85,0,0
112847,-125,4,1,0,85,0,0
112918,-124.484236439042,4,1,0,85,0,0
112993,-123.737657568393,4,1,0,85,0,0
113143,-121.936980778892,4,1,0,85,0,0
113218,-120.939627043746,4,1,0,85,0,0
113368,-118.821828236609,4,1,0,85,0,0
113443,-117.718860867419,4,1,0,85,0,0
113518,-116.595112513853,4,1,0,85,0,0
113593,-115.455545874979,4,1,0,85,0,0
113668,-114.304296803344,4,1,0,85,0,0
113743,-113.14485856331,4,1,0,85,0,0
113893,-110.812916420834,4,1,0,85,0,0
113968,-109.645187820267,4,1,0,85,0,0
114043,-108.47894667647,4,1,0,85,0,0
114118,-107.31586491116,4,1,0,85,0,0
114193,-106.157400109919,4,1,0,85,0,0
114343,-103.859246688598,4,1,0,85,0,0
114418,-102.721635529188,4,1,0,85,0,0
114493,-101.592833066357,4,1,0,85,0,0
114568,-100.473570979914,4,1,0,85,0,0
114643,-99.364482674834,4,1,0,85,0,0
114793,-97.1789333762054,4,1,0,85,0,0
114868,-96.103338833981,4,1,0,85,0,0
114943,-95.0396666585441,4,1,0,85,0,0
114980,-94.5194012345022,4,1,0,85,0,0
115018,-93.9881972581145,4,1,0,85,0,0
115093,-92.9491610856376,4,1,0,85,0,0
115130,-92.4412082039711,4,1,0,85,0,0
115168,-91.9227438047281,4,1,0,85,0,0
115243,-90.9090909090909,4,1,0,85,0,0
115397,-100,4,1,0,85,0,0
115468,-99.6360209020725,4,1,0,85,0,0
115543,-99.2733666119824,4,1,0,85,0,0
115618,-98.9120323077059,4,1,0,85,0,0
115693,-98.5520131847706,4,1,0,85,0,0
115768,-98.1933044561913,4,1,0,85,0,0
115843,-97.8359013524065,4,1,0,85,0,0
115918,-97.4797991212148,4,1,0,85,0,0
115993,-97.1249930277119,4,1,0,85,0,0
116068,-96.7714783542275,4,1,0,85,0,0
116143,-96.4192504002627,4,1,0,85,0,0
116218,-96.0683044824274,4,1,0,85,0,0
116293,-95.7186359343781,4,1,0,85,0,0
116368,-95.3702401067557,4,1,0,85,0,0
116443,-95.0231123671238,4,1,0,85,0,0
116518,-94.6772480999074,4,1,0,85,0,0
116593,-94.3326427063308,4,1,0,85,0,0
116668,-93.9892916043572,4,1,0,85,0,0
116743,-93.6471902286272,4,1,0,85,0,0
116818,-93.3063340303987,4,1,0,85,0,0
116893,-92.9667184774856,4,1,0,85,0,0
116968,-92.6283390541985,4,1,0,85,0,0
117043,-92.2911912612838,4,1,0,85,0,0
117118,-91.9552706158645,4,1,0,85,0,0
117193,-91.6205726513802,4,1,0,85,0,0
117268,-91.2870929175277,4,1,0,85,0,0
117343,-90.9548269802023,4,1,0,85,0,0
117418,-90.6237704214383,4,1,0,85,0,0
117493,-90.2939188393504,4,1,0,85,0,0
117568,-89.9652678480756,4,1,0,85,0,0
117643,-89.6378130777142,4,1,0,85,0,0
117718,-89.311550174272,4,1,0,85,0,0
117793,-88.9864747996027,4,1,0,85,0,0
117868,-88.6625826313496,4,1,0,85,0,0
117943,-88.3398693628888,4,1,0,85,0,0
118018,-88.0183307032715,4,1,0,85,0,0
118093,-87.6979623771669,4,1,0,85,0,0
118168,-87.3787601248058,4,1,0,85,0,0
118243,-87.0607197019233,4,1,0,85,0,0
118318,-86.7438368797031,4,1,0,85,0,0
118393,-86.4281074447207,4,1,0,85,0,0
118468,-86.1135271988876,4,1,0,85,0,0
118543,-85.8000919593956,4,1,0,85,0,0
118618,-85.4877975586608,4,1,0,85,0,0
118693,-85.1766398442688,4,1,0,85,0,0
118768,-84.8666146789187,4,1,0,85,0,0
118843,-84.5577179403688,4,1,0,85,0,0
118918,-84.2499455213814,4,1,0,85,0,0
118993,-83.9432933296683,4,1,0,85,0,0
119068,-83.6377572878364,4,1,0,85,0,0
119143,-83.3333333333333,4,1,0,85,0,0
119223,-100,4,1,0,85,0,0
120047,-100,4,1,0,85,0,0
120122,-99.6208838899835,4,1,0,85,0,0
120197,-99.2432050702157,4,1,0,85,0,0
120272,-98.8669580916978,4,1,0,85,0,0
120347,-98.4921375260889,4,1,0,85,0,0
120422,-98.1187379656278,4,1,0,85,0,0
120497,-97.7467540230552,4,1,0,85,0,0
120572,-97.3761803315356,4,1,0,85,0,0
120647,-97.00701154458,4,1,0,85,0,0
120722,-96.6392423359689,4,1,0,85,0,0
120797,-96.2728673996754,4,1,0,85,0,0
120872,-95.9078814497884,4,1,0,85,0,0
120947,-95.5442792204367,4,1,0,85,0,0
121022,-95.1820554657128,4,1,0,85,0,0
121097,-94.8212049595975,4,1,0,85,0,0
121172,-94.4617224958838,4,1,0,85,0,0
121247,-94.1036028881028,4,1,0,85,0,0
121322,-93.7468409694481,4,1,0,85,0,0
121397,-93.3914315927013,4,1,0,85,0,0
121472,-93.0373696301584,4,1,0,85,0,0
121547,-92.6846499735548,4,1,0,85,0,0
121622,-92.3332675339926,4,1,0,85,0,0
121697,-91.9832172418666,4,1,0,85,0,0
121772,-91.6344940467912,4,1,0,85,0,0
121847,-91.2870929175277,4,1,0,85,0,0
121922,-90.9410088419116,4,1,0,85,0,0
121997,-90.5962368267804,4,1,0,85,0,0
122072,-90.2527718979013,4,1,0,85,0,0
122147,-89.9106090998999,4,1,0,85,0,0
122222,-89.5697434961882,4,1,0,85,0,0
122297,-89.2301701688937,4,1,0,85,0,0
122372,-88.8918842187882,4,1,0,85,0,0
122447,-88.5548807652176,4,1,0,85,0,0
122522,-88.2191549460307,4,1,0,85,0,0
122597,-87.8847019175099,4,1,0,85,0,0
122672,-87.5515168543006,4,1,0,85,0,0
122747,-87.2195949493421,4,1,0,85,0,0
122822,-86.888931413798,4,1,0,85,0,0
122897,-86.5595214769871,4,1,0,85,0,0
122972,-86.2313603863146,4,1,0,85,0,0
123047,-85.9044434072037,4,1,0,85,0,0
123122,-85.578765823027,4,1,0,85,0,0
123197,-85.2543229350386,4,1,0,85,0,0
123272,-84.9311100623063,4,1,0,85,0,0
123347,-84.6091225416443,4,1,0,85,0,0
123422,-84.2883557275453,4,1,0,85,0,0
123497,-83.9688049921141,4,1,0,85,0,0
123572,-83.6504657250007,4,1,0,85,0,0
123647,-83.3333333333333,4,1,0,85,0,0
123723,-100,4,1,0,85,0,0
124997,-100,4,1,0,85,0,0
125068,-99.7665273866324,4,1,0,85,0,0
125143,-99.5335998678768,4,1,0,85,0,0
125218,-99.3012161710865,4,1,0,85,0,0
125293,-99.0693750265861,4,1,0,85,0,0
125368,-98.8380751676646,4,1,0,85,0,0
125443,-98.6073153305685,4,1,0,85,0,0
125518,-98.3770942544946,4,1,0,85,0,0
125593,-98.1474106815836,4,1,0,85,0,0
125668,-97.9182633569127,4,1,0,85,0,0
125743,-97.6896510284892,4,1,0,85,0,0
125818,-97.4615724472433,4,1,0,85,0,0
125893,-97.2340263670216,4,1,0,85,0,0
125968,-97.00701154458,4,1,0,85,0,0
126043,-96.7805267395771,4,1,0,85,0,0
126118,-96.5545707145674,4,1,0,85,0,0
126193,-96.3291422349942,4,1,0,85,0,0
126268,-96.1042400691837,4,1,0,85,0,0
126343,-95.8798629883371,4,1,0,85,0,0
126418,-95.656009766525,4,1,0,85,0,0
126493,-95.43267918068,4,1,0,85,0,0
126568,-95.2098700105902,4,1,0,85,0,0
126643,-94.9875810388926,4,1,0,85,0,0
126718,-94.7658110510664,4,1,0,85,0,0
126793,-94.5445588354266,4,1,0,85,0,0
126868,-94.3238231831167,4,1,0,85,0,0
126943,-94.1036028881028,4,1,0,85,0,0
127018,-93.883896747167,4,1,0,85,0,0
127093,-93.6647035599001,4,1,0,85,0,0
127168,-93.4460221286958,4,1,0,85,0,0
127243,-93.2278512587439,4,1,0,85,0,0
127318,-93.0101897580237,4,1,0,85,0,0
127393,-92.7930364372975,4,1,0,85,0,0
127468,-92.5763901101042,4,1,0,85,0,0
127543,-92.3602495927529,4,1,0,85,0,0
127618,-92.1446137043158,4,1,0,85,0,0
127693,-91.9294812666229,4,1,0,85,0,0
127768,-91.7148511042545,4,1,0,85,0,0
127843,-91.5007220445353,4,1,0,85,0,0
127918,-91.2870929175277,4,1,0,85,0,0
127993,-91.0739625560259,4,1,0,85,0,0
128068,-90.8613297955489,4,1,0,85,0,0
128143,-90.6491934743348,4,1,0,85,0,0
128218,-90.4375524333336,4,1,0,85,0,0
128293,-90.2264055162018,4,1,0,85,0,0
128368,-90.0157515692956,4,1,0,85,0,0
128443,-89.8055894416643,4,1,0,85,0,0
128518,-89.5959179850447,4,1,0,85,0,0
128593,-89.3867360538543,4,1,0,85,0,0
128668,-89.1780425051855,4,1,0,85,0,0
128743,-88.9698361987986,4,1,0,85,0,0
128818,-88.7621159971164,4,1,0,85,0,0
128893,-88.5548807652176,4,1,0,85,0,0
128968,-88.3481293708305,4,1,0,85,0,0
129043,-88.1418606843271,4,1,0,85,0,0
129118,-87.9360735787166,4,1,0,85,0,0
129193,-87.7307669296395,4,1,0,85,0,0
129268,-87.5259396153615,4,1,0,85,0,0
129343,-87.321590516767,4,1,0,85,0,0
129418,-87.1177185173534,4,1,0,85,0,0
129493,-86.9143225032248,4,1,0,85,0,0
129568,-86.7114013630858,4,1,0,85,0,0
129643,-86.5089539882357,4,1,0,85,0,0
129722,-86.3069792725625,4,1,0,85,0,0
129797,-86.1054761125362,4,1,0,85,0,0
129872,-85.9044434072037,4,1,0,85,0,0
129947,-85.7038800581821,4,1,0,85,0,0
130022,-85.5037849696528,4,1,0,85,0,0
130097,-85.304157048356,4,1,0,85,0,0
130172,-85.104995203584,4,1,0,85,0,0
130247,-84.9062983471759,4,1,0,85,0,0
130322,-84.7080653935111,4,1,0,85,0,0
130397,-84.5102952595038,4,1,0,85,0,0
130472,-84.3129868645968,4,1,0,85,0,0
130555,-84.3099232779698,4,1,0,85,0,0
130622,-83.7710589431097,4,1,0,85,0,0
130697,-82.9953696949567,4,1,0,85,0,0
130772,-82.1068820402393,4,1,0,85,0,0
130847,-81.1452665062123,4,1,0,85,0,0
130922,-80.1329877087493,4,1,0,85,0,0
130997,-79.0850421860109,4,1,0,85,0,0
131072,-78.0123095052404,4,1,0,85,0,0
131155,-76.9230769230769,4,1,0,85,0,0
133256,-78.125,4,1,0,100,0,0
133284,-78.7219187747451,4,1,0,100,0,0
133392,-80.5733232594723,4,1,0,100,0,0
133480,-81.8261089229465,4,1,0,100,0,0
133542,-83.0983733897655,4,1,0,100,0,0
133579,-83.7332915238727,4,1,0,100,0,0
133692,-85.7025548988148,4,1,0,100,0,0
133780,-87.035091869576,4,1,0,100,0,0
133842,-88.3883476483184,4,1,0,100,0,0
133884,-89.0636841498222,4,1,0,100,0,0
133992,-91.1583092152138,4,1,0,100,0,0
134067,-92.5756743960393,4,1,0,100,0,0
134142,-94.0150773271598,4,1,0,100,0,0
134184,-94.7334051961607,4,1,0,100,0,0
134292,-96.9613723743429,4,1,0,100,0,0
134334,-97.7022115883627,4,1,0,100,0,0
134456,-100,4,1,0,100,0,0
139855,-96.1538461538461,4,1,0,100,0,0
139905,-97.4191734442478,4,1,0,100,0,0
139955,-98.7011516874286,4,1,0,100,0,0
140005,-100,4,1,0,100,0,0
141055,-96.1538461538461,4,1,0,100,0,0
141105,-97.4191734442478,4,1,0,100,0,0
141155,-98.7011516874286,4,1,0,100,0,0
141205,-100,4,1,0,100,0,0
142255,-96.1538461538461,4,1,0,100,0,0
142305,-97.4025974025974,4,1,0,100,0,0
142355,-98.6842105263158,4,1,0,100,0,0
142405,-100,4,1,0,100,0,0
143455,-96.1538461538461,4,1,0,100,0,0
143505,-97.4025974025974,4,1,0,100,0,0
143555,-98.6842105263158,4,1,0,100,0,0
143605,-100,4,1,0,100,0,0
143755,-98.0392156862745,4,1,0,100,0,0
143830,-96.2077339809453,4,1,0,100,0,0
143905,-94.4434256372639,4,1,0,100,0,0
143980,-92.7426616243472,4,1,0,100,0,0
144055,-91.1020696975058,4,1,0,100,0,0
150055,-91.0995718320124,4,1,0,100,0,0
150205,-90.560017340723,4,1,0,100,0,0
150280,-90.2914396358033,4,1,0,100,0,0
150355,-90.0236584632352,4,1,0,100,0,0
150430,-89.7566714607089,4,1,0,100,0,0
150505,-89.4904762729203,4,1,0,100,0,0
150655,-88.960451955246,4,1,0,100,0,0
150730,-88.6966181495957,4,1,0,100,0,0
150805,-88.4335668071127,4,1,0,100,0,0
150880,-88.1712956072127,4,1,0,100,0,0
150955,-87.9098022361935,4,1,0,100,0,0
151030,-87.6490843872148,4,1,0,100,0,0
151105,-87.3891397602779,4,1,0,100,0,0
151180,-87.1299660622052,4,1,0,100,0,0
151255,-86.8715610066201,4,1,0,100,0,0
151405,-86.3570477112901,4,1,0,100,0,0
151555,-85.8455817185295,4,1,0,100,0,0
151630,-85.5909858163588,4,1,0,100,0,0
151705,-85.3371449801111,4,1,0,100,0,0
151855,-84.8317195547014,4,1,0,100,0,0
152005,-84.3292876072281,4,1,0,100,0,0
152080,-84.0791886431582,4,1,0,100,0,0
152155,-83.8298314082503,4,1,0,100,0,0
152305,-83.3333333333333,4,1,0,100,0,0
152456,-80,4,1,0,100,0,1
152526,-84.7457627118644,4,1,0,100,0,1
152601,-79.6937414209956,4,1,0,100,0,1
152676,-85.1788756388416,4,1,0,100,0,1
152751,-78.8003363123276,4,1,0,100,0,1
152826,-86.5800865800866,4,1,0,100,0,1
152901,-77.3914381836879,4,1,0,100,0,1
152976,-88.8888888888889,4,1,0,100,0,1
153051,-75.5730341542146,4,1,0,100,0,1
153126,-92.0810313075506,4,1,0,100,0,1
153201,-73.4695858188743,4,1,0,100,0,1
153276,-96.3391136801541,4,1,0,100,0,1
153351,-71.2083777340707,4,1,0,100,0,1
153426,-101.419878296146,4,1,0,100,0,1
153501,-68.9071875686661,4,1,0,100,0,1
153576,-107.52688172043,4,1,0,100,0,1
153656,-66.6666666666667,4,1,0,100,0,0
153731,-200,4,1,0,85,0,0
168056,-129.032258064516,4,1,0,85,0,0
171651,-128.205128205128,4,1,0,85,0,0
171951,-120.483908604523,4,1,0,85,0,0
172251,-113.22770341446,4,1,0,85,0,0
172551,-106.408506903565,4,1,0,85,0,0
172851,-100,4,1,0,85,0,0
176593,-117.994100294985,4,1,0,85,0,0
177793,-99.7506234413965,4,1,0,85,0,0
181393,-117.994100616553,4,1,0,85,0,0
182593,-99.6796012815949,4,1,0,85,0,0
182668,-97.0873786407767,4,1,0,85,0,0
182743,-94.62656302805,4,1,0,85,0,0
182893,-100.07147971411,4,1,0,85,0,0
183193,-99.6796012815949,4,1,0,85,0,0
183268,-97.0873786407767,4,1,0,85,0,0
183343,-94.62656302805,4,1,0,85,0,0
183493,-100.07147971411,4,1,0,85,0,0
183793,-99.6796012815949,4,1,0,85,0,0
183868,-97.0873786407767,4,1,0,85,0,0
183943,-94.62656302805,4,1,0,85,0,0
184093,-100.07147971411,4,1,0,85,0,0
184393,-99.6796012815949,4,1,0,85,0,0
184468,-97.0873786407767,4,1,0,85,0,0
184543,-94.62656302805,4,1,0,85,0,0
184693,-100.07147971411,4,1,0,85,0,0
184993,-99.6796012815949,4,1,0,85,0,0
185068,-97.0873786407767,4,1,0,85,0,0
185143,-94.62656302805,4,1,0,85,0,0
185293,-100.07147971411,4,1,0,85,0,0
185593,-99.6796012815949,4,1,0,85,0,0
185668,-97.0873786407767,4,1,0,85,0,0
185743,-94.62656302805,4,1,0,85,0,0
185893,-100.07147971411,4,1,0,85,0,0
186193,-99.6796012815949,4,1,0,85,0,0
186268,-97.0873786407767,4,1,0,85,0,0
186343,-94.62656302805,4,1,0,85,0,0
186493,-117.400419405306,4,1,0,85,0,0
186793,-99.6796012815949,4,1,0,85,0,0
186868,-97.0873786407767,4,1,0,85,0,0
186943,-94.62656302805,4,1,0,85,0,0
187093,-117.746005165047,4,1,0,85,0,0
187393,-99.6796012815949,4,1,0,85,0,0
187468,-97.0873786407767,4,1,0,85,0,0
187543,-94.62656302805,4,1,0,85,0,0
187693,-100.07147971411,4,1,0,85,0,0
187993,-97.2559916637722,4,1,0,85,0,0
188068,-94.7867298578199,4,1,0,85,0,0
188143,-92.4397490921096,4,1,0,85,0,0
188293,-100.07147971411,4,1,0,85,0,0
188601,-94.2599261926993,4,1,0,85,0,0
188676,-91.8106621627474,4,1,0,85,0,0
188751,-89.4854586129754,4,1,0,85,0,0
188893,-100.000000104308,4,1,0,85,0,0
189201,-91.743119266055,4,1,0,85,0,0
189276,-89.2857142857143,4,1,0,85,0,0
189351,-86.9565217391304,4,1,0,85,0,0
189493,-99.7506235563052,4,1,0,85,0,0
189801,-89.2143247906409,4,1,0,85,0,0
189876,-87.017198210401,4,1,0,85,0,0
189951,-84.9256900212314,4,1,0,85,0,0
190093,-100.250626704944,4,1,0,85,0,0
190401,-87.1459694989107,4,1,0,85,0,0
190476,-84.9256900212314,4,1,0,85,0,0
190551,-82.815734989648,4,1,0,85,0,0
190701,-100.033562834426,4,1,0,85,0,0
190776,-100.615781743323,4,1,0,85,0,0
190851,-101.422818714514,4,1,0,85,0,0
191076,-111.111111111111,4,1,0,85,0,0
191451,-115.15219754693,4,1,0,85,0,0
191676,-117.647058823529,4,1,0,85,0,0
192056,-100,4,1,0,85,0,1
192126,-98.6779943046003,4,1,0,85,0,1
192201,-96.8065739949704,4,1,0,85,0,1
192251,-95.4245633575219,4,1,0,85,0,1
192301,-93.9774679348317,4,1,0,85,0,1
192351,-92.4876670782309,4,1,0,85,0,1
192501,-87.9045753980228,4,1,0,85,0,1
192576,-85.6070449068356,4,1,0,85,0,1
192651,-83.3333333333333,4,1,0,85,0,1
192801,-97.5609756097561,4,1,0,85,0,1
192876,-96.6161409481841,4,1,0,85,0,1
192951,-95.267006097098,4,1,0,85,0,1
193001,-94.261830988547,4,1,0,85,0,1
193051,-93.2011437459277,4,1,0,85,0,1
193101,-92.1003144135954,4,1,0,85,0,1
193251,-88.6564070404409,4,1,0,85,0,1
193326,-86.8965795830693,4,1,0,85,0,1
193401,-85.1324841164225,4,1,0,85,0,1
193476,-83.3750549740362,4,1,0,85,0,1
193551,-81.6326530612245,4,1,0,85,0,1
193701,-96.1538461538461,4,1,0,85,0,1
193776,-94.3865467616559,4,1,0,85,0,1
193851,-91.9161403347413,4,1,0,85,0,1
193901,-90.1149673655756,4,1,0,85,0,1
193951,-88.2496887192894,4,1,0,85,0,1
194001,-86.3511377572867,4,1,0,85,0,1
194051,-84.4410053288541,4,1,0,85,0,1
194101,-82.5351017748636,4,1,0,85,0,1
194151,-80.6451612903226,4,1,0,85,0,1
194301,-94.3396226415094,4,1,0,85,0,1
194451,-92.4416247985753,4,1,0,85,0,1
194526,-90.7739979998161,4,1,0,85,0,1
194601,-88.8118873611461,4,1,0,85,0,1
194651,-87.379742488787,4,1,0,85,0,1
194701,-85.8707895789185,4,1,0,85,0,1
194751,-84.3013976239139,4,1,0,85,0,1
194826,-81.8648039743596,4,1,0,85,0,1
194901,-79.3650793650794,4,1,0,85,0,1
195051,-92.5925925925926,4,1,0,85,0,1
195126,-91.627453611011,4,1,0,85,0,1
195201,-89.7275055086011,4,1,0,85,0,1
195251,-88.1334146024255,4,1,0,85,0,1
195301,-86.3490940128815,4,1,0,85,0,1
195351,-84.4209311755128,4,1,0,85,0,1
195426,-81.3407324519556,4,1,0,85,0,1
195501,-78.125,4,1,0,85,0,1
195651,-81.9672131147541,4,1,0,85,0,1
195726,-83.6494035284069,4,1,0,85,0,1
195801,-85.3661170700306,4,1,0,85,0,1
195951,-88.905962112093,4,1,0,85,0,1
196026,-90.7305545497078,4,1,0,85,0,1
196101,-92.5925925925926,4,1,0,85,0,1
196251,-95.2380952380952,4,1,0,85,0,1
196401,-93.7651915241517,4,1,0,85,0,1
196476,-92.769463025115,4,1,0,85,0,1
196551,-91.691585245644,4,1,0,85,0,1
196601,-90.9401753098968,4,1,0,85,0,1
196651,-90.1687915055307,4,1,0,85,0,1
196701,-89.3815914770041,4,1,0,85,0,1
196776,-88.178438667044,4,1,0,85,0,1
196851,-86.9565217391304,4,1,0,85,0,1
197001,-94.3396226415094,4,1,0,85,0,1
197151,-92.0711529970314,4,1,0,85,0,1
197226,-90.0929740160426,4,1,0,85,0,1
197301,-87.7831740074219,4,1,0,85,0,1
197351,-86.1092058134703,4,1,0,85,0,1
197401,-84.3562634593143,4,1,0,85,0,1
197451,-82.5447595389306,4,1,0,85,0,1
197526,-79.7555398714539,4,1,0,85,0,1
197601,-76.9230769230769,4,1,0,85,0,1
197751,-92.5925925925926,4,1,0,85,0,1
197826,-92.2770139352402,4,1,0,85,0,1
197901,-91.3506429523795,4,1,0,85,0,1
198051,-87.9279418659313,4,1,0,85,0,1
198126,-85.6261177990731,4,1,0,85,0,1
198201,-83.0796341406679,4,1,0,85,0,1
198251,-81.3008130081301,4,1,0,85,0,1
198301,-79.4925824973313,4,1,0,85,0,1
198351,-77.6822776730568,4,1,0,85,0,1
198426,-75.0148345311512,4,1,0,85,0,1
198501,-72.463768115942,4,1,0,85,0,1
198651,-92.5925925925926,4,1,0,85,0,1
198801,-89.848252770828,4,1,0,85,0,1
198876,-88.0373266726655,4,1,0,85,0,1
198951,-86.1159373623145,4,1,0,85,0,1
199001,-84.7998035695179,4,1,0,85,0,1
199051,-83.4681112095289,4,1,0,85,0,1
199101,-82.1289658979148,4,1,0,85,0,1
199176,-80.1199773103988,4,1,0,85,0,1
199251,-78.125,4,1,0,85,0,1
199397,-89.2857142857143,4,1,0,85,0,1
199476,-86.1613929509896,4,1,0,85,0,1
199531,-81.9672131147541,4,1,0,85,0,1
199581,-83.1043849429949,4,1,0,85,0,1
199631,-84.2573333203923,4,1,0,85,0,1
199681,-85.426277122843,4,1,0,85,0,1
199855,-91.743119266055,4,1,0,85,0,1
199997,-89.7069546505827,4,1,0,85,0,1
200072,-88.3461393053802,4,1,0,85,0,1
200126,-86.8870929282089,4,1,0,85,0,1
200180,-85.8784845693347,4,1,0,85,0,1
200230,-84.8502616098066,4,1,0,85,0,1
200280,-83.8083935368355,4,1,0,85,0,1
200372,-82.2303420324868,4,1,0,85,0,1
200447,-80.6451612903226,4,1,0,85,0,1
200606,-95.2380952380952,4,1,0,85,0,1
200676,-95.0931446921958,4,1,0,85,0,1
200751,-94.6644599060863,4,1,0,85,0,1
200826,-93.970023304695,4,1,0,85,0,1
200901,-93.0381600311667,4,1,0,85,0,1
201056,-90.613532860652,4,1,0,85,0,1
201126,-89.2075593013647,4,1,0,85,0,1
201201,-87.7325511916541,4,1,0,85,0,1
201356,-84.7457627118644,4,1,0,85,0,1
201501,-100,4,1,0,85,0,1
201576,-97.8096529683343,4,1,0,85,0,1
201656,-94.7741139270913,4,1,0,85,0,1
201701,-92.5799393613119,4,1,0,85,0,1
201751,-90.3243847286794,4,1,0,85,0,1
201801,-88.0458648141555,4,1,0,85,0,1
201876,-84.6406988203382,4,1,0,85,0,1
201951,-81.3008130081301,4,1,0,85,0,1
202101,-97.0873786407767,4,1,0,85,0,1
202176,-95.6565476734063,4,1,0,85,0,1
202251,-93.6385830403729,4,1,0,85,0,1
202326,-91.3856163841676,4,1,0,85,0,1
202401,-89.0147735356544,4,1,0,85,0,1
202451,-87.4022567699489,4,1,0,85,0,1
202501,-85.7800901478835,4,1,0,85,0,1
202551,-84.1583095271879,4,1,0,85,0,1
202626,-81.7429302120053,4,1,0,85,0,1
202701,-79.3650793650794,4,1,0,85,0,1
202851,-94.3396226415094,4,1,0,85,0,1
202926,-93.1894926789718,4,1,0,85,0,1
203001,-90.9373413565824,4,1,0,85,0,1
203076,-88.038111673443,4,1,0,85,0,1
203151,-84.729864287966,4,1,0,85,0,1
203201,-82.3825215668984,4,1,0,85,0,1
203251,-79.9683263960645,4,1,0,85,0,1
203301,-77.5193798449612,4,1,0,85,0,1
203451,-90.9090909090909,4,1,0,85,0,1
203526,-90.5295635971483,4,1,0,85,0,1
203601,-89.4239291723755,4,1,0,85,0,1
203676,-87.6848939969773,4,1,0,85,0,1
203751,-85.4485865680763,4,1,0,85,0,1
203801,-83.7593012384523,4,1,0,85,0,1
203851,-81.9672131147541,4,1,0,85,0,1
203901,-80.1181918800365,4,1,0,85,0,1
203976,-77.3288557682941,4,1,0,85,0,1
204051,-74.6268656716418,4,1,0,85,0,1
204276,-79.8408009205294,4,1,0,85,0,1
204351,-82.4534035900269,4,1,0,85,0,1
204426,-85.4700854700855,4,1,0,85,0,1
204576,-80,4,1,0,85,0,1
204651,-81.0400932205048,4,1,0,85,0,1
204726,-82.6106420286421,4,1,0,85,0,1
204801,-84.524962138453,4,1,0,85,0,1
204876,-86.7502702238435,4,1,0,85,0,1
204951,-89.2857142857143,4,1,0,85,0,1
205101,-95.2380952380952,4,1,0,85,0,1
205176,-94.9454356720401,4,1,0,85,0,1
205251,-94.3564211328202,4,1,0,85,0,1
205326,-93.5654715204722,4,1,0,85,0,1
205401,-92.6146951998153,4,1,0,85,0,1
205551,-90.3423157125895,4,1,0,85,0,1
205626,-89.0616814095596,4,1,0,85,0,1
205701,-87.7068606083393,4,1,0,85,0,1
205851,-84.8285730722611,4,1,0,85,0,1
205926,-83.3281762906952,4,1,0,85,0,1
206001,-81.8001537355612,4,1,0,85,0,1
206076,-80.2530068339858,4,1,0,85,0,1
206151,-78.6942490043648,4,1,0,85,0,1
206301,-75.5675662132961,4,1,0,85,0,1
206376,-74.0105210034112,4,1,0,85,0,1
206451,-72.463768115942,4,1,0,85,0,1
206601,-83.3333333333333,4,1,0,85,0,1
206676,-82.1337884874541,4,1,0,85,0,1
206751,-80.4405965976407,4,1,0,85,0,1
206801,-79.1938563060287,4,1,0,85,0,1
206851,-77.8917127656489,4,1,0,85,0,1
206901,-76.5546664712921,4,1,0,85,0,1
206976,-74.5147669824528,4,1,0,85,0,1
207051,-72.463768115942,4,1,0,85,0,1
207201,-84.7457627118644,4,1,0,85,0,1
207276,-84.3160191958181,4,1,0,85,0,1
207351,-83.6953987421473,4,1,0,85,0,1
207501,-89.2857142857143,4,1,0,85,0,1
207576,-87.9101001443903,4,1,0,85,0,1
207651,-85.9731839652943,4,1,0,85,0,1
207701,-84.5505645112252,4,1,0,85,0,1
207751,-83.0679571311606,4,1,0,85,0,1
207801,-81.5490337341514,4,1,0,85,0,1
207876,-79.2383061154759,4,1,0,85,0,1
207951,-76.9230769230769,4,1,0,85,0,1
208101,-93.4579439252336,4,1,0,85,0,1
208176,-93.3815021576032,4,1,0,85,0,1
208251,-93.153657286524,4,1,0,85,0,1
208326,-92.7787899225434,4,1,0,85,0,1
208393,-92.2640034820696,4,1,0,85,0,1
208555,-80,4,1,0,85,0,1
208605,-81.6776490630091,4,1,0,85,0,1
208655,-83.3055648117294,4,1,0,85,0,1
208705,-84.7561771410439,4,1,0,85,0,1
208851,-86.8960722975321,4,1,0,85,0,1
208926,-85.7520459977315,4,1,0,85,0,1
209001,-84.5816253548927,4,1,0,85,0,1
209051,-83.7920837314087,4,1,0,85,0,1
209101,-82.9998940068481,4,1,0,85,0,1
209151,-82.2089160592786,4,1,0,85,0,1
209226,-81.0326356864995,4,1,0,85,0,1
209301,-79.8785845514818,4,1,0,85,0,1
209451,-100,4,1,0,85,0,1
209601,-95.8631792605752,4,1,0,85,0,1
209676,-93.1877242872991,4,1,0,85,0,1
209751,-90.3949818425641,4,1,0,85,0,1
209801,-88.508665011518,4,1,0,85,0,1
209851,-86.6217000489075,4,1,0,85,0,1
209901,-84.7457627118644,4,1,0,85,0,1
210056,-80,4,1,0,85,0,0
210126,-81.8324658330478,4,1,0,85,0,0
210201,-83.7261648811885,4,1,0,85,0,0
210276,-85.6582235441838,4,1,0,85,0,0
210351,-87.6017992416813,4,1,0,85,0,0
210426,-89.526157494889,4,1,0,85,0,0
210501,-91.397022259855,4,1,0,85,0,0
210576,-93.1772535703926,4,1,0,85,0,0
210651,-94.8278852154627,4,1,0,85,0,0
210701,-95.8368192072241,4,1,0,85,0,0
210751,-96.7591819180938,4,1,0,85,0,0
210801,-97.5840356194879,4,1,0,85,0,0
210909,-101.76698402419,4,1,0,85,0,0
210947,-100.931846570063,4,1,0,85,0,0
211059,-95.7752541119938,4,1,0,85,0,0
211097,-93.3979558588136,4,1,0,85,0,0
211256,-83.3333333333333,4,1,0,85,0,1
211401,-94.3396226415094,4,1,0,85,0,1
211476,-96.1279863801943,4,1,0,85,0,1
211551,-97.9502515144147,4,1,0,85,0,1
211626,-99.8070607012512,4,1,0,85,0,1
211701,-101.699068780413,4,1,0,85,0,1
211776,-103.626943005181,4,1,0,85,0,1
211851,-98.5221674876847,4,1,0,85,0,1
211926,-96.5607651857621,4,1,0,85,0,1
212001,-93.8292468824759,4,1,0,85,0,1
212076,-90.8266650295644,4,1,0,85,0,1
212151,-87.719298245614,4,1,0,85,0,1
212301,-98.0392156862745,4,1,0,85,0,1
212376,-96.8025284533963,4,1,0,85,0,1
212451,-95.0492856381981,4,1,0,85,0,1
212601,-90.9914455736278,4,1,0,85,0,1
212676,-88.842074128387,4,1,0,85,0,1
212751,-86.6674981979745,4,1,0,85,0,1
212801,-85.2165456947994,4,1,0,85,0,1
212851,-83.7713069920639,4,1,0,85,0,1
212901,-82.3362633364135,4,1,0,85,0,1
212976,-80.2105133444187,4,1,0,85,0,1
213051,-78.125,4,1,0,85,0,1
213197,-81.799591002045,4,1,0,85,0,1
213342,-86.053985385841,4,1,0,85,0,1
213417,-88.263453582386,4,1,0,85,0,1
213492,-90.5296506996155,4,1,0,85,0,1
213567,-92.8540332737435,4,1,0,85,0,1
213647,-95.2380952380952,4,1,0,85,0,1
213801,-98.2270469561764,4,1,0,85,0,1
213951,-96.9964089418246,4,1,0,85,0,1
214026,-96.1054163639199,4,1,0,85,0,1
214101,-95.0518906757186,4,1,0,85,0,1
214176,-93.8546975794447,4,1,0,85,0,1
214251,-92.5342038582434,4,1,0,85,0,1
214401,-89.6081510277937,4,1,0,85,0,1
214476,-88.0448272912849,4,1,0,85,0,1
214551,-86.4416302891473,4,1,0,85,0,1
214626,-84.817326133022,4,1,0,85,0,1
214701,-83.1891642263936,4,1,0,85,0,1
214776,-81.5727149360786,4,1,0,85,0,1
214851,-79.9817944330031,4,1,0,85,0,1
214901,-78.9413897313776,4,1,0,85,0,1
214951,-77.9208755837649,4,1,0,85,0,1
215001,-76.9230769230769,4,1,0,85,0,1
215151,-81.9672131147541,4,1,0,85,0,1
215226,-81.7354963640387,4,1,0,85,0,1
215301,-81.0568724067707,4,1,0,85,0,1
215376,-79.9785356942262,4,1,0,85,0,1
215451,-78.5718294378835,4,1,0,85,0,1
215526,-76.923233251414,4,1,0,85,0,1
215601,-75.1248773317107,4,1,0,85,0,1
215651,-73.8872994662504,4,1,0,85,0,1
215701,-72.6477413930979,4,1,0,85,0,1
215751,-71.4285714285714,4,1,0,85,0,1
216051,-71.4285714285714,4,1,0,85,0,1
216126,-73.1707317073171,4,1,0,85,0,1
216201,-75,4,1,0,85,0,1
216351,-78.9473684210526,4,1,0,85,0,1
216426,-81.0810810810811,4,1,0,85,0,1
216501,-83.3333333333333,4,1,0,85,0,1
216651,-96.1538461538461,4,1,0,85,0,1
216726,-96.8399612417618,4,1,0,85,0,1
216801,-97.8610733960712,4,1,0,85,0,1
216876,-99.0820060257951,4,1,0,85,0,1
216951,-100.469582955187,4,1,0,85,0,1
217026,-102.010481237604,4,1,0,85,0,1
217101,-103.699851765888,4,1,0,85,0,1
217176,-105.537610000761,4,1,0,85,0,1
217251,-107.52688172043,4,1,0,85,0,1
217401,-113.636363636364,4,1,0,85,0,1
217476,-112.843828549213,4,1,0,85,0,1
217551,-111.704614203822,4,1,0,85,0,1
217701,-108.99520854373,4,1,0,85,0,1
217776,-107.517365699525,4,1,0,85,0,1
217851,-105.990866103379,4,1,0,85,0,1
217926,-105.710994674507,4,1,0,85,0,1
218001,-102.852541937192,4,1,0,85,0,1
218076,-101.262518590064,4,1,0,85,0,1
218151,-99.6693851227705,4,1,0,85,0,1
218226,-98.0792719856729,4,1,0,85,0,1
218301,-96.4971533339766,4,1,0,85,0,1
218451,-84.7457627118644,4,1,0,85,0,1
218526,-86.2741487792782,4,1,0,85,0,1
218601,-87.8300992215507,4,1,0,85,0,1
218676,-89.4141111609582,4,1,0,85,0,1
218751,-91.0266906853557,4,1,0,85,0,1
218826,-92.6683530098699,4,1,0,85,0,1
218901,-94.3396226415094,4,1,0,85,0,1
219051,-87.719298245614,4,1,0,85,0,1
219126,-88.9976645557395,4,1,0,85,0,1
219201,-90.2946609786857,4,1,0,85,0,1
219351,-92.9456341343159,4,1,0,85,0,1
219426,-94.3001658021122,4,1,0,85,0,1
219501,-95.6744375691198,4,1,0,85,0,1
219651,-102.040816326531,4,1,0,85,0,1
219726,-101.767213958087,4,1,0,85,0,1
219801,-101.215902256258,4,1,0,85,0,1
219951,-99.5805480560851,4,1,0,85,0,1
220026,-98.5609012904044,4,1,0,85,0,1
220101,-97.4353813265521,4,1,0,85,0,1
220176,-96.2206282410649,4,1,0,85,0,1
220256,-94.9309143915952,4,1,0,85,0,0
220401,-92.1751623614944,4,1,0,85,0,0
220476,-90.7300642736754,4,1,0,85,0,0
220626,-87.749676876834,4,1,0,85,0,0
220701,-86.2293564802763,4,1,0,85,0,0
220856,-83.1600831600832,4,1,0,85,0,1
221001,-100,4,1,0,85,0,1
221076,-99.3511900681549,4,1,0,85,0,1
221151,-98.4174568925619,4,1,0,85,0,1
221226,-97.3482641580755,4,1,0,85,0,1
221301,-96.1914566279156,4,1,0,85,0,1
221451,-93.7143914541946,4,1,0,85,0,1
221526,-92.4253435312351,4,1,0,85,0,1
221601,-91.1169785864319,4,1,0,85,0,1
221751,-88.4720870565337,4,1,0,85,0,1
221901,-100,4,1,0,85,0,1
221976,-99.0075733639514,4,1,0,85,0,1
222051,-97.5913141777981,4,1,0,85,0,1
222126,-95.9867260540609,4,1,0,85,0,1
222201,-94.2709095151966,4,1,0,85,0,1
222251,-93.0875735859628,4,1,0,85,0,1
222301,-91.8835501619409,4,1,0,85,0,1
222351,-90.6659360737553,4,1,0,85,0,1
222426,-88.826253995414,4,1,0,85,0,1
222501,-86.9837702257041,4,1,0,85,0,1
222576,-85.1498993590601,4,1,0,85,0,1
222651,-83.3333333333333,4,1,0,85,0,1
222801,-96.1538461538461,4,1,0,85,0,1
222876,-95.4946242918563,4,1,0,85,0,1
222951,-94.1829090263049,4,1,0,85,0,1
223001,-93.0678022025211,4,1,0,85,0,1
223051,-91.8035564859712,4,1,0,85,0,1
223101,-90.4179246693792,4,1,0,85,0,1
223176,-88.1613419006192,4,1,0,85,0,1
223251,-85.7471180018699,4,1,0,85,0,1
223326,-83.2274843120567,4,1,0,85,0,1
223401,-80.6451612903226,4,1,0,85,0,1
223551,-98.0392156862745,4,1,0,85,0,1
223626,-97.9184919754682,4,1,0,85,0,1
223701,-97.5596033445957,4,1,0,85,0,1
223776,-96.9722044768826,4,1,0,85,0,1
223851,-96.1717649492651,4,1,0,85,0,1
224001,-94.0173291522619,4,1,0,85,0,1
224076,-92.7146115661475,4,1,0,85,0,1
224151,-91.2990174234863,4,1,0,85,0,1
224201,-90.306827420682,4,1,0,85,0,1
224251,-89.2857142857143,4,1,0,85,0,1
224301,-88.2438652824483,4,1,0,85,0,1
224376,-86.6593038673779,4,1,0,85,0,1
224451,-85.0704858973774,4,1,0,85,0,1
224526,-83.4998386373344,4,1,0,85,0,1
224601,-81.9672131147541,4,1,0,85,0,1
224747,-88.4486113568017,4,1,0,85,0,1
224817,-87.7756619333702,4,1,0,85,0,1
224892,-86.8098477858328,4,1,0,85,0,1
224967,-85.7077563015259,4,1,0,85,0,1
225042,-84.5199418981691,4,1,0,85,0,1
225096,-83.6950728214849,4,1,0,85,0,1
225146,-82.8509798247139,4,1,0,85,0,1
225192,-81.9923890163791,4,1,0,85,0,1
225267,-80.6855743095053,4,1,0,85,0,1
225347,-79.3650793650794,4,1,0,85,0,1
225501,-82.6233182085438,4,1,0,85,0,1
225576,-82.0427747015572,4,1,0,85,0,1
225651,-81.4639804640785,4,1,0,85,0,1
225726,-80.8871906174376,4,1,0,85,0,1
225801,-80.3126386270687,4,1,0,85,0,1
225876,-79.7405380678372,4,1,0,85,0,1
225951,-79.1710842097193,4,1,0,85,0,1
226101,-78.0408145961641,4,1,0,85,0,1
226176,-77.4803100635535,4,1,0,85,0,1
226251,-76.9230769230769,4,1,0,85,0,1
226401,-76.9230769230769,4,1,0,85,0,1
226476,-78.1110249786376,4,1,0,85,0,1
226551,-79.3173189017734,4,1,0,85,0,1
226601,-80.1318467315611,4,1,0,85,0,1
226651,-80.9547391353747,4,1,0,85,0,1
226701,-81.7860820109531,4,1,0,85,0,1
226776,-83.0491310332119,4,1,0,85,0,1
226851,-84.3316857316617,4,1,0,85,0,1
226926,-85.6340473387937,4,1,0,85,0,1
226993,-86.9565217391304,4,1,0,85,0,1
227151,-81.9672131147541,4,1,0,85,0,1
227226,-83.0496438998669,4,1,0,85,0,1
227301,-84.1463688931152,4,1,0,85,0,1
227351,-84.8855532301153,4,1,0,85,0,1
227401,-85.6312309368384,4,1,0,85,0,1
227451,-86.383459054334,4,1,0,85,0,1
227526,-87.5242092622742,4,1,0,85,0,1
227601,-88.6800238245614,4,1,0,85,0,1
227676,-89.8511016758707,4,1,0,85,0,1
227751,-91.0376443779399,4,1,0,85,0,1
227901,-93.4579439252336,4,1,0,85,0,1
228051,-102.040816326531,4,1,0,85,0,1
228126,-101.988166663687,4,1,0,85,0,1
228201,-101.830669537826,4,1,0,85,0,1
228276,-101.569671329879,4,1,0,85,0,1
228351,-101.207385667931,4,1,0,85,0,1
228501,-100.191861504215,4,1,0,85,0,1
228576,-99.546912960007,4,1,0,85,0,1
228651,-98.8171003793498,4,1,0,85,0,1
228726,-98.008035977756,4,1,0,85,0,1
228801,-97.1257509529285,4,1,0,85,0,1
228951,-95.1671492311104,4,1,0,85,0,1
229101,-92.9942234855834,4,1,0,85,0,1
229176,-91.8441876982764,4,1,0,85,0,1
229251,-90.6605859652928,4,1,0,85,0,1
229326,-89.449819646486,4,1,0,85,0,1
229401,-88.218053664618,4,1,0,85,0,1
229556,-85.7147386212837,4,1,0,85,0,0
229626,-84.4539779798073,4,1,0,85,0,0
229701,-83.1937501291279,4,1,0,85,0,0
229851,-80.6924732131413,4,1,0,85,0,0
229926,-79.4592788714697,4,1,0,85,0,0
230001,-78.242336881342,4,1,0,85,0,0
230151,-75.868961465576,4,1,0,85,0,0
230226,-74.7175749974295,4,1,0,85,0,0
230301,-73.592571449464,4,1,0,85,0,0
230456,-71.4285714285714,4,1,0,85,0,1
230601,-83.3333333333333,4,1,0,85,0,1
230676,-84.6091225416443,4,1,0,85,0,1
230751,-85.9044434072037,4,1,0,85,0,1
230826,-87.2195949493421,4,1,0,85,0,1
230901,-88.5548807652176,4,1,0,85,0,1
230976,-89.9106090998999,4,1,0,85,0,1
231051,-91.2870929175277,4,1,0,85,0,1
231126,-92.6846499735548,4,1,0,85,0,1
231201,-94.1036028881028,4,1,0,85,0,1
231276,-95.5442792204367,4,1,0,85,0,1
231351,-97.00701154458,4,1,0,85,0,1
231426,-98.4921375260889,4,1,0,85,0,1
231501,-100,4,1,0,85,0,1
231651,-86.9565217391304,4,1,0,85,0,1
231726,-89.0058324450561,4,1,0,85,0,1
231801,-91.1034394062302,4,1,0,85,0,1
231876,-93.2504808240314,4,1,0,85,0,1
231951,-95.4481217239136,4,1,0,85,0,1
232101,-100,4,1,0,85,0,1
232251,-90.9090909090909,4,1,0,85,0,1
232326,-92.0265352752072,4,1,0,85,0,1
232401,-93.1577151423484,4,1,0,85,0,1
232476,-94.3027993457553,4,1,0,85,0,1
232551,-95.4619587959723,4,1,0,85,0,1
232626,-96.6353665043571,4,1,0,85,0,1
232701,-97.8231976089037,4,1,0,85,0,1
232851,-100.242841348803,4,1,0,85,0,1
232926,-101.475015130199,4,1,0,85,0,1
233001,-102.722334653746,4,1,0,85,0,1
233156,-90.9090909090909,4,1,0,85,0,1
233226,-92.4214417744917,4,1,0,85,0,1
233305,-93.4579439252336,4,1,0,85,0,1
233343,-94.7867298578199,4,1,0,85,0,1
233455,-96.1538461538461,4,1,0,85,0,1
233601,-100,4,1,0,85,0,1
233676,-101.39420760383,4,1,0,85,0,1
233751,-102.807853356086,4,1,0,85,0,1
233801,-103.761216505204,4,1,0,85,0,1
233851,-104.723420431212,4,1,0,85,0,1
233901,-105.694547116864,4,1,0,85,0,1
233976,-107.168148529601,4,1,0,85,0,1
234051,-108.662295005285,4,1,0,85,0,1
234126,-110.177272984745,4,1,0,85,0,1
234201,-111.71337290239,4,1,0,85,0,1
234276,-113.27088924189,4,1,0,85,0,1
234351,-114.850120592627,4,1,0,85,0,1
234501,-125,4,1,0,85,0,1
234576,-124.818887380664,4,1,0,85,0,1
234651,-124.452580449755,4,1,0,85,0,1
234726,-123.956882914644,4,1,0,85,0,1
234801,-123.355167277711,4,1,0,85,0,1
234876,-122.662602441523,4,1,0,85,0,1
234951,-121.890571893497,4,1,0,85,0,1
235101,-120.143615322209,4,1,0,85,0,1
235251,-118.173642530947,4,1,0,85,0,1
235326,-117.119973699258,4,1,0,85,0,1
235401,-116.027387507002,4,1,0,85,0,1
235476,-114.900503990826,4,1,0,85,0,1
235551,-113.743583165964,4,1,0,85,0,1
235626,-112.560564269406,4,1,0,85,0,1
235701,-111.355096308188,4,1,0,85,0,1
235776,-110.130562608312,4,1,0,85,0,1
235851,-108.890101138156,4,1,0,85,0,1
236001,-106.372821492717,4,1,0,85,0,1
236151,-103.824059841311,4,1,0,85,0,1
236226,-102.543542019061,4,1,0,85,0,1
236301,-101.261611823476,4,1,0,85,0,1
236376,-99.9800808457772,4,1,0,85,0,1
236451,-98.7006136964838,4,1,0,85,0,1
236601,-96.1538461538461,4,1,0,85,0,1
236751,-111.111111111111,4,1,0,85,0,1
236826,-110.795155140665,4,1,0,85,0,1
236901,-109.863277642167,4,1,0,85,0,1
237051,-106.361211011682,4,1,0,85,0,1
237126,-103.950752517151,4,1,0,85,0,1
237201,-101.228102821216,4,1,0,85,0,1
237351,-95.2380952380953,4,1,0,85,0,1
237426,-92.1493397386767,4,1,0,85,0,1
237501,-89.0984256981678,4,1,0,85,0,1
237651,-83.3333333333333,4,1,0,85,0,1
237951,-83.3333333333333,4,1,0,85,0,1
238026,-83.6944678859063,4,1,0,85,0,1
238101,-84.2282218120023,4,1,0,85,0,1
238176,-84.8606757290877,4,1,0,85,0,1
238251,-85.5719604533073,4,1,0,85,0,1
238401,-87.1976592026464,4,1,0,85,0,1
238551,-89.0708628498321,4,1,0,85,0,1
238701,-91.1836912817106,4,1,0,85,0,1
238776,-92.3310096459094,4,1,0,85,0,1
238851,-93.5405630768924,4,1,0,85,0,1
239001,-96.1538461538461,4,1,0,85,0,1
239152,-111.111111111111,4,1,0,85,0,1
239226,-110.795155140665,4,1,0,85,0,1
239301,-109.863277642167,4,1,0,85,0,1
239451,-106.361211011682,4,1,0,85,0,1
239526,-103.950752517151,4,1,0,85,0,1
239601,-101.228102821216,4,1,0,85,0,1
239751,-95.2380952380953,4,1,0,85,0,1
239826,-92.1493397386767,4,1,0,85,0,1
239901,-89.0984256981678,4,1,0,85,0,1
240052,-83.3333333333333,4,1,0,85,0,1
240201,-86.9724713370346,4,1,0,85,0,1
240351,-90.6618313689937,4,1,0,85,0,1
240426,-92.4299601288167,4,1,0,85,0,1
240501,-94.0891958630344,4,1,0,85,0,1
240651,-96.9000631358002,4,1,0,85,0,1
240801,-98.7546651873029,4,1,0,85,0,1
240876,-99.2398528077391,4,1,0,85,0,1
240951,-99.403578528827,4,1,0,85,0,1
241097,-92.5925925925926,4,1,0,85,0,1
241168,-93.9666859357095,4,1,0,85,0,1
241243,-95.3611711099948,4,1,0,85,0,1
241297,-96.3023059453511,4,1,0,85,0,1
241347,-97.2527289927543,4,1,0,85,0,1
241393,-98.2125319190729,4,1,0,85,0,1
241443,-99.502487562189,4,1,0,85,0,1
241551,-101.144119105692,4,1,0,85,0,1
241701,-104.166666666667,4,1,0,85,0,1
241851,-111.111111111111,4,1,0,85,0,1
241926,-110.884667675057,4,1,0,85,0,1
242001,-110.427493183431,4,1,0,85,0,1
242151,-109.064350546482,4,1,0,85,0,1
242226,-108.209067735272,4,1,0,85,0,1
242301,-107.260154239757,4,1,0,85,0,1
242451,-105.130299564703,4,1,0,85,0,1
242526,-103.969715262898,4,1,0,85,0,1
242601,-102.757010560281,4,1,0,85,0,1
242676,-101.49981850808,4,1,0,85,0,1
242751,-100.20505197271,4,1,0,85,0,1
242901,-97.5273642048966,4,1,0,85,0,1
243051,-94.7677691865314,4,1,0,85,0,1
243126,-93.3688652919208,4,1,0,85,0,1
243201,-91.9625826526743,4,1,0,85,0,1
243351,-89.1417516875987,4,1,0,85,0,1
243501,-86.3297565009129,4,1,0,85,0,1
243576,-84.9334177928629,4,1,0,85,0,1
243651,-83.5463752090204,4,1,0,85,0,1
243726,-82.1704761937165,4,1,0,85,0,1
243801,-80.8073538172446,4,1,0,85,0,1
243876,-79.4584437106145,4,1,0,85,0,1
243951,-78.125,4,1,0,85,0,1
244097,-102.040816326531,4,1,0,85,0,1
244168,-101.958147795056,4,1,0,85,0,1
244243,-101.790623959955,4,1,0,85,0,1
244318,-101.563233378786,4,1,0,85,0,1
244393,-101.286133850148,4,1,0,85,0,1
244543,-100.606690850956,4,1,0,85,0,1
244618,-100.212724449603,4,1,0,85,0,1
244693,-99.7869101186404,4,1,0,85,0,1
244843,-98.8500487277372,4,1,0,85,0,1
244918,-98.3434537745802,4,1,0,85,0,1
244993,-97.8140380430655,4,1,0,85,0,1
245068,-97.2635676919312,4,1,0,85,0,1
245143,-96.69368029145,4,1,0,85,0,1
245293,-95.5016676310986,4,1,0,85,0,1
245368,-94.8823192558113,4,1,0,85,0,1
245443,-94.249126966334,4,1,0,85,0,1
245593,-92.9459418170192,4,1,0,85,0,1
245743,-91.6009583140862,4,1,0,85,0,1
245818,-90.9153085835506,4,1,0,85,0,1
245893,-90.2221265894042,4,1,0,85,0,1
246043,-88.8166042086366,4,1,0,85,0,1
246118,-88.1058741027209,4,1,0,85,0,1
246193,-87.3908363425081,4,1,0,85,0,1
246268,-86.672195975209,4,1,0,85,0,1
246343,-85.950621133927,4,1,0,85,0,1
246493,-84.50116527854,4,1,0,85,0,1
246568,-83.7744496003444,4,1,0,85,0,1
246643,-83.047132858355,4,1,0,85,0,1
246793,-81.5926892950392,4,1,0,85,0,1
246951,-79.3650793650794,4,1,0,85,0,1
247001,-80.1848967259895,4,1,0,85,0,1
247051,-81.0131825532658,4,1,0,85,0,1
247101,-81.8500243236147,4,1,0,85,0,1
247176,-83.1215229537123,4,1,0,85,0,1
247251,-84.4127736703816,4,1,0,85,0,1
247326,-85.7240833122733,4,1,0,85,0,1
247401,-87.0557634846209,4,1,0,85,0,1
247551,-89.781506119961,4,1,0,85,0,1
247626,-91.1762162985222,4,1,0,85,0,1
247701,-92.5925925925926,4,1,0,85,0,1
247856,-87.719298245614,4,1,0,85,0,0
248001,-92.2546092851406,4,1,0,85,0,0
248076,-94.6094540760746,4,1,0,85,0,0
248151,-97.0244074516349,4,1,0,85,0,0
248226,-99.5010037133433,4,1,0,85,0,0
248301,-102.040816326531,4,1,0,85,0,0
248456,-125,4,1,0,85,0,1
248501,-124.326660126076,4,1,0,85,0,1
248551,-122.98090961675,4,1,0,85,0,1
248601,-121.193350710227,4,1,0,85,0,1
248676,-117.914395350391,4,1,0,85,0,1
248751,-114.132688530684,4,1,0,85,0,1
248826,-110.028258294275,4,1,0,85,0,1
248901,-105.73845792101,4,1,0,85,0,1
248976,-101.369176201479,4,1,0,85,0,1
249051,-97.001312635954,4,1,0,85,0,1
249126,-92.6955152401396,4,1,0,85,0,1
249201,-88.4960436703618,4,1,0,85,0,1
249276,-84.4340280857635,4,1,0,85,0,1
249351,-80.5302213808235,4,1,0,85,0,1
249426,-76.7972978994081,4,1,0,85,0,1
249501,-73.2417453595328,4,1,0,85,0,1
249576,-69.8653987940396,4,1,0,85,0,1
249656,-66.6666666666667,4,1,0,85,0,0
250851,-107.627118644068,4,1,0,85,0,0
252051,-117.158671586716,4,1,0,85,0,0
253251,-128.542510121457,4,1,0,85,0,0
254451,-142.37668161435,4,1,0,85,0,0
255651,-159.547738693467,4,1,0,85,0,0
256851,-181.428571428571,4,1,0,85,0,0
258051,-210.264900662252,4,1,0,85,0,0
259251,-250,4,1,0,85,0,0
260001,-400,4,1,0,85,0,0
260451,-386.829262327021,4,1,0,85,0,0
261651,-314.410248912444,4,1,0,85,0,0
262851,-242.030634544207,4,1,0,85,0,0
264051,-186.463383764125,4,1,0,85,0,0
264801,-159.81314486049,4,1,0,85,0,0
264951,-155.112662585458,4,1,0,85,0,0
265101,-150.601824240743,4,1,0,85,0,0
265251,-146.272331764025,4,1,0,85,0,0
265401,-142.116136838482,4,1,0,85,0,0
265551,-138.125461847181,4,1,0,85,0,0
265701,-134.292813686283,4,1,0,85,0,0
265851,-130.610991823442,4,1,0,85,0,0
266001,-127.073091753349,4,1,0,85,0,0
266151,-123.672504804688,4,1,0,85,0,0
266301,-120.402915086523,4,1,0,85,0,0
266451,-117.258294222774,4,1,0,85,0,0
266601,-114.232894406793,4,1,0,85,0,0
266751,-111.321240210794,4,1,0,85,0,0
266901,-108.518119503794,4,1,0,85,0,0
267051,-105.818573764445,4,1,0,85,0,0
267201,-103.21788801926,4,1,0,85,0,0
267351,-100.711580590573,4,1,0,85,0,0
267501,-98.2953928004285,4,1,0,85,0,0
267651,-95.9652787452048,4,1,0,85,0,0
267801,-93.7173952299882,4,1,0,85,0,0
267951,-91.5480919306075,4,1,0,85,0,0
268026,-90.4918175147458,4,1,0,85,0,0
268101,-89.4539018340056,4,1,0,85,0,0
268251,-87.4315319936194,4,1,0,85,0,0
268326,-86.4462960214626,4,1,0,85,0,0
268401,-85.4778546251059,4,1,0,85,0,0
268551,-83.5898985586258,4,1,0,85,0,0
268626,-82.6696783261911,4,1,0,85,0,0
268701,-81.7648410565922,4,1,0,85,0,0
268856,-80,4,1,0,85,0,1
272714,-99.2555831265508,4,1,0,100,0,1
272756,-80,4,1,0,100,0,0
272901,-79.0760897059697,4,1,0,100,0,0
273051,-77.7628465969906,4,1,0,100,0,0
273201,-76.2823678355508,4,1,0,100,0,0
273351,-74.7078875280878,4,1,0,100,0,0
273501,-73.0809013696599,4,1,0,100,0,0
273656,-71.4285714285714,4,1,0,100,0,1
273727,-79.9999999999999,4,1,0,85,0,1
276951,-80,4,1,0,85,0,1
277026,-80.8206201870649,4,1,0,85,0,1
277101,-81.6496580927726,4,1,0,85,0,1
277176,-82.4872000639961,4,1,0,85,0,1
277214,-82.9875518672199,4,1,0,100,0,1
277256,-83.3333333333333,4,1,0,100,0,0
277551,-100,4,1,0,100,0,0
277701,-98.5979423869806,4,1,0,100,0,0
278001,-92.3813775912643,4,1,0,100,0,0
278151,-88.442709417631,4,1,0,100,0,0
278301,-84.2640690242442,4,1,0,100,0,0
278456,-80,4,1,0,100,0,1
278527,-80.1603206412826,4,1,0,85,0,1
282876,-80.3083770382249,4,1,0,85,0,1
282914,-80,4,1,0,100,0,1
283256,-80,4,1,0,100,0,0
283326,-80.8206201870649,4,1,0,100,0,0
283401,-81.6496580927726,4,1,0,100,0,0
283476,-82.4872000639961,4,1,0,100,0,0
283552,-83.3333333333333,4,1,0,100,0,0
283851,-83.3333333333333,4,1,0,100,0,0
284001,-83.9086483935649,4,1,0,100,0,0
284151,-84.4879353028189,4,1,0,100,0,0
284451,-85.6585345407997,4,1,0,100,0,0
284601,-86.249902280304,4,1,0,100,0,0
284676,-86.5471153954337,4,1,0,100,0,0
284751,-86.8453526930084,4,1,0,100,0,0
285201,-88.6564828034163,4,1,0,100,0,0
285351,-89.268547720344,4,1,0,100,0,0
285426,-89.5761629459802,4,1,0,100,0,0
285501,-89.8848381992462,4,1,0,100,0,0
285651,-90.5053834124763,4,1,0,100,0,0
285951,-91.7593557397214,4,1,0,100,0,0
286251,-93.030702133991,4,1,0,100,0,0
286326,-93.3512815671605,4,1,0,100,0,0
286401,-93.6729657020103,4,1,0,100,0,0
286551,-94.3196633168694,4,1,0,100,0,0
286626,-94.6446844497779,4,1,0,100,0,0
286701,-94.9708255902555,4,1,0,100,0,0
286851,-95.6264833451919,4,1,0,100,0,0
287151,-90.9090909090909,4,1,0,100,0,0
287188,-91.0990624559032,4,1,0,100,0,0
287226,-91.3865921838238,4,1,0,100,0,0
287301,-92.0939374042638,4,1,0,100,0,0
287376,-92.9345662489198,4,1,0,100,0,0
287451,-93.8832072905523,4,1,0,100,0,0
287526,-94.9283788728401,4,1,0,100,0,0
287751,-98.6001588971689,4,1,0,100,0,0
287826,-100,4,1,0,100,0,0
288056,-80,4,1,0,85,0,1
289551,-80,4,1,0,85,0,1
289626,-79.2480318354403,4,1,0,85,0,1
289701,-78.5031318723869,4,1,0,85,0,1
289776,-77.7652336725586,4,1,0,85,0,1
289851,-77.0342714221672,4,1,0,85,0,1
290006,-75.5928946018455,4,1,0,85,0,0
290456,-71.4285714285714,4,1,0,85,0,1
290527,-80.0000000500679,4,1,0,85,0,1
296151,-80,4,1,0,85,0,1
296226,-80.8206201870649,4,1,0,85,0,1
296301,-81.6496580927726,4,1,0,85,0,1
296376,-82.4872000639961,4,1,0,85,0,1
296414,-82.9875518672199,4,1,0,100,0,1
296456,-83.3333333333333,4,1,0,100,0,0
296901,-100,4,1,0,100,0,0
297051,-97.0071647220033,4,1,0,100,0,0
297201,-92.939758795755,4,1,0,100,0,0
297276,-90.7826925532445,4,1,0,100,0,0
297351,-88.5984764660014,4,1,0,100,0,0
297501,-84.2424718014,4,1,0,100,0,0
297576,-82.1018476095382,4,1,0,100,0,0
297656,-80,4,1,0,100,0,1
297727,-79.8403193612775,4,1,0,85,0,1
299751,-79.3650793650794,4,1,0,85,0,1
299826,-78.752950566181,4,1,0,85,0,1
299901,-77.5380774615676,4,1,0,85,0,1
299976,-75.9417356610129,4,1,0,85,0,1
300051,-74.0740740740741,4,1,0,85,0,1
303651,-74.0740740740741,4,1,0,85,0,1
303801,-73.9162651509057,4,1,0,85,0,1
303951,-73.4528226079317,4,1,0,85,0,1
304101,-72.7124891859676,4,1,0,85,0,1
304251,-71.7394089191728,4,1,0,85,0,1
304401,-70.5883449943654,4,1,0,85,0,1
304551,-69.3194054680695,4,1,0,85,0,1
304701,-67.9931471641817,4,1,0,85,0,1
304856,-66.6666666666667,4,1,0,100,0,0
304927,-166.666666666667,4,1,0,85,0,0
306056,-166.666666666667,4,1,0,85,0,1
306201,-161.543028803312,4,1,0,85,0,1
306276,-155.731075604902,4,1,0,85,0,1
306426,-140.625725635207,4,1,0,85,0,1
306501,-132.568125032216,4,1,0,85,0,1
306651,-117.647058823529,4,1,0,85,0,1
306726,-111.262851325438,4,1,0,85,0,1
306876,-101.123220278318,4,1,0,85,0,1
306951,-97.3921598124214,4,1,0,85,0,1
307256,-90.9090909090909,4,1,0,85,0,0
307401,-91.252034999061,4,1,0,85,0,0
307551,-91.5962728061684,4,1,0,85,0,0
307626,-91.7688783780549,4,1,0,85,0,0
307701,-91.9418092108122,4,1,0,85,0,0
307776,-92.1150659173672,4,1,0,85,0,0
307851,-92.2886491118022,4,1,0,85,0,0
308001,-92.6367974264286,4,1,0,85,0,0
308076,-92.8113637805789,4,1,0,85,0,0
308151,-92.9862590905313,4,1,0,85,0,0
308301,-93.3370390585701,4,1,0,85,0,0
308376,-93.5129249599429,4,1,0,85,0,0
308451,-93.6891423036949,4,1,0,85,0,0
308601,-94.0425738178165,4,1,0,85,0,0
308676,-94.2197892408705,4,1,0,85,0,0
308751,-94.3973386116769,4,1,0,85,0,0
308901,-94.7534417149205,4,1,0,85,0,0
308980,-94.9319967095111,4,1,0,85,0,0
309051,-95.1108881761655,4,1,0,85,0,0
309201,-95.4696830630756,4,1,0,85,0,0
309276,-95.6495877550252,4,1,0,85,0,0
309351,-95.8298314624314,4,1,0,85,0,0
309430,-96.0104148241405,4,1,0,85,0,0
309501,-96.1913384802029,4,1,0,85,0,0
309651,-96.554209241622,4,1,0,85,0,0
309726,-96.736157633119,4,1,0,85,0,0
309801,-96.9184488912547,4,1,0,85,0,0
309876,-97.1010836621327,4,1,0,85,0,0
309951,-97.2840625930742,4,1,0,85,0,0
310101,-97.6510555305345,4,1,0,85,0,0
310176,-97.8350708378041,4,1,0,85,0,0
310251,-98.0194329066435,4,1,0,85,0,0
310326,-98.204142390496,4,1,0,85,0,0
310401,-98.3891999440366,4,1,0,85,0,0
310476,-98.5746062231734,4,1,0,85,0,0
310551,-98.7603618850512,4,1,0,85,0,0
310701,-99.1329239918008,4,1,0,85,0,0
310851,-99.5068915462497,4,1,0,85,0,0
311001,-99.8822698502876,4,1,0,85,0,0
311076,-100.07048969571,4,1,0,85,0,0
311151,-100.259064225805,4,1,0,85,0,0
311301,-100.637280014769,4,1,0,85,0,0
311451,-101.016922579298,4,1,0,85,0,0
311530,-101.207280583591,4,1,0,85,0,0
311601,-101.397997301739,4,1,0,85,0,0
311676,-101.589073409709,4,1,0,85,0,0
311751,-101.780509584743,4,1,0,85,0,0
311901,-102.164464851341,4,1,0,85,0,0
311980,-102.356985303778,4,1,0,85,0,0
312051,-102.549868545024,4,1,0,85,0,0
312201,-102.936726129816,4,1,0,85,0,0
312351,-103.325043090354,4,1,0,85,0,0
312426,-103.519750556132,4,1,0,85,0,0
312501,-103.714824931965,4,1,0,85,0,0
312651,-104.106077180745,4,1,0,85,0,0
312726,-104.302256440426,4,1,0,85,0,0
312801,-104.498805383635,4,1,0,85,0,0
312876,-104.695724707011,4,1,0,85,0,0
312951,-104.893015108503,4,1,0,85,0,0
313101,-105.28871194422,4,1,0,85,0,0
313162,-105.28871194422,4,1,0,85,0,0
313251,-105.68590150074,4,1,0,85,0,0
326451,-100,4,1,0,85,0,0
326601,-125.518995182129,4,1,0,85,0,0
336197,-125.517760763148,4,1,0,85,0,0
336347,-128.25411621862,4,1,0,85,0,0
336497,-131.050125711363,4,1,0,85,0,0
336647,-133.907089731835,4,1,0,85,0,0
336797,-136.826337121896,4,1,0,85,0,0
336947,-139.809225692879,4,1,0,85,0,0
337097,-142.857142857143,4,1,0,85,0,0
344445,-117.647058823529,4,1,0,85,0,0
344597,-114.907763586432,4,1,0,85,0,0
344747,-111.124212300625,4,1,0,85,0,0
344897,-107.006659922949,4,1,0,85,0,0
344972,-104.901480519442,4,1,0,85,0,0
345047,-102.790433926738,4,1,0,85,0,0
345122,-100.686606115475,4,1,0,85,0,0
345197,-98.6000195648474,4,1,0,85,0,0
345347,-94.5076157273545,4,1,0,85,0,0
345497,-90.5556075355757,4,1,0,85,0,0
345647,-86.7678958785249,4,1,0,85,0,0

[HitObjects]
254,188,56,5,0,0:0:0:0:
254,188,356,1,8,0:0:0:0:
254,188,656,1,8,0:0:0:0:
272,147,806,1,0,0:0:0:0:
254,188,1256,1,0,0:0:0:0:
233,155,1556,1,0,0:0:0:0:
254,188,1706,1,8,0:0:0:0:
254,188,2006,1,8,0:0:0:0:
254,188,2306,1,0,0:0:0:0:
255,194,4856,1,0,0:0:0:0:
255,194,5156,1,8,0:0:0:0:
255,194,5456,1,8,0:0:0:0:
249,194,5606,1,0,0:0:0:0:
267,213,6056,1,0,0:0:0:0:
265,209,6356,1,0,0:0:0:0:
265,209,6506,1,8,0:0:0:0:
267,213,6806,1,8,0:0:0:0:
265,209,7106,1,0,0:0:0:0:
264,203,9656,1,0,0:0:0:0:
264,203,9956,1,8,0:0:0:0:
264,203,10256,1,8,0:0:0:0:
264,203,10406,1,0,0:0:0:0:
254,197,10856,1,0,0:0:0:0:
254,197,11156,1,0,0:0:0:0:
254,197,11306,1,8,0:0:0:0:
254,197,11606,1,8,0:0:0:0:
254,197,11906,1,0,0:0:0:0:
261,203,14456,1,0,0:0:0:0:
261,203,14756,1,8,0:0:0:0:
261,203,15056,1,8,0:0:0:0:
251,202,15206,1,0,0:0:0:0:
297,242,15656,1,0,0:0:0:0:
290,240,15956,1,0,0:0:0:0:
290,240,16106,1,8,0:0:0:0:
290,240,16406,1,8,0:0:0:0:
290,240,16706,1,0,0:0:0:0:
251,207,18881,1,0,0:0:0:0:
251,207,18956,1,0,0:0:0:0:
223,224,19031,1,0,0:0:0:0:
251,207,19106,1,0,0:0:0:0:
251,207,19181,1,0,0:0:0:0:
251,207,19256,1,12,0:0:0:0:
251,207,19406,1,0,0:0:0:0:
251,207,19556,1,8,0:0:0:0:
240,209,19631,1,8,0:0:0:0:
240,209,19706,1,0,0:0:0:0:
239,208,19856,1,8,0:0:0:0:
239,206,20006,1,0,0:0:0:0:
251,207,20156,1,8,0:0:0:0:
251,207,20306,1,0,0:0:0:0:
251,207,20381,1,0,0:0:0:0:
251,207,20456,1,8,0:0:0:0:
255,212,20531,1,8,0:0:0:0:
250,210,20606,1,0,0:0:0:0:
261,213,20756,1,8,0:0:0:0:
261,213,20831,1,8,0:0:0:0:
261,213,20906,1,0,0:0:0:0:
257,219,21056,1,0,0:0:0:0:
257,214,21206,1,8,0:0:0:0:
250,218,21356,1,8,0:0:0:0:
114,169,21506,1,0,0:0:0:0:
114,169,21581,1,0,0:0:0:0:
128,169,21656,1,8,0:0:0:0:
128,169,21731,1,8,0:0:0:0:
128,169,21806,1,0,0:0:0:0:
250,194,21956,1,8,0:0:0:0:
250,194,22106,1,0,0:0:0:0:
262,202,22256,1,8,0:0:0:0:
262,202,22331,1,8,0:0:0:0:
262,203,22406,1,0,0:0:0:0:
256,197,22556,1,8,0:0:0:0:
258,198,22706,1,0,0:0:0:0:
260,197,22856,1,8,0:0:0:0:
261,200,22931,1,8,0:0:0:0:
261,200,23006,1,0,0:0:0:0:
262,202,23156,1,8,0:0:0:0:
448,64,23231,1,8,0:0:0:0:
262,202,23306,1,0,0:0:0:0:
275,212,23381,1,0,0:0:0:0:
275,213,23456,1,8,0:0:0:0:
275,213,23531,1,0,0:0:0:0:
275,213,23606,1,8,0:0:0:0:
144,176,23681,1,0,0:0:0:0:
275,213,23756,1,8,0:0:0:0:
448,64,23831,1,8,0:0:0:0:
275,213,23906,1,0,0:0:0:0:
275,213,24056,1,8,0:0:0:0:
213,196,24206,1,0,0:0:0:0:
216,178,24356,1,8,0:0:0:0:
216,178,24431,1,8,0:0:0:0:
217,177,24506,1,0,0:0:0:0:
206,184,24656,1,8,0:0:0:0:
206,184,24806,1,0,0:0:0:0:
206,184,24881,1,0,0:0:0:0:
206,184,24956,1,8,0:0:0:0:
206,184,25031,1,8,0:0:0:0:
206,184,25106,1,0,0:0:0:0:
222,194,25256,1,8,0:0:0:0:
222,194,25406,1,0,0:0:0:0:
222,194,25556,1,8,0:0:0:0:
222,194,25631,1,0,0:0:0:0:
229,210,25706,1,8,0:0:0:0:
227,200,25856,1,0,0:0:0:0:
207,196,26006,1,8,0:0:0:0:
214,195,26156,1,8,0:0:0:0:
209,195,26306,1,8,0:0:0:0:
209,195,26381,1,8,0:0:0:0:
209,195,26456,1,0,0:0:0:0:
209,195,26531,1,0,0:0:0:0:
209,195,26606,1,8,0:0:0:0:
195,173,26756,1,8,0:0:0:0:
212,181,26906,1,0,0:0:0:0:
212,181,27056,1,8,0:0:0:0:
212,181,27131,1,8,0:0:0:0:
212,181,27206,1,0,0:0:0:0:
212,181,27356,1,8,0:0:0:0:
212,181,27506,1,0,0:0:0:0:
212,181,27656,1,8,0:0:0:0:
212,181,27731,1,8,0:0:0:0:
212,181,27806,1,0,0:0:0:0:
221,187,27956,1,8,0:0:0:0:
222,186,28106,1,0,0:0:0:0:
223,187,28256,1,8,0:0:0:0:
223,189,28331,1,8,0:0:0:0:
223,189,28406,1,0,0:0:0:0:
223,189,28556,1,0,0:0:0:0:
223,189,28631,1,0,0:0:0:0:
223,189,28706,1,0,0:0:0:0:
224,189,28781,1,0,0:0:0:0:
251,207,28856,1,8,0:0:0:0:
251,207,29006,1,0,0:0:0:0:
251,207,29156,1,8,0:0:0:0:
240,209,29231,1,8,0:0:0:0:
240,209,29306,1,0,0:0:0:0:
239,208,29456,1,8,0:0:0:0:
239,206,29606,1,0,0:0:0:0:
251,207,29756,1,8,0:0:0:0:
251,207,29906,1,0,0:0:0:0:
251,207,29981,1,0,0:0:0:0:
251,207,30056,1,8,0:0:0:0:
255,212,30131,1,8,0:0:0:0:
250,210,30206,1,0,0:0:0:0:
261,213,30356,1,8,0:0:0:0:
261,213,30431,1,8,0:0:0:0:
261,213,30506,1,0,0:0:0:0:
257,219,30656,1,0,0:0:0:0:
257,214,30806,1,8,0:0:0:0:
250,218,30956,1,0,0:0:0:0:
114,169,31106,1,8,0:0:0:0:
128,169,31256,1,0,0:0:0:0:
128,169,31331,1,0,0:0:0:0:
128,169,31406,1,8,0:0:0:0:
187,169,31481,1,0,0:0:0:0:
250,194,31556,1,8,0:0:0:0:
250,194,31706,1,0,0:0:0:0:
262,202,31856,1,8,0:0:0:0:
262,202,31931,1,8,0:0:0:0:
262,203,32006,1,0,0:0:0:0:
256,197,32156,1,8,0:0:0:0:
258,198,32306,1,0,0:0:0:0:
260,197,32456,1,8,0:0:0:0:
261,200,32531,1,8,0:0:0:0:
261,200,32606,1,0,0:0:0:0:
262,202,32756,1,8,0:0:0:0:
448,64,32831,1,8,0:0:0:0:
262,202,32906,1,0,0:0:0:0:
275,212,32981,1,0,0:0:0:0:
275,213,33056,1,8,0:0:0:0:
275,213,33131,1,0,0:0:0:0:
275,213,33206,1,8,0:0:0:0:
144,176,33281,1,0,0:0:0:0:
275,213,33356,1,8,0:0:0:0:
448,64,33431,1,8,0:0:0:0:
275,213,33506,1,0,0:0:0:0:
275,213,33656,1,8,0:0:0:0:
213,196,33806,1,0,0:0:0:0:
216,178,33956,1,8,0:0:0:0:
216,178,34031,1,8,0:0:0:0:
217,177,34106,1,0,0:0:0:0:
206,184,34256,1,8,0:0:0:0:
206,184,34406,1,0,0:0:0:0:
206,184,34481,1,0,0:0:0:0:
206,184,34556,1,8,0:0:0:0:
206,184,34631,1,8,0:0:0:0:
206,184,34706,1,0,0:0:0:0:
222,194,34856,1,8,0:0:0:0:
222,194,35006,1,0,0:0:0:0:
222,194,35156,1,8,0:0:0:0:
222,194,35231,1,0,0:0:0:0:
229,210,35306,1,8,0:0:0:0:
227,200,35456,1,0,0:0:0:0:
207,196,35606,1,8,0:0:0:0:
214,195,35756,1,8,0:0:0:0:
209,195,35906,1,8,0:0:0:0:
209,195,35981,1,8,0:0:0:0:
209,195,36056,1,0,0:0:0:0:
209,195,36131,1,0,0:0:0:0:
209,195,36206,1,8,0:0:0:0:
195,173,36356,1,8,0:0:0:0:
212,181,36506,1,0,0:0:0:0:
212,181,36656,1,8,0:0:0:0:
212,181,36731,1,8,0:0:0:0:
212,181,36806,1,0,0:0:0:0:
212,181,36956,1,8,0:0:0:0:
212,181,37106,1,8,0:0:0:0:
212,181,37256,1,0,0:0:0:0:
221,187,37556,1,8,0:0:0:0:
222,186,37706,1,0,0:0:0:0:
223,187,37856,1,8,0:0:0:0:
223,189,38006,1,0,0:0:0:0:
138,166,38056,1,0,0:0:0:0:
138,166,38106,1,0,0:0:0:0:
223,189,38156,1,8,0:0:0:0:
223,189,38306,1,0,0:0:0:0:
239,156,38456,1,12,0:0:0:0:
241,173,38606,1,0,0:0:0:0:
222,174,38756,1,8,0:0:0:0:
262,189,38831,1,0,0:0:0:0:
222,175,38906,1,0,0:0:0:0:
222,175,39056,1,8,0:0:0:0:
222,175,39131,1,8,0:0:0:0:
221,175,39206,1,0,0:0:0:0:
230,165,39356,1,8,0:0:0:0:
224,160,39431,1,0,0:0:0:0:
230,165,39506,1,0,0:0:0:0:
230,165,39656,1,0,0:0:0:0:
218,168,39731,1,0,0:0:0:0:
218,168,39806,1,0,0:0:0:0:
230,172,39956,1,8,0:0:0:0:
230,172,40031,1,0,0:0:0:0:
230,172,40106,1,8,0:0:0:0:
220,158,40256,1,8,0:0:0:0:
256,208,40331,1,8,0:0:0:0:
220,158,40406,1,0,0:0:0:0:
141,189,40481,1,0,0:0:0:0:
222,173,40556,1,8,0:0:0:0:
222,173,40706,1,0,0:0:0:0:
222,173,40856,1,8,0:0:0:0:
222,173,40931,1,8,0:0:0:0:
222,173,41006,1,8,0:0:0:0:
228,150,41156,1,8,0:0:0:0:
64,64,41231,1,0,0:0:0:0:
228,155,41306,1,0,0:0:0:0:
230,155,41456,1,8,0:0:0:0:
230,155,41531,1,8,0:0:0:0:
230,155,41606,1,0,0:0:0:0:
230,155,41756,1,8,0:0:0:0:
448,64,41831,1,0,0:0:0:0:
230,155,41906,1,0,0:0:0:0:
230,155,42056,1,0,0:0:0:0:
230,155,42131,1,0,0:0:0:0:
228,155,42206,1,0,0:0:0:0:
233,161,42356,1,8,0:0:0:0:
448,64,42431,1,8,0:0:0:0:
233,161,42506,1,0,0:0:0:0:
237,163,42656,1,8,0:0:0:0:
256,160,42731,1,8,0:0:0:0:
237,163,42806,1,0,0:0:0:0:
237,163,42881,1,0,0:0:0:0:
237,163,42956,1,8,0:0:0:0:
237,163,43106,1,0,0:0:0:0:
237,163,43256,1,12,0:0:0:0:
279,193,43406,1,0,0:0:0:0:
279,193,43556,1,0,0:0:0:0:
279,193,43706,1,0,0:0:0:0:
275,188,43856,1,8,0:0:0:0:
275,188,43931,1,8,0:0:0:0:
275,188,44006,1,0,0:0:0:0:
291,181,44156,1,0,0:0:0:0:
291,181,44306,1,0,0:0:0:0:
291,182,44456,1,8,0:0:0:0:
291,182,44531,1,8,0:0:0:0:
291,182,44606,1,8,0:0:0:0:
295,162,44756,1,0,0:0:0:0:
295,162,44831,1,0,0:0:0:0:
295,162,44906,1,0,0:0:0:0:
295,162,45056,1,8,0:0:0:0:
295,162,45131,1,8,0:0:0:0:
295,162,45206,1,8,0:0:0:0:
295,162,45356,1,0,0:0:0:0:
295,162,45431,1,0,0:0:0:0:
295,162,45506,1,0,0:0:0:0:
295,162,45656,1,8,0:0:0:0:
448,64,45731,1,8,0:0:0:0:
277,164,45806,1,0,0:0:0:0:
277,164,45956,1,0,0:0:0:0:
276,162,46106,1,8,0:0:0:0:
276,162,46181,1,0,0:0:0:0:
276,162,46256,1,8,0:0:0:0:
281,168,46406,1,0,0:0:0:0:
281,168,46556,1,0,0:0:0:0:
281,168,46706,1,0,0:0:0:0:
282,169,46856,1,8,0:0:0:0:
282,169,47006,1,0,0:0:0:0:
282,169,47081,1,0,0:0:0:0:
282,169,47156,1,0,0:0:0:0:
263,176,47456,1,0,0:0:0:0:
264,176,47606,1,0,0:0:0:0:
264,176,47756,1,0,0:0:0:0:
264,176,47906,1,0,0:0:0:0:
264,176,47981,1,0,0:0:0:0:
264,176,48056,1,8,0:0:0:0:
270,215,48206,1,0,0:0:0:0:
270,215,48356,1,0,0:0:0:0:
270,215,48506,1,0,0:0:0:0:
448,64,48656,1,8,0:0:0:0:
448,64,48731,1,8,0:0:0:0:
448,64,48806,1,8,0:0:0:0:
273,191,48956,1,8,0:0:0:0:
448,64,49031,1,8,0:0:0:0:
273,191,49106,1,0,0:0:0:0:
273,192,49256,1,8,0:0:0:0:
64,64,49331,1,0,0:0:0:0:
273,200,49406,1,0,0:0:0:0:
275,201,49556,1,8,0:0:0:0:
275,201,49631,1,8,0:0:0:0:
273,200,49706,1,0,0:0:0:0:
276,196,49856,1,8,0:0:0:0:
276,196,49931,1,0,0:0:0:0:
276,196,50006,1,0,0:0:0:0:
276,196,50156,1,0,0:0:0:0:
278,196,50231,1,0,0:0:0:0:
278,197,50306,1,0,0:0:0:0:
278,197,50456,1,8,0:0:0:0:
273,207,50606,1,0,0:0:0:0:
273,207,50756,1,8,0:0:0:0:
273,207,50906,1,8,0:0:0:0:
234,179,50981,1,0,0:0:0:0:
269,197,51056,1,8,0:0:0:0:
272,210,51206,1,0,0:0:0:0:
273,209,51281,1,0,0:0:0:0:
273,209,51356,1,0,0:0:0:0:
279,232,51506,1,0,0:0:0:0:
280,224,51656,1,8,0:0:0:0:
280,224,51731,1,8,0:0:0:0:
280,224,51806,1,0,0:0:0:0:
280,224,51881,1,0,0:0:0:0:
280,224,51956,1,8,0:0:0:0:
280,224,52106,1,0,0:0:0:0:
280,224,52256,1,0,0:0:0:0:
280,224,52331,1,0,0:0:0:0:
280,224,52406,1,8,0:0:0:0:
285,230,52556,1,8,0:0:0:0:
285,230,52706,1,0,0:0:0:0:
285,230,52781,1,0,0:0:0:0:
285,230,52856,1,8,0:0:0:0:
238,227,52931,1,8,0:0:0:0:
285,230,53006,1,0,0:0:0:0:
285,230,53156,1,8,0:0:0:0:
285,230,53306,1,0,0:0:0:0:
285,230,53456,1,8,0:0:0:0:
256,208,53531,1,8,0:0:0:0:
212,206,53606,1,8,0:0:0:0:
276,235,53756,1,8,0:0:0:0:
256,192,53831,1,8,0:0:0:0:
288,222,53906,1,0,0:0:0:0:
288,220,54056,1,8,0:0:0:0:
64,64,54131,1,0,0:0:0:0:
64,64,54206,1,0,0:0:0:0:
448,64,54356,1,8,0:0:0:0:
64,64,54431,1,8,0:0:0:0:
448,64,54506,1,0,0:0:0:0:
277,230,54656,1,8,0:0:0:0:
243,216,54731,1,0,0:0:0:0:
277,230,54806,1,0,0:0:0:0:
277,230,54956,1,0,0:0:0:0:
448,64,55031,1,0,0:0:0:0:
277,230,55106,1,0,0:0:0:0:
306,208,55181,1,0,0:0:0:0:
277,230,55256,1,8,0:0:0:0:
277,230,55406,5,8,0:0:0:0:
277,230,55556,1,8,0:0:0:0:
277,230,55706,1,8,0:0:0:0:
277,230,55856,1,8,0:0:0:0:
277,230,56006,1,8,0:0:0:0:
277,230,56156,1,0,0:0:0:0:
243,196,56231,1,0,0:0:0:0:
277,230,56306,1,8,0:0:0:0:
250,195,56456,5,8,0:0:0:0:
250,195,56531,1,8,0:0:0:0:
250,195,56606,1,0,0:0:0:0:
250,195,56681,1,8,0:0:0:0:
250,195,56756,1,0,0:0:0:0:
250,195,56831,1,0,0:0:0:0:
250,195,56906,1,8,0:0:0:0:
250,195,56981,1,0,0:0:0:0:
250,195,57056,1,8,0:0:0:0:
250,195,57131,1,8,0:0:0:0:
250,195,57206,1,0,0:0:0:0:
158,182,57281,1,0,0:0:0:0:
250,195,57356,1,8,0:0:0:0:
250,195,57431,1,8,0:0:0:0:
265,219,57506,1,0,0:0:0:0:
265,219,57581,1,0,0:0:0:0:
250,195,57656,1,12,0:0:0:0:
268,184,57956,1,8,0:0:0:0:
240,192,58106,1,0,0:0:0:0:
335,174,58406,1,0,0:0:0:0:
284,170,58556,1,8,0:0:0:0:
279,166,58856,1,0,0:0:0:0:
266,185,59156,1,8,0:0:0:0:
288,192,59306,1,0,0:0:0:0:
266,185,59606,1,0,0:0:0:0:
266,185,59756,1,8,0:0:0:0:
272,192,59906,1,8,0:0:0:0:
64,320,60056,1,0,0:0:0:0:
250,182,60356,1,8,0:0:0:0:
272,224,60506,1,0,0:0:0:0:
272,224,60806,1,0,0:0:0:0:
256,208,60956,1,8,0:0:0:0:
256,208,61256,1,0,0:0:0:0:
256,208,61556,1,8,0:0:0:0:
256,208,61706,1,0,0:0:0:0:
256,192,62006,1,8,0:0:0:0:
256,192,62156,1,8,0:0:0:0:
256,192,62306,1,0,0:0:0:0:
448,320,62456,1,12,0:0:0:0:
272,208,62756,1,8,0:0:0:0:
272,208,62906,1,0,0:0:0:0:
288,240,63206,1,0,0:0:0:0:
288,240,63356,1,8,0:0:0:0:
288,240,63656,1,0,0:0:0:0:
288,240,63956,1,8,0:0:0:0:
272,224,64106,1,0,0:0:0:0:
272,224,64406,1,0,0:0:0:0:
272,224,64556,1,8,0:0:0:0:
272,224,64706,1,8,0:0:0:0:
64,320,64856,1,0,0:0:0:0:
256,208,65156,1,8,0:0:0:0:
272,240,65306,5,0,0:0:0:0:
256,208,65606,1,0,0:0:0:0:
256,208,65756,1,8,0:0:0:0:
256,192,66056,1,0,0:0:0:0:
256,208,66356,1,8,0:0:0:0:
256,208,66506,1,0,0:0:0:0:
256,208,66806,1,8,0:0:0:0:
256,208,66956,1,8,0:0:0:0:
256,208,67106,1,0,0:0:0:0:
448,320,67256,1,8,0:0:0:0:
268,184,67556,1,8,0:0:0:0:
240,192,67706,1,0,0:0:0:0:
335,174,68006,1,0,0:0:0:0:
284,170,68156,1,8,0:0:0:0:
64,320,68306,1,0,0:0:0:0:
236,169,68456,1,12,0:0:0:0:
266,185,68756,1,8,0:0:0:0:
288,192,68906,1,0,0:0:0:0:
266,185,69206,1,0,0:0:0:0:
266,185,69356,1,8,0:0:0:0:
250,182,69656,1,0,0:0:0:0:
250,182,69956,1,8,0:0:0:0:
272,224,70106,1,0,0:0:0:0:
272,224,70406,1,8,0:0:0:0:
256,208,70556,1,8,0:0:0:0:
223,188,70706,1,8,0:0:0:0:
64,320,70856,1,0,0:0:0:0:
256,208,71156,1,8,0:0:0:0:
256,208,71306,1,0,0:0:0:0:
256,192,71606,1,0,0:0:0:0:
253,217,71756,1,8,0:0:0:0:
256,192,72056,1,0,0:0:0:0:
272,208,72356,1,8,0:0:0:0:
272,208,72506,1,0,0:0:0:0:
288,240,72806,1,0,0:0:0:0:
288,240,72956,1,8,0:0:0:0:
285,236,73106,1,8,0:0:0:0:
64,320,73256,1,0,0:0:0:0:
288,240,73556,1,8,0:0:0:0:
272,224,73706,1,0,0:0:0:0:
272,224,74006,1,0,0:0:0:0:
272,224,74156,1,8,0:0:0:0:
272,224,74456,1,8,0:0:0:0:
256,208,74756,1,8,0:0:0:0:
272,240,74906,5,0,0:0:0:0:
256,208,75206,1,8,0:0:0:0:
256,208,75356,5,8,0:0:0:0:
137,173,75506,1,0,0:0:0:0:
256,192,75656,1,8,0:0:0:0:
224,176,75956,1,0,0:0:0:0:
224,176,76031,1,0,0:0:0:0:
224,176,76106,1,0,0:0:0:0:
240,176,76181,1,0,0:0:0:0:
240,176,76256,1,0,0:0:0:0:
240,176,76406,1,0,0:0:0:0:
240,176,76556,1,8,0:0:0:0:
240,176,76631,1,8,0:0:0:0:
240,176,76706,1,8,0:0:0:0:
240,176,76781,1,8,0:0:0:0:
264,197,76856,1,4,0:0:0:0:
149,163,77156,1,8,0:0:0:0:
149,163,77306,1,0,0:0:0:0:
188,192,77456,5,8,0:0:0:0:
231,175,77531,1,8,0:0:0:0:
232,183,77606,1,0,0:0:0:0:
233,182,77756,1,8,0:0:0:0:
227,181,77906,1,0,0:0:0:0:
227,162,78056,1,8,0:0:0:0:
227,162,78131,1,8,0:0:0:0:
227,162,78206,1,0,0:0:0:0:
227,162,78356,1,8,0:0:0:0:
227,162,78431,1,8,0:0:0:0:
227,162,78506,1,0,0:0:0:0:
227,162,78581,1,0,0:0:0:0:
227,162,78656,1,8,0:0:0:0:
227,162,78731,1,8,0:0:0:0:
227,162,78806,1,8,0:0:0:0:
227,162,78881,1,0,0:0:0:0:
227,162,78956,1,8,0:0:0:0:
227,162,79031,1,8,0:0:0:0:
227,162,79106,1,0,0:0:0:0:
227,162,79181,1,0,0:0:0:0:
227,162,79256,1,8,0:0:0:0:
227,162,79556,1,8,0:0:0:0:
227,162,79631,1,8,0:0:0:0:
227,162,79706,1,0,0:0:0:0:
227,162,79856,1,8,0:0:0:0:
227,162,80006,1,0,0:0:0:0:
227,162,80156,1,8,0:0:0:0:
227,162,80231,1,0,0:0:0:0:
227,162,80306,1,8,0:0:0:0:
227,162,80381,1,8,0:0:0:0:
227,162,80456,1,0,0:0:0:0:
233,188,80606,1,0,0:0:0:0:
233,177,80756,1,8,0:0:0:0:
233,177,80831,1,8,0:0:0:0:
233,177,80906,1,0,0:0:0:0:
227,179,81056,1,8,0:0:0:0:
227,179,81131,1,8,0:0:0:0:
226,179,81206,1,8,0:0:0:0:
223,168,81356,1,0,0:0:0:0:
233,177,81656,1,8,0:0:0:0:
233,177,81731,1,8,0:0:0:0:
233,178,81806,1,0,0:0:0:0:
233,178,81881,1,0,0:0:0:0:
233,177,81956,1,8,0:0:0:0:
233,177,82031,1,8,0:0:0:0:
233,177,82106,1,8,0:0:0:0:
233,177,82181,1,8,0:0:0:0:
233,177,82256,1,0,0:0:0:0:
235,183,82406,1,0,0:0:0:0:
233,177,82556,1,8,0:0:0:0:
233,178,82631,1,8,0:0:0:0:
233,178,82706,1,0,0:0:0:0:
233,177,82856,1,8,0:0:0:0:
238,185,82931,1,8,0:0:0:0:
238,185,83006,1,8,0:0:0:0:
221,185,83156,1,0,0:0:0:0:
230,185,83306,1,0,0:0:0:0:
233,178,83456,1,8,0:0:0:0:
233,178,83531,1,8,0:0:0:0:
233,177,83606,1,0,0:0:0:0:
233,177,83681,1,0,0:0:0:0:
231,180,83756,1,8,0:0:0:0:
184,180,84056,1,0,0:0:0:0:
240,184,84131,1,0,0:0:0:0:
240,184,84206,1,0,0:0:0:0:
240,184,84356,1,8,0:0:0:0:
240,184,84506,1,8,0:0:0:0:
240,184,84656,1,8,0:0:0:0:
241,196,84956,1,0,0:0:0:0:
241,196,85106,1,8,0:0:0:0:
241,196,85181,1,8,0:0:0:0:
241,196,85256,1,8,0:0:0:0:
255,207,85406,1,0,0:0:0:0:
255,207,85556,1,8,0:0:0:0:
255,207,85631,1,8,0:0:0:0:
255,207,85706,1,0,0:0:0:0:
260,218,85781,1,0,0:0:0:0:
260,218,85856,1,8,0:0:0:0:
260,218,85931,1,0,0:0:0:0:
259,216,86006,1,8,0:0:0:0:
310,185,86156,1,0,0:0:0:0:
310,185,86206,1,0,0:0:0:0:
310,185,86256,1,0,0:0:0:0:
310,185,86306,1,8,0:0:0:0:
310,185,86356,1,8,0:0:0:0:
310,185,86406,1,8,0:0:0:0:
310,185,86456,1,0,0:0:0:0:
318,199,86606,1,8,0:0:0:0:
284,196,86681,1,0,0:0:0:0:
310,185,86756,1,8,0:0:0:0:
310,185,86831,1,8,0:0:0:0:
310,185,86906,1,0,0:0:0:0:
291,189,87056,1,8,0:0:0:0:
314,201,87131,1,0,0:0:0:0:
314,201,87206,1,8,0:0:0:0:
314,201,87281,1,0,0:0:0:0:
318,199,87356,1,8,0:0:0:0:
296,176,87431,1,8,0:0:0:0:
296,176,87506,1,0,0:0:0:0:
296,176,87581,1,0,0:0:0:0:
295,173,87656,1,8,0:0:0:0:
257,185,87806,1,0,0:0:0:0:
276,186,87956,1,8,0:0:0:0:
276,186,88031,1,8,0:0:0:0:
276,186,88106,1,0,0:0:0:0:
276,186,88256,1,8,0:0:0:0:
276,186,88406,1,0,0:0:0:0:
277,186,88556,1,8,0:0:0:0:
277,186,88631,1,0,0:0:0:0:
276,186,88706,1,8,0:0:0:0:
260,179,88856,1,0,0:0:0:0:
260,179,88931,1,0,0:0:0:0:
204,176,89006,1,8,0:0:0:0:
260,179,89081,1,8,0:0:0:0:
260,179,89156,1,0,0:0:0:0:
312,198,89306,1,8,0:0:0:0:
261,179,89381,1,8,0:0:0:0:
261,168,89456,1,0,0:0:0:0:
266,183,89606,1,0,0:0:0:0:
266,183,89756,1,8,0:0:0:0:
266,183,89831,1,8,0:0:0:0:
266,183,89906,1,0,0:0:0:0:
269,194,90056,1,0,0:0:0:0:
269,194,90206,1,0,0:0:0:0:
269,194,90356,1,8,0:0:0:0:
269,194,90431,1,0,0:0:0:0:
269,194,90506,1,8,0:0:0:0:
275,206,90581,1,8,0:0:0:0:
301,205,90656,1,0,0:0:0:0:
280,198,90806,1,0,0:0:0:0:
281,197,90956,1,8,0:0:0:0:
311,223,91031,1,8,0:0:0:0:
281,197,91106,1,0,0:0:0:0:
295,208,91256,1,8,0:0:0:0:
295,208,91406,1,0,0:0:0:0:
295,208,91481,1,0,0:0:0:0:
295,208,91556,1,8,0:0:0:0:
283,224,91631,1,8,0:0:0:0:
285,223,91706,1,0,0:0:0:0:
287,218,91856,1,8,0:0:0:0:
287,218,92006,1,0,0:0:0:0:
287,218,92156,1,8,0:0:0:0:
287,218,92231,1,8,0:0:0:0:
288,218,92306,1,0,0:0:0:0:
288,218,92456,1,0,0:0:0:0:
299,217,92606,1,0,0:0:0:0:
299,218,92681,1,0,0:0:0:0:
299,218,92756,1,8,0:0:0:0:
300,218,92906,1,0,0:0:0:0:
301,218,93056,1,0,0:0:0:0:
301,218,93206,1,0,0:0:0:0:
301,218,93281,1,0,0:0:0:0:
299,217,93356,1,8,0:0:0:0:
299,218,93506,1,0,0:0:0:0:
300,218,93656,1,0,0:0:0:0:
301,218,93806,1,8,0:0:0:0:
301,218,93881,1,8,0:0:0:0:
301,218,93956,1,8,0:0:0:0:
301,218,94106,1,0,0:0:0:0:
299,218,94256,1,0,0:0:0:0:
300,218,94406,1,0,0:0:0:0:
300,218,94481,1,0,0:0:0:0:
300,218,94556,1,8,0:0:0:0:
266,196,94706,1,8,0:0:0:0:
278,184,94781,1,8,0:0:0:0:
261,202,94856,1,0,0:0:0:0:
255,205,95156,1,8,0:0:0:0:
255,205,95456,1,8,0:0:0:0:
255,205,95756,1,8,0:0:0:0:
255,200,96056,1,12,0:0:0:0:
269,191,97256,1,8,0:0:0:0:
257,191,98456,1,0,0:0:0:0:
245,193,99656,1,0,0:0:0:0:
272,212,100856,1,8,0:0:0:0:
293,235,101006,1,8,0:0:0:0:
272,212,101306,1,0,0:0:0:0:
272,212,101756,1,0,0:0:0:0:
272,212,102056,1,8,0:0:0:0:
273,221,102506,1,8,0:0:0:0:
273,221,102956,1,0,0:0:0:0:
217,209,103256,1,8,0:0:0:0:
217,209,103406,1,8,0:0:0:0:
217,209,103556,1,8,0:0:0:0:
240,220,103706,1,0,0:0:0:0:
243,222,104156,1,8,0:0:0:0:
243,222,104306,1,8,0:0:0:0:
243,222,104456,1,0,0:0:0:0:
277,216,104756,1,8,0:0:0:0:
282,227,104906,1,0,0:0:0:0:
282,227,105206,1,8,0:0:0:0:
282,227,105356,1,8,0:0:0:0:
282,227,105506,1,0,0:0:0:0:
282,227,105656,1,8,0:0:0:0:
320,244,106256,1,0,0:0:0:0:
282,227,106556,1,8,0:0:0:0:
282,227,106706,1,0,0:0:0:0:
238,225,106856,1,8,0:0:0:0:
278,213,107156,1,0,0:0:0:0:
255,228,107456,1,8,0:0:0:0:
257,201,107756,1,8,0:0:0:0:
255,228,108056,1,0,0:0:0:0:
255,228,108656,1,0,0:0:0:0:
254,214,108956,1,8,0:0:0:0:
254,214,109106,1,0,0:0:0:0:
255,228,109256,1,8,0:0:0:0:
255,213,109556,1,0,0:0:0:0:
255,228,109856,1,8,0:0:0:0:
448,64,110156,1,8,0:0:0:0:
255,228,110456,1,8,0:0:0:0:
255,228,110756,1,0,0:0:0:0:
255,228,111056,1,0,0:0:0:0:
255,228,111356,1,0,0:0:0:0:
255,228,111656,1,8,0:0:0:0:
209,184,111806,1,8,0:0:0:0:
255,228,111956,1,0,0:0:0:0:
255,228,112256,1,0,0:0:0:0:
255,228,112556,1,0,0:0:0:0:
255,228,112856,1,8,0:0:0:0:
255,228,112931,1,8,0:0:0:0:
239,213,113006,1,0,0:0:0:0:
255,228,113156,1,8,0:0:0:0:
255,228,113231,1,0,0:0:0:0:
267,196,113381,1,8,0:0:0:0:
255,228,113456,1,8,0:0:0:0:
306,203,113531,1,0,0:0:0:0:
255,228,113606,1,8,0:0:0:0:
306,203,113681,1,0,0:0:0:0:
255,228,113756,1,8,0:0:0:0:
255,228,113906,1,0,0:0:0:0:
285,215,113981,1,8,0:0:0:0:
276,228,114056,1,0,0:0:0:0:
285,236,114131,1,8,0:0:0:0:
238,203,114206,1,0,0:0:0:0:
255,228,114356,1,8,0:0:0:0:
191,192,114431,1,8,0:0:0:0:
255,228,114506,1,0,0:0:0:0:
255,228,114581,1,0,0:0:0:0:
255,228,114656,1,8,0:0:0:0:
255,228,114806,1,0,0:0:0:0:
266,222,114881,1,0,0:0:0:0:
263,218,114956,1,8,0:0:0:0:
263,218,114993,1,8,0:0:0:0:
263,218,115031,1,0,0:0:0:0:
263,218,115106,1,8,0:0:0:0:
263,218,115143,1,8,0:0:0:0:
263,218,115181,1,0,0:0:0:0:
255,228,115256,1,12,0:0:0:0:
261,213,115406,1,0,0:0:0:0:
261,213,115481,1,0,0:0:0:0:
261,213,115556,1,8,0:0:0:0:
261,213,115631,1,0,0:0:0:0:
261,213,115706,1,0,0:0:0:0:
261,213,115781,1,8,0:0:0:0:
261,213,115856,1,8,0:0:0:0:
263,218,115931,1,0,0:0:0:0:
263,218,116006,1,0,0:0:0:0:
263,218,116081,1,0,0:0:0:0:
263,218,116156,1,8,0:0:0:0:
261,213,116231,1,0,0:0:0:0:
261,213,116306,1,8,0:0:0:0:
261,213,116381,1,8,0:0:0:0:
261,213,116456,1,0,0:0:0:0:
261,213,116531,1,0,0:0:0:0:
261,213,116606,1,8,0:0:0:0:
261,213,116681,1,0,0:0:0:0:
261,213,116756,1,8,0:0:0:0:
261,213,116831,1,8,0:0:0:0:
263,218,116906,1,0,0:0:0:0:
263,218,116981,1,0,0:0:0:0:
263,218,117056,1,8,0:0:0:0:
263,218,117131,1,0,0:0:0:0:
261,213,117206,1,0,0:0:0:0:
448,64,117281,1,0,0:0:0:0:
261,213,117356,1,8,0:0:0:0:
261,213,117431,1,8,0:0:0:0:
64,64,117506,1,0,0:0:0:0:
261,213,117581,1,0,0:0:0:0:
248,190,117656,1,8,0:0:0:0:
248,190,117731,1,8,0:0:0:0:
248,190,117806,1,8,0:0:0:0:
248,190,117881,1,0,0:0:0:0:
248,190,117956,1,8,0:0:0:0:
249,190,118031,1,8,0:0:0:0:
249,190,118106,1,0,0:0:0:0:
249,190,118181,1,0,0:0:0:0:
249,190,118256,1,0,0:0:0:0:
249,190,118331,1,0,0:0:0:0:
249,190,118406,1,8,0:0:0:0:
249,190,118481,1,8,0:0:0:0:
249,190,118556,1,8,0:0:0:0:
248,190,118631,1,0,0:0:0:0:
248,190,118706,1,0,0:0:0:0:
248,190,118781,1,8,0:0:0:0:
248,190,118856,1,8,0:0:0:0:
248,190,118931,1,0,0:0:0:0:
249,190,119006,1,0,0:0:0:0:
249,190,119081,1,0,0:0:0:0:
249,190,119156,1,8,0:0:0:0:
249,190,119306,1,8,0:0:0:0:
247,180,119381,1,8,0:0:0:0:
249,190,119456,1,0,0:0:0:0:
258,196,119531,1,8,0:0:0:0:
258,196,119606,1,0,0:0:0:0:
255,202,119756,1,8,0:0:0:0:
254,201,119831,1,8,0:0:0:0:
255,202,119906,1,0,0:0:0:0:
255,228,120056,1,0,0:0:0:0:
136,180,120131,1,0,0:0:0:0:
261,213,120206,1,0,0:0:0:0:
261,213,120281,1,0,0:0:0:0:
261,213,120356,1,8,0:0:0:0:
261,213,120431,1,8,0:0:0:0:
261,213,120506,1,0,0:0:0:0:
261,213,120581,1,0,0:0:0:0:
261,213,120656,1,8,0:0:0:0:
263,218,120731,1,0,0:0:0:0:
263,218,120806,1,0,0:0:0:0:
263,218,120881,1,0,0:0:0:0:
263,218,120956,1,8,0:0:0:0:
261,213,121031,1,8,0:0:0:0:
261,213,121106,1,0,0:0:0:0:
261,213,121181,1,0,0:0:0:0:
261,213,121256,1,8,0:0:0:0:
261,213,121331,1,8,0:0:0:0:
261,213,121406,1,8,0:0:0:0:
261,213,121481,1,0,0:0:0:0:
261,213,121556,1,8,0:0:0:0:
261,213,121631,1,8,0:0:0:0:
263,218,121706,1,0,0:0:0:0:
263,218,121781,1,0,0:0:0:0:
263,218,121856,1,8,0:0:0:0:
263,218,121931,1,0,0:0:0:0:
261,213,122006,1,8,0:0:0:0:
261,213,122081,1,0,0:0:0:0:
261,213,122156,1,8,0:0:0:0:
261,213,122231,1,8,0:0:0:0:
261,213,122306,1,8,0:0:0:0:
261,213,122381,1,8,0:0:0:0:
248,190,122456,1,0,0:0:0:0:
248,190,122531,1,0,0:0:0:0:
248,190,122606,1,0,0:0:0:0:
248,190,122681,1,0,0:0:0:0:
248,190,122756,1,8,0:0:0:0:
249,190,122831,1,0,0:0:0:0:
249,190,122906,1,8,0:0:0:0:
249,190,122981,1,0,0:0:0:0:
249,190,123056,1,8,0:0:0:0:
249,190,123131,1,8,0:0:0:0:
249,190,123206,1,0,0:0:0:0:
249,190,123281,1,0,0:0:0:0:
448,64,123356,1,8,0:0:0:0:
248,190,123431,1,8,0:0:0:0:
248,190,123506,1,8,0:0:0:0:
448,64,123581,1,8,0:0:0:0:
64,64,123656,1,0,0:0:0:0:
260,171,123881,1,0,0:0:0:0:
224,172,123956,1,8,0:0:0:0:
224,172,124031,1,8,0:0:0:0:
64,64,124106,1,0,0:0:0:0:
249,190,124256,1,8,0:0:0:0:
256,183,124331,1,8,0:0:0:0:
256,183,124406,1,0,0:0:0:0:
255,202,124481,1,0,0:0:0:0:
249,190,124556,1,8,0:0:0:0:
255,202,124706,1,0,0:0:0:0:
228,204,124781,1,0,0:0:0:0:
233,198,124856,1,8,0:0:0:0:
259,197,125006,1,0,0:0:0:0:
259,197,125081,1,0,0:0:0:0:
259,197,125156,1,0,0:0:0:0:
251,200,125231,1,0,0:0:0:0:
255,202,125306,1,8,0:0:0:0:
255,202,125381,1,0,0:0:0:0:
255,202,125456,1,0,0:0:0:0:
255,202,125531,1,8,0:0:0:0:
255,202,125606,1,0,0:0:0:0:
255,202,125681,1,0,0:0:0:0:
221,204,125756,1,8,0:0:0:0:
221,204,125831,1,8,0:0:0:0:
64,64,125906,1,0,0:0:0:0:
239,207,125981,1,0,0:0:0:0:
221,204,126056,1,8,0:0:0:0:
221,204,126131,1,8,0:0:0:0:
221,204,126206,1,8,0:0:0:0:
239,207,126281,1,0,0:0:0:0:
221,204,126356,1,8,0:0:0:0:
239,207,126431,1,8,0:0:0:0:
221,204,126506,1,8,0:0:0:0:
221,204,126581,1,8,0:0:0:0:
257,209,126656,1,0,0:0:0:0:
239,207,126731,1,0,0:0:0:0:
240,207,126806,1,8,0:0:0:0:
240,207,126881,1,8,0:0:0:0:
240,207,126956,1,0,0:0:0:0:
239,207,127031,1,0,0:0:0:0:
239,207,127106,1,8,0:0:0:0:
266,215,127181,1,0,0:0:0:0:
64,64,127256,1,8,0:0:0:0:
64,64,127331,1,8,0:0:0:0:
239,207,127406,1,0,0:0:0:0:
239,207,127481,1,0,0:0:0:0:
246,188,127556,1,8,0:0:0:0:
257,209,127631,1,0,0:0:0:0:
258,213,127706,1,0,0:0:0:0:
258,213,127781,1,0,0:0:0:0:
258,213,127856,1,8,0:0:0:0:
258,213,127931,1,8,0:0:0:0:
234,200,128006,1,0,0:0:0:0:
234,200,128081,1,0,0:0:0:0:
258,213,128156,1,8,0:0:0:0:
258,213,128231,1,0,0:0:0:0:
258,213,128306,1,0,0:0:0:0:
234,200,128381,1,8,0:0:0:0:
234,200,128456,1,8,0:0:0:0:
258,213,128531,1,0,0:0:0:0:
234,200,128606,1,8,0:0:0:0:
259,202,128681,1,8,0:0:0:0:
259,202,128756,1,8,0:0:0:0:
259,202,128831,1,8,0:0:0:0:
258,213,128906,1,0,0:0:0:0:
250,192,128981,1,0,0:0:0:0:
250,192,129056,1,8,0:0:0:0:
258,213,129131,1,8,0:0:0:0:
247,199,129206,1,0,0:0:0:0:
258,213,129281,1,0,0:0:0:0:
247,199,129356,1,8,0:0:0:0:
448,64,129431,1,0,0:0:0:0:
64,64,129506,1,8,0:0:0:0:
64,64,129581,1,8,0:0:0:0:
448,64,129656,1,0,0:0:0:0:
448,64,129731,1,8,0:0:0:0:
448,64,129806,1,8,0:0:0:0:
448,64,129881,1,8,0:0:0:0:
64,64,129956,1,0,0:0:0:0:
267,221,130031,1,8,0:0:0:0:
274,233,130106,1,0,0:0:0:0:
274,233,130181,1,0,0:0:0:0:
267,221,130256,1,8,0:0:0:0:
448,64,130331,1,8,0:0:0:0:
274,233,130406,1,0,0:0:0:0:
274,233,130481,1,0,0:0:0:0:
275,231,130556,1,8,0:0:0:0:
275,231,130631,1,0,0:0:0:0:
267,221,130706,1,8,0:0:0:0:
267,221,130781,1,8,0:0:0:0:
275,228,130856,1,0,0:0:0:0:
278,234,130931,1,0,0:0:0:0:
64,64,131006,1,0,0:0:0:0:
274,233,131081,1,0,0:0:0:0:
274,233,131156,1,8,0:0:0:0:
306,266,131231,1,8,0:0:0:0:
269,234,131306,1,8,0:0:0:0:
269,234,131381,1,8,0:0:0:0:
306,266,131456,1,0,0:0:0:0:
306,266,131531,1,0,0:0:0:0:
274,233,131606,1,8,0:0:0:0:
275,231,131681,1,8,0:0:0:0:
275,231,131756,1,8,0:0:0:0:
306,266,131831,1,0,0:0:0:0:
269,234,131906,1,8,0:0:0:0:
269,234,131981,1,8,0:0:0:0:
274,233,132056,1,0,0:0:0:0:
274,233,132131,1,0,0:0:0:0:
273,226,132206,1,0,0:0:0:0:
273,226,132281,1,0,0:0:0:0:
274,233,132356,1,8,0:0:0:0:
226,186,132431,1,8,0:0:0:0:
274,233,132506,1,0,0:0:0:0:
274,233,132581,1,0,0:0:0:0:
284,243,132656,1,8,0:0:0:0:
275,231,132731,1,0,0:0:0:0:
284,243,132806,1,8,0:0:0:0:
284,243,132881,1,8,0:0:0:0:
284,243,132956,1,0,0:0:0:0:
262,218,133106,1,0,0:0:0:0:
264,197,133256,5,8,0:0:0:0:
264,197,133293,1,8,0:0:0:0:
264,197,133406,1,0,0:0:0:0:
268,190,133481,1,0,0:0:0:0:
264,197,133556,1,8,0:0:0:0:
264,197,133593,1,8,0:0:0:0:
265,190,133706,1,0,0:0:0:0:
176,190,133781,1,0,0:0:0:0:
265,190,133856,1,8,0:0:0:0:
265,190,133893,1,8,0:0:0:0:
261,186,134006,1,8,0:0:0:0:
263,211,134081,1,8,0:0:0:0:
259,190,134156,1,0,0:0:0:0:
259,190,134193,1,0,0:0:0:0:
261,190,134306,1,0,0:0:0:0:
262,190,134343,1,0,0:0:0:0:
267,186,134456,1,8,0:0:0:0:
267,186,134531,1,8,0:0:0:0:
267,186,134606,1,0,0:0:0:0:
267,186,134756,1,0,0:0:0:0:
265,190,134906,1,8,0:0:0:0:
267,186,134981,1,8,0:0:0:0:
267,186,135056,1,0,0:0:0:0:
267,186,135206,1,0,0:0:0:0:
262,190,135356,1,8,0:0:0:0:
267,186,135431,1,8,0:0:0:0:
267,186,135506,1,0,0:0:0:0:
294,198,135581,1,0,0:0:0:0:
267,186,135656,1,8,0:0:0:0:
265,190,135806,1,8,0:0:0:0:
215,183,135881,1,8,0:0:0:0:
267,186,135956,1,0,0:0:0:0:
267,186,136031,1,0,0:0:0:0:
267,186,136106,1,8,0:0:0:0:
267,186,136181,1,0,0:0:0:0:
262,190,136256,1,8,0:0:0:0:
262,190,136331,1,8,0:0:0:0:
267,186,136406,1,0,0:0:0:0:
267,186,136481,1,8,0:0:0:0:
267,186,136556,1,0,0:0:0:0:
265,190,136706,1,8,0:0:0:0:
267,186,136781,1,8,0:0:0:0:
252,174,136856,1,0,0:0:0:0:
251,174,137006,1,0,0:0:0:0:
267,186,137156,1,8,0:0:0:0:
267,186,137231,1,8,0:0:0:0:
267,186,137306,1,0,0:0:0:0:
267,186,137456,1,0,0:0:0:0:
265,190,137606,1,8,0:0:0:0:
267,186,137681,1,8,0:0:0:0:
267,186,137756,1,0,0:0:0:0:
267,186,137906,1,0,0:0:0:0:
262,190,138056,1,8,0:0:0:0:
267,186,138131,1,8,0:0:0:0:
267,186,138206,1,0,0:0:0:0:
294,198,138281,1,0,0:0:0:0:
267,186,138356,1,8,0:0:0:0:
265,190,138506,1,8,0:0:0:0:
215,183,138581,1,0,0:0:0:0:
267,186,138656,1,8,0:0:0:0:
267,186,138731,1,8,0:0:0:0:
267,186,138806,1,0,0:0:0:0:
267,186,138881,1,0,0:0:0:0:
262,190,138956,1,8,0:0:0:0:
267,186,139106,1,0,0:0:0:0:
262,190,139181,1,0,0:0:0:0:
267,186,139256,1,8,0:0:0:0:
267,186,139406,1,8,0:0:0:0:
267,186,139481,1,8,0:0:0:0:
267,186,139556,1,0,0:0:0:0:
289,212,139631,1,8,0:0:0:0:
267,186,139706,1,0,0:0:0:0:
265,190,139856,1,8,0:0:0:0:
267,186,139906,1,8,0:0:0:0:
284,178,139956,1,8,0:0:0:0:
267,186,140006,1,0,0:0:0:0:
267,186,140156,1,0,0:0:0:0:
262,190,140306,1,8,0:0:0:0:
267,186,140381,1,8,0:0:0:0:
267,186,140456,1,0,0:0:0:0:
294,198,140531,1,0,0:0:0:0:
267,186,140606,1,8,0:0:0:0:
265,190,140756,1,8,0:0:0:0:
215,183,140831,1,8,0:0:0:0:
267,186,140906,1,0,0:0:0:0:
267,186,140981,1,0,0:0:0:0:
267,186,141056,1,8,0:0:0:0:
267,186,141106,1,8,0:0:0:0:
254,203,141156,1,8,0:0:0:0:
262,190,141206,1,0,0:0:0:0:
262,190,141281,1,0,0:0:0:0:
267,186,141356,1,8,0:0:0:0:
267,186,141506,1,0,0:0:0:0:
265,190,141656,1,8,0:0:0:0:
267,186,141731,1,8,0:0:0:0:
263,172,141806,1,0,0:0:0:0:
277,205,141881,1,8,0:0:0:0:
283,230,141956,1,0,0:0:0:0:
267,186,142106,1,8,0:0:0:0:
274,205,142181,1,0,0:0:0:0:
267,186,142256,1,8,0:0:0:0:
268,201,142306,1,8,0:0:0:0:
268,201,142356,1,8,0:0:0:0:
267,186,142406,1,0,0:0:0:0:
265,190,142556,1,8,0:0:0:0:
267,186,142631,1,8,0:0:0:0:
267,186,142706,1,0,0:0:0:0:
267,186,142856,1,0,0:0:0:0:
262,190,143006,1,8,0:0:0:0:
267,186,143081,1,8,0:0:0:0:
267,186,143156,1,0,0:0:0:0:
294,198,143231,1,0,0:0:0:0:
267,186,143306,1,8,0:0:0:0:
265,190,143456,1,8,0:0:0:0:
215,183,143506,1,8,0:0:0:0:
200,181,143556,1,8,0:0:0:0:
267,186,143606,1,0,0:0:0:0:
267,186,143756,1,8,0:0:0:0:
267,186,143831,1,8,0:0:0:0:
262,190,143906,1,8,0:0:0:0:
262,190,143981,1,8,0:0:0:0:
267,186,144056,1,0,0:0:0:0:
267,186,144206,1,0,0:0:0:0:
267,186,144356,1,8,0:0:0:0:
267,186,144431,1,8,0:0:0:0:
267,186,144506,1,0,0:0:0:0:
267,186,144656,1,0,0:0:0:0:
265,190,144806,1,8,0:0:0:0:
267,186,144881,1,8,0:0:0:0:
267,186,144956,1,0,0:0:0:0:
267,186,145106,1,0,0:0:0:0:
262,190,145256,1,8,0:0:0:0:
267,186,145331,1,8,0:0:0:0:
267,186,145406,1,0,0:0:0:0:
294,198,145481,1,0,0:0:0:0:
267,186,145556,1,8,0:0:0:0:
265,190,145706,1,0,0:0:0:0:
215,183,145781,1,0,0:0:0:0:
267,186,145856,1,8,0:0:0:0:
267,186,145931,1,8,0:0:0:0:
267,186,146006,1,0,0:0:0:0:
267,186,146081,1,8,0:0:0:0:
262,190,146156,1,0,0:0:0:0:
262,190,146231,1,0,0:0:0:0:
267,186,146306,1,8,0:0:0:0:
267,186,146381,1,0,0:0:0:0:
267,186,146456,1,8,0:0:0:0:
265,190,146606,1,8,0:0:0:0:
181,179,146681,1,8,0:0:0:0:
218,169,146756,1,0,0:0:0:0:
458,368,146906,1,0,0:0:0:0:
267,186,147056,1,8,0:0:0:0:
267,186,147131,1,8,0:0:0:0:
267,186,147206,1,0,0:0:0:0:
267,186,147356,1,0,0:0:0:0:
265,190,147506,1,8,0:0:0:0:
267,186,147581,1,8,0:0:0:0:
267,186,147656,1,0,0:0:0:0:
267,186,147806,1,0,0:0:0:0:
262,190,147956,1,8,0:0:0:0:
267,186,148031,1,8,0:0:0:0:
267,186,148106,1,0,0:0:0:0:
294,198,148181,1,0,0:0:0:0:
267,186,148256,1,8,0:0:0:0:
265,190,148406,1,8,0:0:0:0:
215,183,148481,1,8,0:0:0:0:
267,186,148556,1,0,0:0:0:0:
267,186,148631,1,0,0:0:0:0:
267,186,148706,1,8,0:0:0:0:
267,186,148781,1,0,0:0:0:0:
262,190,148856,1,8,0:0:0:0:
262,190,148931,1,8,0:0:0:0:
267,186,149006,1,0,0:0:0:0:
267,186,149081,1,0,0:0:0:0:
267,186,149156,1,8,0:0:0:0:
267,186,149306,1,8,0:0:0:0:
267,186,149381,1,8,0:0:0:0:
267,186,149456,1,0,0:0:0:0:
267,186,149606,1,0,0:0:0:0:
265,190,149756,1,8,0:0:0:0:
267,186,149831,1,8,0:0:0:0:
267,186,149906,1,0,0:0:0:0:
267,186,150056,1,0,0:0:0:0:
262,190,150206,1,8,0:0:0:0:
267,186,150281,1,8,0:0:0:0:
267,186,150356,1,0,0:0:0:0:
294,198,150431,1,0,0:0:0:0:
267,186,150506,1,8,0:0:0:0:
265,190,150656,1,8,0:0:0:0:
215,183,150731,1,8,0:0:0:0:
267,186,150806,1,0,0:0:0:0:
267,186,150881,1,0,0:0:0:0:
267,186,150956,1,8,0:0:0:0:
267,186,151031,1,0,0:0:0:0:
262,190,151106,1,8,0:0:0:0:
262,190,151181,1,8,0:0:0:0:
267,186,151256,1,0,0:0:0:0:
267,186,151406,1,0,0:0:0:0:
265,190,151556,1,8,0:0:0:0:
256,187,151631,1,8,0:0:0:0:
260,200,151706,1,0,0:0:0:0:
260,200,151856,1,0,0:0:0:0:
258,201,152006,1,8,0:0:0:0:
267,186,152081,1,8,0:0:0:0:
260,200,152156,1,0,0:0:0:0:
260,200,152306,1,0,0:0:0:0:
263,202,152456,5,8,0:0:0:0:
237,190,152531,1,0,0:0:0:0:
263,202,152606,5,8,0:0:0:0:
237,190,152681,1,0,0:0:0:0:
263,202,152756,5,8,0:0:0:0:
237,190,152831,1,0,0:0:0:0:
263,202,152906,5,8,0:0:0:0:
237,190,152981,1,0,0:0:0:0:
263,202,153056,5,8,0:0:0:0:
237,190,153131,1,0,0:0:0:0:
263,202,153206,5,8,0:0:0:0:
237,190,153281,1,0,0:0:0:0:
263,202,153356,5,8,0:0:0:0:
237,190,153431,1,0,0:0:0:0:
263,202,153506,5,8,0:0:0:0:
237,190,153581,1,0,0:0:0:0:
229,185,153656,1,12,0:0:0:0:
256,192,168056,12,0,171356,0:0:0:0:
161,202,171656,5,0,0:0:0:0:
402,291,171956,1,0,0:0:0:0:
402,291,172256,1,0,0:0:0:0:
402,291,172556,1,0,0:0:0:0:
402,291,172856,1,4,0:0:0:0:
239,187,173006,1,8,0:0:0:0:
239,187,173081,1,8,0:0:0:0:
231,170,173156,1,0,0:0:0:0:
255,177,173306,1,8,0:0:0:0:
255,177,173381,1,8,0:0:0:0:
255,177,173456,1,0,0:0:0:0:
255,177,173606,1,8,0:0:0:0:
255,177,173681,1,8,0:0:0:0:
255,177,173756,1,0,0:0:0:0:
255,177,173906,1,8,0:0:0:0:
255,177,173981,1,8,0:0:0:0:
255,177,174056,1,0,0:0:0:0:
239,187,174206,1,8,0:0:0:0:
239,187,174281,1,8,0:0:0:0:
231,170,174356,1,0,0:0:0:0:
255,177,174506,1,8,0:0:0:0:
255,177,174581,1,8,0:0:0:0:
255,177,174656,1,0,0:0:0:0:
255,177,174806,1,8,0:0:0:0:
255,177,174881,1,8,0:0:0:0:
255,177,174956,1,0,0:0:0:0:
255,177,175106,1,8,0:0:0:0:
255,177,175181,1,8,0:0:0:0:
255,177,175256,1,0,0:0:0:0:
239,187,175406,1,8,0:0:0:0:
239,187,175481,1,8,0:0:0:0:
231,170,175556,1,0,0:0:0:0:
255,177,175706,1,8,0:0:0:0:
255,177,175781,1,8,0:0:0:0:
255,177,175856,1,0,0:0:0:0:
255,177,176006,1,8,0:0:0:0:
255,177,176081,1,8,0:0:0:0:
255,177,176156,1,0,0:0:0:0:
255,177,176306,1,8,0:0:0:0:
255,177,176381,1,8,0:0:0:0:
255,177,176456,1,0,0:0:0:0:
281,173,176606,1,8,0:0:0:0:
276,173,176681,1,0,0:0:0:0:
276,173,176756,1,0,0:0:0:0:
276,173,176906,1,8,0:0:0:0:
276,173,176981,1,0,0:0:0:0:
276,173,177056,1,0,0:0:0:0:
276,173,177206,1,8,0:0:0:0:
276,173,177281,1,0,0:0:0:0:
276,173,177356,1,0,0:0:0:0:
281,173,177506,1,8,0:0:0:0:
281,173,177581,1,0,0:0:0:0:
276,173,177656,1,0,0:0:0:0:
239,187,177806,1,8,0:0:0:0:
239,187,177881,1,8,0:0:0:0:
231,170,177956,1,0,0:0:0:0:
255,177,178106,1,8,0:0:0:0:
255,177,178181,1,8,0:0:0:0:
255,177,178256,1,0,0:0:0:0:
255,177,178406,1,8,0:0:0:0:
255,177,178481,1,8,0:0:0:0:
255,177,178556,1,0,0:0:0:0:
255,177,178706,1,8,0:0:0:0:
255,177,178781,1,8,0:0:0:0:
255,177,178856,1,0,0:0:0:0:
239,187,179006,1,8,0:0:0:0:
239,187,179081,1,8,0:0:0:0:
231,170,179156,1,0,0:0:0:0:
255,177,179306,1,8,0:0:0:0:
255,177,179381,1,8,0:0:0:0:
255,177,179456,1,0,0:0:0:0:
255,177,179606,1,8,0:0:0:0:
255,177,179681,1,8,0:0:0:0:
255,177,179756,1,0,0:0:0:0:
255,177,179906,1,8,0:0:0:0:
255,177,179981,1,8,0:0:0:0:
255,177,180056,1,0,0:0:0:0:
239,187,180206,1,8,0:0:0:0:
239,187,180281,1,8,0:0:0:0:
231,170,180356,1,0,0:0:0:0:
255,177,180506,1,8,0:0:0:0:
255,177,180581,1,8,0:0:0:0:
255,177,180656,1,0,0:0:0:0:
255,177,180806,1,8,0:0:0:0:
255,177,180881,1,8,0:0:0:0:
255,177,180956,1,0,0:0:0:0:
255,177,181106,1,8,0:0:0:0:
255,177,181181,1,8,0:0:0:0:
255,177,181256,1,0,0:0:0:0:
284,175,181406,1,8,0:0:0:0:
280,175,181481,1,0,0:0:0:0:
280,175,181556,1,0,0:0:0:0:
280,175,181706,1,8,0:0:0:0:
280,175,181781,1,0,0:0:0:0:
280,175,181856,1,0,0:0:0:0:
280,175,182006,1,8,0:0:0:0:
280,175,182081,1,0,0:0:0:0:
280,175,182156,1,0,0:0:0:0:
284,175,182306,1,8,0:0:0:0:
284,175,182381,1,0,0:0:0:0:
280,175,182456,1,0,0:0:0:0:
291,187,182606,1,0,0:0:0:0:
291,187,182681,1,0,0:0:0:0:
291,187,182756,1,8,0:0:0:0:
280,175,182906,1,8,0:0:0:0:
280,175,182981,1,8,0:0:0:0:
280,175,183056,1,0,0:0:0:0:
245,202,183206,1,0,0:0:0:0:
245,202,183281,1,0,0:0:0:0:
245,202,183356,1,8,0:0:0:0:
245,202,183506,1,8,0:0:0:0:
245,202,183581,1,8,0:0:0:0:
245,202,183656,1,0,0:0:0:0:
291,187,183806,1,0,0:0:0:0:
291,187,183881,1,0,0:0:0:0:
291,187,183956,1,8,0:0:0:0:
280,175,184106,1,8,0:0:0:0:
280,175,184181,1,8,0:0:0:0:
280,175,184256,1,0,0:0:0:0:
245,202,184406,1,0,0:0:0:0:
245,202,184481,1,0,0:0:0:0:
245,202,184556,1,8,0:0:0:0:
245,202,184706,1,8,0:0:0:0:
245,202,184781,1,8,0:0:0:0:
245,202,184856,1,0,0:0:0:0:
291,187,185006,1,0,0:0:0:0:
291,187,185081,1,0,0:0:0:0:
291,187,185156,1,8,0:0:0:0:
280,175,185306,1,8,0:0:0:0:
280,175,185381,1,8,0:0:0:0:
280,175,185456,1,0,0:0:0:0:
245,202,185606,1,0,0:0:0:0:
245,202,185681,1,0,0:0:0:0:
245,202,185756,1,8,0:0:0:0:
245,202,185906,1,8,0:0:0:0:
245,202,185981,1,8,0:0:0:0:
245,202,186056,1,0,0:0:0:0:
257,201,186206,1,0,0:0:0:0:
257,201,186281,1,0,0:0:0:0:
257,201,186356,1,8,0:0:0:0:
257,201,186506,1,8,0:0:0:0:
257,201,186581,1,0,0:0:0:0:
257,201,186656,1,0,0:0:0:0:
257,201,186806,1,0,0:0:0:0:
257,201,186881,1,0,0:0:0:0:
257,201,186956,1,8,0:0:0:0:
257,201,187106,1,8,0:0:0:0:
257,201,187181,1,0,0:0:0:0:
257,201,187256,1,0,0:0:0:0:
291,187,187406,1,0,0:0:0:0:
291,187,187481,1,0,0:0:0:0:
291,187,187556,1,8,0:0:0:0:
280,175,187706,1,8,0:0:0:0:
280,175,187781,1,8,0:0:0:0:
280,175,187856,1,0,0:0:0:0:
245,202,188006,1,0,0:0:0:0:
245,202,188081,1,0,0:0:0:0:
245,202,188156,1,8,0:0:0:0:
245,202,188306,1,8,0:0:0:0:
245,202,188381,1,8,0:0:0:0:
245,202,188456,1,0,0:0:0:0:
291,187,188606,1,0,0:0:0:0:
291,187,188681,1,0,0:0:0:0:
291,187,188756,1,8,0:0:0:0:
280,175,188906,1,8,0:0:0:0:
280,175,188981,1,8,0:0:0:0:
280,175,189056,1,0,0:0:0:0:
245,202,189206,1,0,0:0:0:0:
245,202,189281,1,0,0:0:0:0:
245,202,189356,1,8,0:0:0:0:
245,202,189506,1,8,0:0:0:0:
245,202,189581,1,8,0:0:0:0:
245,202,189656,1,0,0:0:0:0:
291,187,189806,1,0,0:0:0:0:
291,187,189881,1,0,0:0:0:0:
291,187,189956,1,8,0:0:0:0:
280,175,190106,1,8,0:0:0:0:
280,175,190181,1,8,0:0:0:0:
280,175,190256,1,0,0:0:0:0:
245,202,190406,1,0,0:0:0:0:
245,202,190481,1,0,0:0:0:0:
245,202,190556,1,8,0:0:0:0:
245,202,190706,1,8,0:0:0:0:
245,202,190781,1,8,0:0:0:0:
245,202,190856,1,0,0:0:0:0:
251,193,191081,1,0,0:0:0:0:
249,229,191456,1,0,0:0:0:0:
249,229,191681,1,0,0:0:0:0:
262,226,192056,1,0,0:0:0:0:
262,226,192131,1,0,0:0:0:0:
266,172,192206,1,8,0:0:0:0:
266,172,192256,1,0,0:0:0:0:
266,172,192306,1,0,0:0:0:0:
266,172,192356,1,8,0:0:0:0:
216,221,192506,1,0,0:0:0:0:
276,227,192581,1,0,0:0:0:0:
250,218,192656,1,8,0:0:0:0:
194,183,192806,1,8,0:0:0:0:
258,209,192881,1,8,0:0:0:0:
245,209,192956,1,0,0:0:0:0:
242,187,193006,1,8,0:0:0:0:
209,199,193056,1,8,0:0:0:0:
209,199,193106,1,0,0:0:0:0:
249,224,193256,1,0,0:0:0:0:
173,199,193331,1,0,0:0:0:0:
174,179,193406,1,8,0:0:0:0:
244,219,193481,1,0,0:0:0:0:
216,219,193556,1,8,0:0:0:0:
216,219,193706,1,0,0:0:0:0:
216,219,193781,1,0,0:0:0:0:
276,231,193856,1,8,0:0:0:0:
276,231,193906,1,8,0:0:0:0:
276,231,193956,1,8,0:0:0:0:
276,231,194006,1,0,0:0:0:0:
102,172,194056,1,0,0:0:0:0:
102,172,194106,1,0,0:0:0:0:
250,246,194156,1,8,0:0:0:0:
258,224,194306,1,0,0:0:0:0:
258,224,194456,1,8,0:0:0:0:
258,224,194531,1,8,0:0:0:0:
261,231,194606,1,0,0:0:0:0:
261,231,194656,1,0,0:0:0:0:
261,231,194706,1,0,0:0:0:0:
261,231,194756,1,8,0:0:0:0:
222,198,194831,1,8,0:0:0:0:
222,198,194906,1,0,0:0:0:0:
262,226,195056,1,0,0:0:0:0:
262,226,195131,1,0,0:0:0:0:
266,172,195206,1,8,0:0:0:0:
266,172,195256,1,8,0:0:0:0:
266,172,195306,1,8,0:0:0:0:
266,172,195356,1,0,0:0:0:0:
284,212,195431,1,0,0:0:0:0:
273,204,195506,1,8,0:0:0:0:
273,204,195656,1,8,0:0:0:0:
273,204,195731,1,8,0:0:0:0:
273,204,195806,1,8,0:0:0:0:
288,206,195956,1,0,0:0:0:0:
288,206,196031,1,8,0:0:0:0:
200,167,196106,1,0,0:0:0:0:
284,212,196256,1,0,0:0:0:0:
238,172,196406,1,8,0:0:0:0:
308,226,196481,1,0,0:0:0:0:
284,219,196556,1,8,0:0:0:0:
287,219,196606,1,0,0:0:0:0:
255,207,196656,1,0,0:0:0:0:
176,185,196706,1,8,0:0:0:0:
290,217,196781,1,8,0:0:0:0:
251,212,196856,1,0,0:0:0:0:
280,191,197006,1,0,0:0:0:0:
280,191,197156,1,8,0:0:0:0:
227,189,197231,1,8,0:0:0:0:
260,213,197306,1,0,0:0:0:0:
255,214,197356,1,0,0:0:0:0:
255,214,197406,1,0,0:0:0:0:
255,214,197456,1,8,0:0:0:0:
227,206,197531,1,8,0:0:0:0:
227,215,197606,1,0,0:0:0:0:
267,204,197756,1,8,0:0:0:0:
239,203,197831,1,8,0:0:0:0:
267,204,197906,1,8,0:0:0:0:
279,223,198056,1,0,0:0:0:0:
279,223,198131,1,0,0:0:0:0:
260,213,198206,1,8,0:0:0:0:
260,213,198256,1,8,0:0:0:0:
260,213,198306,1,8,0:0:0:0:
255,214,198356,1,0,0:0:0:0:
244,210,198431,1,0,0:0:0:0:
199,196,198506,1,8,0:0:0:0:
195,187,198656,1,0,0:0:0:0:
249,209,198806,1,8,0:0:0:0:
249,209,198881,1,8,0:0:0:0:
227,200,198956,1,0,0:0:0:0:
227,200,199006,1,0,0:0:0:0:
227,200,199056,1,0,0:0:0:0:
227,200,199106,1,8,0:0:0:0:
224,200,199181,1,8,0:0:0:0:
284,198,199256,1,0,0:0:0:0:
298,212,199406,1,0,0:0:0:0:
184,192,199481,1,0,0:0:0:0:
284,198,199556,1,8,0:0:0:0:
266,205,199606,1,8,0:0:0:0:
251,202,199656,1,8,0:0:0:0:
168,184,199706,1,0,0:0:0:0:
266,205,199856,1,0,0:0:0:0:
136,194,200006,1,8,0:0:0:0:
275,185,200081,1,8,0:0:0:0:
282,206,200156,1,0,0:0:0:0:
281,206,200206,1,0,0:0:0:0:
146,166,200256,1,0,0:0:0:0:
281,206,200306,1,8,0:0:0:0:
281,206,200381,1,8,0:0:0:0:
281,206,200456,1,0,0:0:0:0:
275,216,200606,1,8,0:0:0:0:
268,215,200681,1,0,0:0:0:0:
275,216,200756,1,8,0:0:0:0:
136,164,200831,1,8,0:0:0:0:
272,223,200906,1,0,0:0:0:0:
273,223,201056,1,8,0:0:0:0:
274,196,201131,1,8,0:0:0:0:
275,201,201206,1,0,0:0:0:0:
267,194,201356,1,8,0:0:0:0:
267,194,201506,1,0,0:0:0:0:
284,208,201581,1,0,0:0:0:0:
448,64,201656,1,8,0:0:0:0:
178,188,201706,1,0,0:0:0:0:
178,188,201756,1,0,0:0:0:0:
298,215,201806,1,8,0:0:0:0:
297,211,201881,1,8,0:0:0:0:
297,211,201956,1,0,0:0:0:0:
295,210,202106,1,8,0:0:0:0:
275,201,202181,1,8,0:0:0:0:
295,209,202256,1,0,0:0:0:0:
292,208,202331,1,8,0:0:0:0:
352,180,202406,1,0,0:0:0:0:
352,180,202456,1,0,0:0:0:0:
352,180,202506,1,0,0:0:0:0:
352,180,202556,1,8,0:0:0:0:
220,175,202631,1,8,0:0:0:0:
312,211,202706,1,0,0:0:0:0:
218,182,202856,1,8,0:0:0:0:
218,182,202931,1,8,0:0:0:0:
218,182,203006,1,0,0:0:0:0:
330,176,203081,1,0,0:0:0:0:
320,174,203156,1,8,0:0:0:0:
320,174,203206,1,8,0:0:0:0:
320,174,203256,1,8,0:0:0:0:
320,174,203306,1,0,0:0:0:0:
293,182,203456,1,0,0:0:0:0:
167,187,203531,1,0,0:0:0:0:
309,196,203606,1,8,0:0:0:0:
233,156,203681,1,0,0:0:0:0:
309,196,203756,1,8,0:0:0:0:
308,176,203806,1,0,0:0:0:0:
309,175,203856,1,0,0:0:0:0:
310,175,203906,1,8,0:0:0:0:
321,195,203981,1,8,0:0:0:0:
362,131,204056,1,0,0:0:0:0:
321,195,204281,1,0,0:0:0:0:
321,195,204356,1,8,0:0:0:0:
320,214,204431,1,0,0:0:0:0:
216,166,204581,1,0,0:0:0:0:
316,191,204656,1,8,0:0:0:0:
313,207,204731,1,8,0:0:0:0:
306,222,204806,1,0,0:0:0:0:
313,207,204881,1,0,0:0:0:0:
311,220,204956,1,8,0:0:0:0:
328,242,205106,1,0,0:0:0:0:
328,242,205181,1,0,0:0:0:0:
321,237,205256,1,8,0:0:0:0:
321,237,205331,1,8,0:0:0:0:
322,237,205406,1,0,0:0:0:0:
305,230,205556,1,8,0:0:0:0:
305,230,205631,1,0,0:0:0:0:
305,230,205706,1,8,0:0:0:0:
217,184,205856,1,8,0:0:0:0:
192,169,205931,1,8,0:0:0:0:
189,186,206006,1,0,0:0:0:0:
189,186,206081,1,0,0:0:0:0:
189,186,206156,1,8,0:0:0:0:
189,186,206306,1,0,0:0:0:0:
189,186,206381,1,8,0:0:0:0:
189,186,206456,1,0,0:0:0:0:
200,192,206606,1,0,0:0:0:0:
200,192,206681,1,0,0:0:0:0:
200,192,206756,1,8,0:0:0:0:
200,192,206806,1,0,0:0:0:0:
182,194,206856,1,0,0:0:0:0:
196,199,206906,1,8,0:0:0:0:
200,199,206981,1,8,0:0:0:0:
196,199,207056,1,0,0:0:0:0:
264,213,207206,1,8,0:0:0:0:
264,213,207281,1,0,0:0:0:0:
264,213,207356,1,8,0:0:0:0:
264,213,207506,1,0,0:0:0:0:
264,213,207581,1,0,0:0:0:0:
273,211,207656,1,8,0:0:0:0:
273,211,207706,1,8,0:0:0:0:
273,211,207756,1,8,0:0:0:0:
273,211,207806,1,0,0:0:0:0:
297,188,207881,1,0,0:0:0:0:
296,190,207956,1,8,0:0:0:0:
213,189,208106,1,0,0:0:0:0:
213,189,208181,1,0,0:0:0:0:
213,189,208256,1,8,0:0:0:0:
213,189,208331,1,8,0:0:0:0:
213,189,208406,1,0,0:0:0:0:
213,189,208556,1,8,0:0:0:0:
213,189,208606,1,8,0:0:0:0:
213,168,208656,1,8,0:0:0:0:
213,189,208706,1,8,0:0:0:0:
213,189,208856,1,0,0:0:0:0:
188,192,208931,1,8,0:0:0:0:
233,165,209006,1,0,0:0:0:0:
233,165,209056,1,0,0:0:0:0:
233,165,209106,1,0,0:0:0:0:
233,165,209156,1,8,0:0:0:0:
238,181,209231,1,8,0:0:0:0:
244,177,209306,1,0,0:0:0:0:
244,177,209456,1,8,0:0:0:0:
213,189,209606,1,0,0:0:0:0:
244,177,209681,1,0,0:0:0:0:
244,177,209756,1,8,0:0:0:0:
253,179,209806,1,0,0:0:0:0:
253,179,209856,1,0,0:0:0:0:
280,218,209906,1,8,0:0:0:0:
317,248,210056,1,0,0:0:0:0:
317,248,210131,1,0,0:0:0:0:
317,248,210206,1,0,0:0:0:0:
317,248,210281,1,0,0:0:0:0:
317,248,210356,1,8,0:0:0:0:
317,248,210431,1,8,0:0:0:0:
317,248,210506,1,0,0:0:0:0:
317,248,210581,1,0,0:0:0:0:
299,213,210656,1,8,0:0:0:0:
299,213,210706,1,8,0:0:0:0:
299,213,210756,1,8,0:0:0:0:
299,213,210806,1,0,0:0:0:0:
305,230,210918,1,8,0:0:0:0:
305,230,210956,1,8,0:0:0:0:
305,229,211068,1,8,0:0:0:0:
305,229,211106,1,8,0:0:0:0:
305,229,211256,1,4,0:0:0:0:
307,225,211406,1,8,0:0:0:0:
307,225,211481,1,8,0:0:0:0:
307,225,211556,1,0,0:0:0:0:
307,225,211631,1,8,0:0:0:0:
306,225,211706,1,0,0:0:0:0:
306,225,211781,1,0,0:0:0:0:
305,230,211856,1,8,0:0:0:0:
305,230,211931,1,8,0:0:0:0:
305,229,212006,1,8,0:0:0:0:
305,229,212081,1,8,0:0:0:0:
305,229,212156,1,0,0:0:0:0:
307,225,212306,1,8,0:0:0:0:
307,225,212381,1,0,0:0:0:0:
307,225,212456,1,8,0:0:0:0:
270,208,212606,1,0,0:0:0:0:
291,199,212681,1,0,0:0:0:0:
286,200,212756,1,8,0:0:0:0:
287,200,212806,1,8,0:0:0:0:
287,200,212856,1,8,0:0:0:0:
287,200,212906,1,0,0:0:0:0:
257,208,212981,1,0,0:0:0:0:
292,215,213056,1,8,0:0:0:0:
292,215,213206,1,0,0:0:0:0:
292,215,213356,1,8,0:0:0:0:
205,198,213431,1,0,0:0:0:0:
205,198,213506,1,8,0:0:0:0:
205,198,213581,1,8,0:0:0:0:
205,198,213656,1,0,0:0:0:0:
281,231,213806,1,0,0:0:0:0:
281,231,213956,1,8,0:0:0:0:
281,231,214031,1,8,0:0:0:0:
281,231,214106,1,0,0:0:0:0:
281,231,214181,1,0,0:0:0:0:
281,231,214256,1,8,0:0:0:0:
281,231,214406,1,0,0:0:0:0:
281,231,214481,1,0,0:0:0:0:
281,231,214556,1,8,0:0:0:0:
281,231,214631,1,8,0:0:0:0:
281,231,214706,1,0,0:0:0:0:
281,231,214781,1,8,0:0:0:0:
281,231,214856,1,0,0:0:0:0:
297,223,214906,1,8,0:0:0:0:
297,223,214956,1,8,0:0:0:0:
297,223,215006,1,0,0:0:0:0:
299,188,215156,1,8,0:0:0:0:
299,188,215231,1,8,0:0:0:0:
299,188,215306,1,0,0:0:0:0:
299,188,215381,1,0,0:0:0:0:
299,188,215456,1,8,0:0:0:0:
299,188,215531,1,0,0:0:0:0:
290,214,215606,1,8,0:0:0:0:
290,214,215656,1,0,0:0:0:0:
290,214,215706,1,0,0:0:0:0:
290,214,215756,1,8,0:0:0:0:
284,192,215906,1,8,0:0:0:0:
278,206,216056,1,0,0:0:0:0:
278,206,216131,1,0,0:0:0:0:
278,206,216206,1,0,0:0:0:0:
278,206,216356,1,8,0:0:0:0:
278,206,216431,1,8,0:0:0:0:
278,206,216506,1,8,0:0:0:0:
277,205,216656,1,0,0:0:0:0:
277,205,216731,1,0,0:0:0:0:
203,199,216806,1,8,0:0:0:0:
278,206,216881,1,0,0:0:0:0:
278,206,216956,1,8,0:0:0:0:
278,206,217031,1,0,0:0:0:0:
239,199,217106,1,8,0:0:0:0:
267,190,217181,1,8,0:0:0:0:
278,206,217256,1,0,0:0:0:0:
278,206,217406,1,8,0:0:0:0:
278,206,217481,1,0,0:0:0:0:
278,211,217556,1,8,0:0:0:0:
282,214,217706,1,0,0:0:0:0:
282,214,217781,1,0,0:0:0:0:
282,214,217856,1,8,0:0:0:0:
294,223,218006,1,0,0:0:0:0:
79,124,218081,1,0,0:0:0:0:
294,223,218156,1,8,0:0:0:0:
291,204,218231,1,8,0:0:0:0:
283,224,218306,1,0,0:0:0:0:
265,213,218456,1,8,0:0:0:0:
265,213,218531,1,0,0:0:0:0:
211,226,218606,1,8,0:0:0:0:
222,212,218681,1,0,0:0:0:0:
281,228,218756,1,8,0:0:0:0:
265,213,218831,1,8,0:0:0:0:
265,213,218906,1,0,0:0:0:0:
265,213,219056,1,8,0:0:0:0:
274,190,219131,1,8,0:0:0:0:
265,213,219206,1,0,0:0:0:0:
273,202,219356,1,8,0:0:0:0:
259,192,219431,1,0,0:0:0:0:
275,204,219506,1,8,0:0:0:0:
275,204,219656,1,8,0:0:0:0:
225,169,219731,1,8,0:0:0:0:
273,212,219806,1,0,0:0:0:0:
280,215,219956,1,8,0:0:0:0:
273,218,220031,1,8,0:0:0:0:
273,218,220106,1,0,0:0:0:0:
168,188,220181,1,8,0:0:0:0:
264,213,220256,1,0,0:0:0:0:
195,209,220406,1,8,0:0:0:0:
264,213,220481,1,0,0:0:0:0:
210,213,220631,1,8,0:0:0:0:
264,213,220706,1,0,0:0:0:0:
264,213,220856,1,8,0:0:0:0:
252,208,221006,1,0,0:0:0:0:
253,207,221081,1,0,0:0:0:0:
251,206,221156,1,8,0:0:0:0:
251,206,221231,1,8,0:0:0:0:
251,206,221306,1,0,0:0:0:0:
252,206,221456,1,8,0:0:0:0:
252,206,221531,1,8,0:0:0:0:
218,191,221606,1,0,0:0:0:0:
252,206,221756,1,8,0:0:0:0:
246,202,221906,1,0,0:0:0:0:
246,202,221981,1,0,0:0:0:0:
246,202,222056,1,8,0:0:0:0:
251,206,222131,1,0,0:0:0:0:
238,208,222206,1,8,0:0:0:0:
238,208,222256,1,8,0:0:0:0:
238,208,222306,1,8,0:0:0:0:
238,208,222356,1,0,0:0:0:0:
238,199,222431,1,0,0:0:0:0:
288,210,222506,1,8,0:0:0:0:
288,210,222581,1,8,0:0:0:0:
288,210,222656,1,0,0:0:0:0:
288,210,222806,1,8,0:0:0:0:
227,190,222881,1,8,0:0:0:0:
289,197,222956,1,0,0:0:0:0:
289,197,223006,1,0,0:0:0:0:
289,197,223056,1,0,0:0:0:0:
289,197,223106,1,8,0:0:0:0:
264,189,223181,1,8,0:0:0:0:
280,207,223256,1,0,0:0:0:0:
242,171,223331,1,0,0:0:0:0:
280,207,223406,1,8,0:0:0:0:
280,207,223556,1,8,0:0:0:0:
280,207,223631,1,8,0:0:0:0:
280,207,223706,1,0,0:0:0:0:
280,207,223781,1,8,0:0:0:0:
280,207,223856,1,0,0:0:0:0:
296,236,224006,1,8,0:0:0:0:
310,215,224081,1,8,0:0:0:0:
289,223,224156,1,0,0:0:0:0:
218,156,224206,1,8,0:0:0:0:
218,156,224256,1,8,0:0:0:0:
289,223,224306,1,0,0:0:0:0:
289,223,224381,1,0,0:0:0:0:
289,223,224456,1,8,0:0:0:0:
289,223,224531,1,8,0:0:0:0:
289,223,224606,1,0,0:0:0:0:
289,223,224756,1,8,0:0:0:0:
289,223,224831,1,8,0:0:0:0:
289,223,224906,1,0,0:0:0:0:
289,223,224981,1,0,0:0:0:0:
289,223,225056,1,8,0:0:0:0:
289,223,225106,1,8,0:0:0:0:
282,202,225156,1,8,0:0:0:0:
231,199,225206,1,0,0:0:0:0:
331,240,225281,1,0,0:0:0:0:
289,223,225356,1,8,0:0:0:0:
289,223,225506,1,8,0:0:0:0:
289,223,225581,1,0,0:0:0:0:
289,223,225656,1,8,0:0:0:0:
301,222,225731,1,8,0:0:0:0:
290,205,225806,1,0,0:0:0:0:
270,217,225881,1,0,0:0:0:0:
301,222,225956,1,8,0:0:0:0:
270,217,226106,1,8,0:0:0:0:
270,217,226181,1,8,0:0:0:0:
270,217,226256,1,0,0:0:0:0:
271,225,226406,1,8,0:0:0:0:
271,225,226481,1,0,0:0:0:0:
289,223,226556,1,8,0:0:0:0:
289,223,226606,1,0,0:0:0:0:
289,223,226656,1,0,0:0:0:0:
291,224,226706,1,8,0:0:0:0:
286,234,226781,1,8,0:0:0:0:
291,227,226856,1,0,0:0:0:0:
286,234,226931,1,0,0:0:0:0:
285,213,227006,1,8,0:0:0:0:
285,213,227156,1,0,0:0:0:0:
448,64,227231,1,0,0:0:0:0:
296,218,227306,1,8,0:0:0:0:
248,166,227356,1,8,0:0:0:0:
248,166,227406,1,8,0:0:0:0:
296,218,227456,1,0,0:0:0:0:
226,221,227531,1,0,0:0:0:0:
304,227,227606,1,8,0:0:0:0:
170,188,227681,1,8,0:0:0:0:
304,227,227756,1,0,0:0:0:0:
240,241,227906,1,0,0:0:0:0:
302,227,228056,1,8,0:0:0:0:
243,202,228131,1,8,0:0:0:0:
303,219,228206,1,0,0:0:0:0:
308,216,228281,1,8,0:0:0:0:
303,219,228356,1,0,0:0:0:0:
303,219,228506,1,8,0:0:0:0:
303,219,228581,1,8,0:0:0:0:
303,219,228656,1,0,0:0:0:0:
283,222,228731,1,0,0:0:0:0:
303,219,228806,1,8,0:0:0:0:
303,219,228956,1,0,0:0:0:0:
303,219,229106,1,8,0:0:0:0:
303,219,229181,1,8,0:0:0:0:
303,219,229256,1,0,0:0:0:0:
304,247,229331,1,8,0:0:0:0:
303,219,229406,1,0,0:0:0:0:
303,219,229556,1,8,0:0:0:0:
303,219,229631,1,0,0:0:0:0:
303,219,229706,1,0,0:0:0:0:
303,219,229856,1,8,0:0:0:0:
303,219,229931,1,8,0:0:0:0:
303,219,230006,1,0,0:0:0:0:
303,219,230156,1,8,0:0:0:0:
303,219,230231,1,8,0:0:0:0:
303,219,230306,1,8,0:0:0:0:
303,219,230456,1,12,0:0:0:0:
291,218,230606,1,0,0:0:0:0:
291,218,230681,1,0,0:0:0:0:
291,218,230756,1,8,0:0:0:0:
291,218,230831,1,8,0:0:0:0:
291,218,230906,1,8,0:0:0:0:
291,218,230981,1,0,0:0:0:0:
291,218,231056,1,8,0:0:0:0:
297,208,231131,1,0,0:0:0:0:
297,208,231206,1,0,0:0:0:0:
297,208,231281,1,0,0:0:0:0:
297,208,231356,1,8,0:0:0:0:
297,208,231431,1,8,0:0:0:0:
297,208,231506,1,0,0:0:0:0:
297,207,231656,1,8,0:0:0:0:
290,185,231731,1,8,0:0:0:0:
290,185,231806,1,8,0:0:0:0:
290,185,231881,1,8,0:0:0:0:
288,185,231956,1,0,0:0:0:0:
291,235,232106,1,0,0:0:0:0:
287,193,232256,1,8,0:0:0:0:
287,193,232331,1,0,0:0:0:0:
287,193,232406,1,8,0:0:0:0:
287,193,232481,1,0,0:0:0:0:
288,193,232556,1,8,0:0:0:0:
288,193,232631,1,8,0:0:0:0:
288,193,232706,1,0,0:0:0:0:
288,193,232856,1,8,0:0:0:0:
288,193,232931,1,8,0:0:0:0:
287,193,233006,1,0,0:0:0:0:
287,193,233156,1,8,0:0:0:0:
281,219,233231,1,8,0:0:0:0:
295,205,233306,1,0,0:0:0:0:
196,145,233381,1,0,0:0:0:0:
295,205,233456,1,8,0:0:0:0:
295,205,233606,1,0,0:0:0:0:
181,176,233681,1,0,0:0:0:0:
271,194,233756,1,8,0:0:0:0:
144,173,233806,1,0,0:0:0:0:
145,181,233856,1,0,0:0:0:0:
271,194,233906,1,8,0:0:0:0:
280,204,233981,1,8,0:0:0:0:
281,207,234056,1,0,0:0:0:0:
241,183,234131,1,0,0:0:0:0:
220,167,234206,1,8,0:0:0:0:
173,188,234281,1,8,0:0:0:0:
220,167,234356,1,0,0:0:0:0:
220,167,234506,1,8,0:0:0:0:
218,188,234581,1,8,0:0:0:0:
220,167,234656,1,0,0:0:0:0:
252,185,234731,1,8,0:0:0:0:
220,167,234806,1,0,0:0:0:0:
144,173,234881,1,0,0:0:0:0:
220,167,234956,1,8,0:0:0:0:
220,167,235106,1,0,0:0:0:0:
231,165,235256,1,8,0:0:0:0:
227,175,235331,1,8,0:0:0:0:
226,175,235406,1,8,0:0:0:0:
226,175,235481,1,0,0:0:0:0:
226,175,235556,1,8,0:0:0:0:
227,174,235631,1,8,0:0:0:0:
227,174,235706,1,0,0:0:0:0:
227,174,235781,1,0,0:0:0:0:
227,174,235856,1,8,0:0:0:0:
264,208,236006,1,0,0:0:0:0:
264,208,236156,1,8,0:0:0:0:
264,208,236231,1,8,0:0:0:0:
256,211,236306,1,0,0:0:0:0:
264,208,236381,1,8,0:0:0:0:
264,208,236456,1,0,0:0:0:0:
277,229,236606,1,0,0:0:0:0:
264,208,236756,1,8,0:0:0:0:
264,208,236831,1,0,0:0:0:0:
264,208,236906,1,0,0:0:0:0:
264,208,237056,1,8,0:0:0:0:
264,208,237131,1,8,0:0:0:0:
264,208,237206,1,0,0:0:0:0:
264,208,237356,1,8,0:0:0:0:
264,208,237431,1,8,0:0:0:0:
264,208,237506,1,8,0:0:0:0:
264,208,237656,1,8,0:0:0:0:
265,220,237806,1,0,0:0:0:0:
265,220,237956,1,8,0:0:0:0:
265,220,238031,1,8,0:0:0:0:
265,220,238106,1,0,0:0:0:0:
265,220,238181,1,0,0:0:0:0:
264,218,238256,1,8,0:0:0:0:
264,221,238406,1,0,0:0:0:0:
264,221,238556,1,8,0:0:0:0:
265,220,238706,1,8,0:0:0:0:
269,184,238781,1,0,0:0:0:0:
265,220,238856,1,8,0:0:0:0:
265,220,239006,1,0,0:0:0:0:
256,228,239156,1,0,0:0:0:0:
256,228,239231,1,0,0:0:0:0:
256,228,239306,1,0,0:0:0:0:
256,228,239456,1,8,0:0:0:0:
256,228,239531,1,0,0:0:0:0:
256,228,239606,1,0,0:0:0:0:
256,228,239756,1,8,0:0:0:0:
256,228,239831,1,8,0:0:0:0:
256,228,239906,1,0,0:0:0:0:
256,228,240056,1,8,0:0:0:0:
286,215,240206,1,0,0:0:0:0:
274,214,240356,1,0,0:0:0:0:
274,214,240431,1,0,0:0:0:0:
274,214,240506,1,8,0:0:0:0:
274,214,240656,1,8,0:0:0:0:
274,214,240806,1,0,0:0:0:0:
269,225,240881,1,0,0:0:0:0:
274,214,240956,1,8,0:0:0:0:
274,214,241106,1,8,0:0:0:0:
274,214,241181,1,0,0:0:0:0:
274,214,241256,1,8,0:0:0:0:
239,214,241306,1,8,0:0:0:0:
273,191,241356,1,8,0:0:0:0:
240,214,241406,1,0,0:0:0:0:
192,166,241481,1,0,0:0:0:0:
259,197,241556,1,8,0:0:0:0:
259,197,241706,1,0,0:0:0:0:
265,197,241856,1,8,0:0:0:0:
266,196,241931,1,0,0:0:0:0:
266,196,242006,1,0,0:0:0:0:
266,196,242156,1,8,0:0:0:0:
266,196,242231,1,8,0:0:0:0:
266,196,242306,1,0,0:0:0:0:
266,196,242456,1,8,0:0:0:0:
222,215,242531,1,0,0:0:0:0:
290,211,242606,1,8,0:0:0:0:
197,180,242681,1,8,0:0:0:0:
277,213,242756,1,0,0:0:0:0:
290,211,242906,1,0,0:0:0:0:
290,211,243056,1,8,0:0:0:0:
290,211,243131,1,8,0:0:0:0:
280,205,243206,1,0,0:0:0:0:
280,205,243356,1,8,0:0:0:0:
280,205,243506,1,8,0:0:0:0:
280,205,243581,1,0,0:0:0:0:
280,205,243656,1,8,0:0:0:0:
248,215,243731,1,8,0:0:0:0:
234,212,243806,1,0,0:0:0:0:
234,212,243881,1,0,0:0:0:0:
234,212,243956,1,8,0:0:0:0:
234,212,244106,1,0,0:0:0:0:
234,212,244181,1,0,0:0:0:0:
234,212,244256,1,8,0:0:0:0:
220,221,244331,1,8,0:0:0:0:
234,212,244406,1,0,0:0:0:0:
234,212,244556,1,8,0:0:0:0:
213,221,244631,1,8,0:0:0:0:
234,212,244706,1,0,0:0:0:0:
234,212,244856,1,8,0:0:0:0:
235,221,244931,1,8,0:0:0:0:
235,221,245006,1,0,0:0:0:0:
235,221,245081,1,0,0:0:0:0:
235,221,245156,1,8,0:0:0:0:
236,221,245306,1,0,0:0:0:0:
191,187,245381,1,8,0:0:0:0:
236,221,245456,1,0,0:0:0:0:
236,221,245606,1,0,0:0:0:0:
236,221,245756,1,8,0:0:0:0:
243,160,245831,1,8,0:0:0:0:
251,213,245906,1,0,0:0:0:0:
251,213,246056,1,8,0:0:0:0:
194,229,246131,1,8,0:0:0:0:
251,213,246206,1,0,0:0:0:0:
251,213,246281,1,0,0:0:0:0:
251,213,246356,1,8,0:0:0:0:
251,213,246506,1,0,0:0:0:0:
251,213,246581,1,0,0:0:0:0:
265,199,246656,1,8,0:0:0:0:
265,199,246806,1,0,0:0:0:0:
263,203,246956,1,8,0:0:0:0:
263,203,247006,1,8,0:0:0:0:
263,203,247056,1,8,0:0:0:0:
263,203,247106,1,0,0:0:0:0:
341,238,247181,1,0,0:0:0:0:
263,203,247256,1,8,0:0:0:0:
266,204,247331,1,8,0:0:0:0:
266,204,247406,1,0,0:0:0:0:
245,202,247556,1,8,0:0:0:0:
245,202,247631,1,8,0:0:0:0:
246,201,247706,1,8,0:0:0:0:
64,320,247856,1,4,0:0:0:0:
250,182,248006,1,8,0:0:0:0:
250,182,248081,1,8,0:0:0:0:
250,182,248156,1,0,0:0:0:0:
250,182,248231,1,8,0:0:0:0:
250,182,248306,1,0,0:0:0:0:
269,185,248456,5,8,0:0:0:0:
269,185,248506,1,8,0:0:0:0:
269,185,248556,1,8,0:0:0:0:
269,185,248606,1,0,0:0:0:0:
284,172,248681,1,0,0:0:0:0:
278,175,248756,1,8,0:0:0:0:
278,175,248831,1,0,0:0:0:0:
278,175,248906,1,0,0:0:0:0:
278,175,248981,1,8,0:0:0:0:
278,175,249056,1,0,0:0:0:0:
278,175,249131,1,0,0:0:0:0:
278,175,249206,1,8,0:0:0:0:
278,175,249281,1,0,0:0:0:0:
278,175,249356,1,8,0:0:0:0:
278,175,249431,1,8,0:0:0:0:
278,175,249506,1,8,0:0:0:0:
278,175,249581,1,8,0:0:0:0:
277,175,249656,1,4,0:0:0:0:
255,201,250856,1,8,0:0:0:0:
257,201,252056,1,8,0:0:0:0:
246,220,253256,1,8,0:0:0:0:
260,203,254456,1,0,0:0:0:0:
289,214,255656,1,0,0:0:0:0:
274,217,256856,1,0,0:0:0:0:
283,234,258056,1,0,0:0:0:0:
261,204,259256,5,8,0:0:0:0:
256,192,260006,12,0,264656,0:0:0:0:
279,202,264806,5,0,0:0:0:0:
279,202,264956,1,0,0:0:0:0:
279,202,265106,1,0,0:0:0:0:
279,202,265256,1,0,0:0:0:0:
211,202,265406,1,0,0:0:0:0:
251,210,265556,1,0,0:0:0:0:
251,210,265706,1,0,0:0:0:0:
251,210,265856,1,0,0:0:0:0:
251,210,266006,1,0,0:0:0:0:
251,210,266156,1,0,0:0:0:0:
251,210,266306,1,0,0:0:0:0:
251,210,266456,1,0,0:0:0:0:
251,210,266606,1,0,0:0:0:0:
251,210,266756,1,0,0:0:0:0:
251,210,266906,1,0,0:0:0:0:
251,210,267056,1,0,0:0:0:0:
251,210,267206,1,0,0:0:0:0:
251,210,267356,1,0,0:0:0:0:
251,210,267506,1,0,0:0:0:0:
251,210,267656,1,0,0:0:0:0:
251,210,267806,1,0,0:0:0:0:
251,210,267956,1,8,0:0:0:0:
246,172,268031,1,0,0:0:0:0:
251,210,268106,1,0,0:0:0:0:
251,210,268256,1,8,0:0:0:0:
206,176,268331,1,8,0:0:0:0:
251,210,268406,1,0,0:0:0:0:
251,210,268556,1,8,0:0:0:0:
227,185,268631,1,8,0:0:0:0:
251,210,268706,1,8,0:0:0:0:
251,210,268856,1,12,0:0:0:0:
251,202,269006,1,0,0:0:0:0:
251,202,269081,1,0,0:0:0:0:
250,202,269156,1,8,0:0:0:0:
250,202,269231,1,0,0:0:0:0:
245,199,269306,1,8,0:0:0:0:
245,199,269381,1,8,0:0:0:0:
245,199,269456,1,0,0:0:0:0:
245,199,269531,1,0,0:0:0:0:
245,199,269606,1,8,0:0:0:0:
245,199,269681,1,0,0:0:0:0:
245,199,269756,1,8,0:0:0:0:
245,199,269831,1,8,0:0:0:0:
251,202,269906,1,0,0:0:0:0:
251,202,269981,1,0,0:0:0:0:
251,202,270056,1,8,0:0:0:0:
251,202,270131,1,8,0:0:0:0:
250,202,270206,1,8,0:0:0:0:
250,202,270281,1,0,0:0:0:0:
245,199,270356,1,8,0:0:0:0:
245,199,270431,1,8,0:0:0:0:
245,199,270506,1,0,0:0:0:0:
245,199,270581,1,0,0:0:0:0:
245,199,270656,1,8,0:0:0:0:
245,199,270731,1,0,0:0:0:0:
245,199,270806,1,0,0:0:0:0:
245,199,270881,1,0,0:0:0:0:
251,202,270956,1,8,0:0:0:0:
251,202,271031,1,8,0:0:0:0:
251,202,271106,1,0,0:0:0:0:
251,202,271181,1,0,0:0:0:0:
250,202,271256,1,8,0:0:0:0:
250,202,271331,1,8,0:0:0:0:
245,199,271406,1,8,0:0:0:0:
245,199,271481,1,0,0:0:0:0:
245,199,271556,1,8,0:0:0:0:
245,199,271631,1,0,0:0:0:0:
245,199,271706,1,0,0:0:0:0:
245,199,271781,1,0,0:0:0:0:
245,199,271856,1,8,0:0:0:0:
245,199,271931,1,8,0:0:0:0:
251,202,272006,1,0,0:0:0:0:
251,202,272081,1,0,0:0:0:0:
251,202,272156,1,8,0:0:0:0:
251,202,272231,1,8,0:0:0:0:
250,202,272306,1,8,0:0:0:0:
250,202,272381,1,0,0:0:0:0:
245,199,272456,1,8,0:0:0:0:
245,199,272531,1,0,0:0:0:0:
245,199,272606,1,8,0:0:0:0:
245,199,272681,1,8,0:0:0:0:
245,199,272756,1,0,0:0:0:0:
245,199,272906,1,0,0:0:0:0:
251,202,273056,1,0,0:0:0:0:
251,202,273206,1,0,0:0:0:0:
269,198,273356,1,0,0:0:0:0:
269,198,273506,1,0,0:0:0:0:
251,202,273656,1,12,0:0:0:0:
250,202,273806,1,0,0:0:0:0:
250,202,273881,1,0,0:0:0:0:
245,199,273956,1,8,0:0:0:0:
245,199,274031,1,8,0:0:0:0:
245,199,274106,1,0,0:0:0:0:
245,199,274181,1,8,0:0:0:0:
245,199,274256,1,0,0:0:0:0:
245,199,274331,1,8,0:0:0:0:
245,199,274406,1,8,0:0:0:0:
245,199,274481,1,0,0:0:0:0:
251,202,274556,1,8,0:0:0:0:
251,202,274631,1,0,0:0:0:0:
251,202,274706,1,0,0:0:0:0:
251,202,274781,1,0,0:0:0:0:
250,202,274856,1,8,0:0:0:0:
250,202,274931,1,8,0:0:0:0:
245,199,275006,1,0,0:0:0:0:
245,199,275081,1,0,0:0:0:0:
245,199,275156,1,0,0:0:0:0:
245,199,275231,1,0,0:0:0:0:
245,199,275306,1,8,0:0:0:0:
245,199,275381,1,0,0:0:0:0:
245,199,275456,1,8,0:0:0:0:
245,199,275531,1,0,0:0:0:0:
251,202,275606,1,8,0:0:0:0:
251,202,275681,1,8,0:0:0:0:
251,202,275756,1,0,0:0:0:0:
251,202,275831,1,0,0:0:0:0:
250,202,275906,1,8,0:0:0:0:
250,202,275981,1,0,0:0:0:0:
245,199,276056,1,8,0:0:0:0:
245,199,276131,1,8,0:0:0:0:
245,199,276206,1,8,0:0:0:0:
245,199,276281,1,0,0:0:0:0:
245,199,276356,1,8,0:0:0:0:
245,199,276431,1,0,0:0:0:0:
245,199,276506,1,8,0:0:0:0:
245,199,276581,1,8,0:0:0:0:
251,202,276656,1,0,0:0:0:0:
251,202,276731,1,0,0:0:0:0:
256,213,276806,1,8,0:0:0:0:
256,213,276881,1,0,0:0:0:0:
256,213,276956,1,8,0:0:0:0:
256,213,277031,1,8,0:0:0:0:
256,213,277106,1,8,0:0:0:0:
256,213,277181,1,8,0:0:0:0:
256,213,277256,1,0,0:0:0:0:
257,236,277556,1,0,0:0:0:0:
257,236,277706,1,0,0:0:0:0:
272,243,278006,1,0,0:0:0:0:
272,243,278156,1,0,0:0:0:0:
272,243,278306,1,0,0:0:0:0:
272,243,278456,1,12,0:0:0:0:
251,202,278606,1,0,0:0:0:0:
251,202,278681,1,0,0:0:0:0:
250,202,278756,1,8,0:0:0:0:
250,202,278831,1,0,0:0:0:0:
245,199,278906,1,0,0:0:0:0:
245,199,278981,1,8,0:0:0:0:
245,199,279056,1,8,0:0:0:0:
245,199,279131,1,0,0:0:0:0:
245,199,279206,1,0,0:0:0:0:
245,199,279281,1,0,0:0:0:0:
245,199,279356,1,8,0:0:0:0:
245,199,279431,1,8,0:0:0:0:
251,202,279506,1,0,0:0:0:0:
251,202,279581,1,8,0:0:0:0:
251,202,279656,1,0,0:0:0:0:
251,202,279731,1,0,0:0:0:0:
250,202,279806,1,8,0:0:0:0:
250,202,279881,1,8,0:0:0:0:
245,199,279956,1,0,0:0:0:0:
245,199,280031,1,0,0:0:0:0:
245,199,280106,1,8,0:0:0:0:
245,199,280181,1,0,0:0:0:0:
245,199,280256,1,8,0:0:0:0:
245,199,280331,1,8,0:0:0:0:
245,199,280406,1,0,0:0:0:0:
245,199,280481,1,0,0:0:0:0:
251,202,280556,1,8,0:0:0:0:
251,202,280631,1,0,0:0:0:0:
251,202,280706,1,8,0:0:0:0:
251,202,280781,1,8,0:0:0:0:
250,202,280856,1,0,0:0:0:0:
250,202,280931,1,0,0:0:0:0:
245,199,281006,1,0,0:0:0:0:
245,199,281081,1,0,0:0:0:0:
245,199,281156,1,8,0:0:0:0:
245,199,281231,1,0,0:0:0:0:
245,199,281306,1,8,0:0:0:0:
245,199,281381,1,8,0:0:0:0:
245,199,281456,1,0,0:0:0:0:
245,199,281531,1,0,0:0:0:0:
251,202,281606,1,8,0:0:0:0:
251,202,281681,1,0,0:0:0:0:
251,202,281756,1,8,0:0:0:0:
251,202,281831,1,8,0:0:0:0:
250,202,281906,1,0,0:0:0:0:
250,202,281981,1,0,0:0:0:0:
245,199,282056,1,8,0:0:0:0:
245,199,282131,1,8,0:0:0:0:
245,199,282206,1,0,0:0:0:0:
245,199,282281,1,0,0:0:0:0:
245,199,282356,1,8,0:0:0:0:
245,199,282431,1,0,0:0:0:0:
245,199,282506,1,8,0:0:0:0:
245,199,282581,1,8,0:0:0:0:
251,202,282656,1,0,0:0:0:0:
251,202,282731,1,8,0:0:0:0:
251,202,282806,1,0,0:0:0:0:
250,202,282881,1,0,0:0:0:0:
238,205,282956,1,8,0:0:0:0:
172,195,283106,1,0,0:0:0:0:
238,205,283256,1,8,0:0:0:0:
238,205,283331,1,8,0:0:0:0:
238,205,283406,1,8,0:0:0:0:
238,205,283481,1,8,0:0:0:0:
372,324,283556,1,0,0:0:0:0:
248,210,283856,1,0,0:0:0:0:
248,210,284006,1,0,0:0:0:0:
248,210,284156,1,0,0:0:0:0:
254,218,284456,1,0,0:0:0:0:
255,222,284606,1,8,0:0:0:0:
255,222,284681,1,8,0:0:0:0:
255,222,284756,1,0,0:0:0:0:
254,218,285206,1,0,0:0:0:0:
254,218,285356,1,8,0:0:0:0:
254,218,285431,1,0,0:0:0:0:
255,222,285506,1,0,0:0:0:0:
281,228,285656,1,0,0:0:0:0:
281,228,285956,1,0,0:0:0:0:
276,211,286256,1,8,0:0:0:0:
276,211,286331,1,8,0:0:0:0:
276,211,286406,1,0,0:0:0:0:
276,211,286556,1,8,0:0:0:0:
276,211,286631,1,0,0:0:0:0:
276,211,286706,1,0,0:0:0:0:
276,211,286856,1,0,0:0:0:0:
291,234,287156,1,8,0:0:0:0:
291,234,287193,1,8,0:0:0:0:
291,234,287231,1,0,0:0:0:0:
291,234,287306,1,8,0:0:0:0:
291,234,287381,1,0,0:0:0:0:
249,227,287456,1,8,0:0:0:0:
448,64,287531,1,0,0:0:0:0:
291,233,287756,1,8,0:0:0:0:
291,233,287831,1,0,0:0:0:0:
308,255,288056,1,12,0:0:0:0:
308,255,288206,1,0,0:0:0:0:
308,255,288281,1,0,0:0:0:0:
308,255,288356,1,8,0:0:0:0:
308,255,288431,1,0,0:0:0:0:
308,255,288506,1,8,0:0:0:0:
308,255,288581,1,8,0:0:0:0:
308,255,288656,1,8,0:0:0:0:
308,255,288731,1,0,0:0:0:0:
308,255,288806,1,0,0:0:0:0:
308,255,288881,1,8,0:0:0:0:
308,255,288956,1,8,0:0:0:0:
308,255,289031,1,8,0:0:0:0:
308,255,289106,1,0,0:0:0:0:
308,255,289181,1,8,0:0:0:0:
293,242,289256,1,0,0:0:0:0:
293,242,289406,1,0,0:0:0:0:
286,208,289556,1,8,0:0:0:0:
286,208,289631,1,8,0:0:0:0:
286,208,289706,1,0,0:0:0:0:
286,208,289781,1,0,0:0:0:0:
286,208,289856,1,8,0:0:0:0:
286,208,290006,1,0,0:0:0:0:
286,208,290456,1,12,0:0:0:0:
251,202,290606,1,0,0:0:0:0:
251,202,290681,1,0,0:0:0:0:
250,202,290756,1,8,0:0:0:0:
250,202,290831,1,0,0:0:0:0:
245,199,290906,1,8,0:0:0:0:
245,199,290981,1,8,0:0:0:0:
245,199,291056,1,0,0:0:0:0:
245,199,291131,1,0,0:0:0:0:
245,199,291206,1,0,0:0:0:0:
245,199,291281,1,8,0:0:0:0:
245,199,291356,1,8,0:0:0:0:
245,199,291431,1,0,0:0:0:0:
251,202,291506,1,8,0:0:0:0:
251,202,291581,1,0,0:0:0:0:
251,202,291656,1,8,0:0:0:0:
251,202,291731,1,8,0:0:0:0:
250,202,291806,1,0,0:0:0:0:
250,202,291881,1,0,0:0:0:0:
245,199,291956,1,8,0:0:0:0:
245,199,292031,1,0,0:0:0:0:
245,199,292106,1,8,0:0:0:0:
245,199,292181,1,8,0:0:0:0:
245,199,292256,1,0,0:0:0:0:
245,199,292331,1,0,0:0:0:0:
245,199,292406,1,8,0:0:0:0:
245,199,292481,1,8,0:0:0:0:
251,202,292556,1,0,0:0:0:0:
251,202,292631,1,8,0:0:0:0:
251,202,292706,1,0,0:0:0:0:
251,202,292781,1,0,0:0:0:0:
250,202,292856,1,8,0:0:0:0:
250,202,292931,1,8,0:0:0:0:
245,199,293006,1,0,0:0:0:0:
245,199,293081,1,0,0:0:0:0:
245,199,293156,1,8,0:0:0:0:
245,199,293231,1,0,0:0:0:0:
245,199,293306,1,8,0:0:0:0:
245,199,293381,1,8,0:0:0:0:
245,199,293456,1,0,0:0:0:0:
245,199,293531,1,0,0:0:0:0:
251,202,293606,1,8,0:0:0:0:
251,202,293681,1,0,0:0:0:0:
245,199,293756,1,8,0:0:0:0:
245,199,293831,1,8,0:0:0:0:
245,199,293906,1,0,0:0:0:0:
245,199,293981,1,0,0:0:0:0:
245,199,294056,1,8,0:0:0:0:
245,199,294131,1,8,0:0:0:0:
251,202,294206,1,0,0:0:0:0:
251,202,294281,1,0,0:0:0:0:
245,199,294356,1,8,0:0:0:0:
245,199,294431,1,0,0:0:0:0:
245,199,294506,1,8,0:0:0:0:
245,199,294581,1,8,0:0:0:0:
245,199,294656,1,8,0:0:0:0:
245,199,294731,1,0,0:0:0:0:
251,202,294806,1,0,0:0:0:0:
251,202,294881,1,0,0:0:0:0:
245,199,294956,1,8,0:0:0:0:
245,199,295031,1,8,0:0:0:0:
245,199,295106,1,0,0:0:0:0:
245,199,295181,1,0,0:0:0:0:
245,199,295256,1,8,0:0:0:0:
245,199,295331,1,0,0:0:0:0:
251,202,295406,1,8,0:0:0:0:
251,202,295481,1,8,0:0:0:0:
245,199,295556,1,0,0:0:0:0:
245,199,295631,1,0,0:0:0:0:
245,199,295706,1,8,0:0:0:0:
245,199,295781,1,8,0:0:0:0:
245,199,295856,1,0,0:0:0:0:
245,199,295931,1,0,0:0:0:0:
251,202,296006,1,8,0:0:0:0:
251,202,296081,1,0,0:0:0:0:
221,189,296156,1,8,0:0:0:0:
221,189,296231,1,8,0:0:0:0:
221,189,296306,1,8,0:0:0:0:
221,189,296381,1,8,0:0:0:0:
208,221,296456,1,0,0:0:0:0:
233,213,296906,1,0,0:0:0:0:
233,213,297056,1,0,0:0:0:0:
235,208,297206,1,0,0:0:0:0:
235,210,297281,1,0,0:0:0:0:
235,210,297356,1,8,0:0:0:0:
254,219,297506,1,0,0:0:0:0:
272,222,297581,1,0,0:0:0:0:
255,218,297656,1,12,0:0:0:0:
245,199,297806,1,0,0:0:0:0:
245,199,297881,1,0,0:0:0:0:
245,199,297956,1,8,0:0:0:0:
245,199,298031,1,0,0:0:0:0:
245,199,298106,1,8,0:0:0:0:
245,199,298181,1,8,0:0:0:0:
251,202,298256,1,0,0:0:0:0:
251,202,298331,1,0,0:0:0:0:
245,199,298406,1,8,0:0:0:0:
245,199,298481,1,0,0:0:0:0:
245,199,298556,1,8,0:0:0:0:
245,199,298631,1,8,0:0:0:0:
245,199,298706,1,0,0:0:0:0:
245,199,298781,1,8,0:0:0:0:
251,202,298856,1,0,0:0:0:0:
251,202,298931,1,0,0:0:0:0:
245,199,299006,1,0,0:0:0:0:
245,199,299081,1,0,0:0:0:0:
245,199,299156,1,8,0:0:0:0:
245,199,299231,1,0,0:0:0:0:
245,199,299306,1,8,0:0:0:0:
245,199,299381,1,8,0:0:0:0:
251,202,299456,1,0,0:0:0:0:
251,202,299531,1,0,0:0:0:0:
242,215,299606,1,8,0:0:0:0:
245,215,299681,1,0,0:0:0:0:
245,215,299756,1,8,0:0:0:0:
245,215,299831,1,8,0:0:0:0:
245,215,299906,1,0,0:0:0:0:
245,215,299981,1,0,0:0:0:0:
251,202,300056,1,8,0:0:0:0:
251,202,300131,1,8,0:0:0:0:
245,199,300206,1,8,0:0:0:0:
245,199,300281,1,0,0:0:0:0:
245,199,300356,1,8,0:0:0:0:
245,199,300431,1,0,0:0:0:0:
245,199,300506,1,8,0:0:0:0:
245,199,300581,1,8,0:0:0:0:
251,202,300656,1,8,0:0:0:0:
251,202,300731,1,0,0:0:0:0:
242,215,300806,1,8,0:0:0:0:
245,215,300881,1,0,0:0:0:0:
245,215,300956,1,8,0:0:0:0:
245,215,301031,1,8,0:0:0:0:
245,215,301106,1,8,0:0:0:0:
245,215,301181,1,0,0:0:0:0:
251,202,301256,1,8,0:0:0:0:
251,202,301331,1,8,0:0:0:0:
245,199,301406,1,0,0:0:0:0:
245,199,301481,1,0,0:0:0:0:
245,199,301556,1,8,0:0:0:0:
245,199,301631,1,0,0:0:0:0:
245,199,301706,1,8,0:0:0:0:
245,199,301781,1,8,0:0:0:0:
251,202,301856,1,0,0:0:0:0:
251,202,301931,1,0,0:0:0:0:
242,215,302006,1,8,0:0:0:0:
245,215,302081,1,0,0:0:0:0:
245,215,302156,1,8,0:0:0:0:
245,215,302231,1,8,0:0:0:0:
245,215,302306,1,0,0:0:0:0:
245,215,302381,1,0,0:0:0:0:
251,202,302456,1,8,0:0:0:0:
251,202,302531,1,8,0:0:0:0:
245,199,302606,1,0,0:0:0:0:
245,199,302681,1,0,0:0:0:0:
245,199,302756,1,8,0:0:0:0:
245,199,302831,1,0,0:0:0:0:
245,199,302906,1,0,0:0:0:0:
245,199,302981,1,8,0:0:0:0:
251,202,303056,1,8,0:0:0:0:
251,202,303131,1,0,0:0:0:0:
242,215,303206,1,8,0:0:0:0:
245,215,303281,1,0,0:0:0:0:
245,215,303356,1,8,0:0:0:0:
245,215,303431,1,8,0:0:0:0:
245,215,303506,1,0,0:0:0:0:
245,215,303581,1,0,0:0:0:0:
274,180,303656,5,8,0:0:0:0:
274,180,303806,1,8,0:0:0:0:
274,180,303956,1,8,0:0:0:0:
274,180,304106,1,8,0:0:0:0:
274,180,304256,1,8,0:0:0:0:
274,180,304406,1,8,0:0:0:0:
274,180,304556,1,8,0:0:0:0:
274,180,304706,1,8,0:0:0:0:
274,180,304856,1,4,0:0:0:0:
255,188,306056,5,8,0:0:0:0:
255,188,306206,1,0,0:0:0:0:
255,188,306281,1,8,0:0:0:0:
256,208,306431,1,0,0:0:0:0:
255,207,306506,1,8,0:0:0:0:
255,207,306656,1,0,0:0:0:0:
255,207,306731,1,8,0:0:0:0:
255,207,306881,1,0,0:0:0:0:
255,207,306956,1,8,0:0:0:0:
256,208,307256,1,12,0:0:0:0:
268,209,307406,1,0,0:0:0:0:
268,209,307556,1,8,0:0:0:0:
272,212,307631,1,0,0:0:0:0:
268,209,307706,1,8,0:0:0:0:
272,212,307781,1,8,0:0:0:0:
268,209,307856,1,0,0:0:0:0:
268,209,308006,1,0,0:0:0:0:
268,209,308081,1,0,0:0:0:0:
268,209,308156,1,8,0:0:0:0:
268,209,308306,1,8,0:0:0:0:
162,185,308381,1,8,0:0:0:0:
268,209,308456,1,0,0:0:0:0:
243,198,308606,1,8,0:0:0:0:
251,202,308681,1,0,0:0:0:0:
251,202,308756,1,8,0:0:0:0:
251,202,308906,1,0,0:0:0:0:
246,182,308981,1,0,0:0:0:0:
251,202,309056,1,0,0:0:0:0:
251,202,309206,1,8,0:0:0:0:
251,202,309281,1,0,0:0:0:0:
251,202,309356,1,8,0:0:0:0:
251,202,309431,1,8,0:0:0:0:
251,202,309506,1,0,0:0:0:0:
251,202,309656,1,8,0:0:0:0:
222,180,309731,1,8,0:0:0:0:
263,209,309806,1,0,0:0:0:0:
263,209,309881,1,0,0:0:0:0:
263,209,309956,1,8,0:0:0:0:
258,217,310106,1,8,0:0:0:0:
140,163,310181,1,0,0:0:0:0:
258,217,310256,1,8,0:0:0:0:
258,217,310331,1,8,0:0:0:0:
258,217,310406,1,0,0:0:0:0:
258,217,310481,1,0,0:0:0:0:
258,217,310556,1,8,0:0:0:0:
261,221,310706,1,8,0:0:0:0:
261,221,310856,1,0,0:0:0:0:
275,232,311006,1,0,0:0:0:0:
275,232,311081,1,0,0:0:0:0:
275,232,311156,1,8,0:0:0:0:
275,232,311306,1,0,0:0:0:0:
275,232,311456,1,8,0:0:0:0:
262,241,311531,1,8,0:0:0:0:
275,232,311606,1,0,0:0:0:0:
275,232,311681,1,0,0:0:0:0:
275,232,311756,1,8,0:0:0:0:
275,232,311906,1,0,0:0:0:0:
80,187,311981,1,0,0:0:0:0:
275,232,312056,1,0,0:0:0:0:
276,218,312206,1,0,0:0:0:0:
275,232,312356,1,8,0:0:0:0:
220,194,312431,1,0,0:0:0:0:
275,232,312506,1,8,0:0:0:0:
275,232,312656,1,0,0:0:0:0:
266,225,312731,1,0,0:0:0:0:
266,225,312806,1,0,0:0:0:0:
266,225,312881,1,0,0:0:0:0:
266,225,312956,1,8,0:0:0:0:
263,212,313106,1,8,0:0:0:0:
213,188,313181,1,8,0:0:0:0:
263,212,313256,1,0,0:0:0:0:
262,216,313406,1,0,0:0:0:0:
262,216,313481,1,0,0:0:0:0:
262,216,313556,1,8,0:0:0:0:
262,216,313706,1,0,0:0:0:0:
262,216,313856,1,0,0:0:0:0:
263,212,314006,1,0,0:0:0:0:
263,212,314081,1,0,0:0:0:0:
263,212,314156,1,8,0:0:0:0:
262,216,314306,1,8,0:0:0:0:
262,216,314456,1,0,0:0:0:0:
263,212,314606,1,0,0:0:0:0:
263,212,314681,1,0,0:0:0:0:
263,212,314756,1,8,0:0:0:0:
262,216,314906,1,0,0:0:0:0:
262,216,315056,1,0,0:0:0:0:
263,212,315206,1,0,0:0:0:0:
263,212,315281,1,0,0:0:0:0:
263,212,315356,1,8,0:0:0:0:
262,216,315506,1,8,0:0:0:0:
262,216,315656,1,0,0:0:0:0:
263,212,315806,1,0,0:0:0:0:
263,212,315881,1,0,0:0:0:0:
263,212,315956,1,8,0:0:0:0:
262,216,316106,1,0,0:0:0:0:
262,216,316256,1,0,0:0:0:0:
195,213,316406,1,0,0:0:0:0:
195,213,316481,1,0,0:0:0:0:
207,208,316856,1,0,0:0:0:0:
263,212,317006,1,0,0:0:0:0:
263,212,317081,1,0,0:0:0:0:
263,212,317156,1,8,0:0:0:0:
262,216,317306,1,8,0:0:0:0:
262,216,317456,1,0,0:0:0:0:
263,212,317606,1,8,0:0:0:0:
263,212,317681,1,0,0:0:0:0:
263,212,317756,1,8,0:0:0:0:
262,216,317906,1,8,0:0:0:0:
262,216,318056,1,0,0:0:0:0:
263,212,318206,1,0,0:0:0:0:
263,212,318281,1,0,0:0:0:0:
263,212,318356,1,8,0:0:0:0:
262,216,318506,1,8,0:0:0:0:
262,216,318656,1,0,0:0:0:0:
263,212,318806,1,8,0:0:0:0:
263,212,318881,1,0,0:0:0:0:
263,212,318956,1,8,0:0:0:0:
262,216,319106,1,8,0:0:0:0:
262,216,319256,1,0,0:0:0:0:
263,212,319406,1,0,0:0:0:0:
263,212,319481,1,0,0:0:0:0:
263,212,319556,1,8,0:0:0:0:
262,216,319706,1,8,0:0:0:0:
262,216,319856,1,0,0:0:0:0:
263,212,320006,1,8,0:0:0:0:
263,212,320081,1,0,0:0:0:0:
263,212,320156,1,8,0:0:0:0:
262,216,320306,1,8,0:0:0:0:
262,216,320456,1,0,0:0:0:0:
263,212,320606,1,0,0:0:0:0:
263,212,320681,1,0,0:0:0:0:
263,212,320756,1,8,0:0:0:0:
262,216,320906,1,8,0:0:0:0:
262,216,321056,1,0,0:0:0:0:
263,212,321206,1,8,0:0:0:0:
263,212,321281,1,0,0:0:0:0:
263,212,321356,1,8,0:0:0:0:
262,216,321506,1,8,0:0:0:0:
262,216,321656,1,0,0:0:0:0:
263,212,321806,1,0,0:0:0:0:
263,212,321881,1,0,0:0:0:0:
263,212,321956,1,8,0:0:0:0:
262,216,322106,1,8,0:0:0:0:
262,216,322256,1,0,0:0:0:0:
263,212,322406,1,8,0:0:0:0:
263,212,322481,1,0,0:0:0:0:
263,212,322556,1,8,0:0:0:0:
262,216,322706,1,8,0:0:0:0:
262,216,322856,1,0,0:0:0:0:
263,212,323006,1,0,0:0:0:0:
263,212,323081,1,0,0:0:0:0:
263,212,323156,1,8,0:0:0:0:
262,216,323306,1,8,0:0:0:0:
262,216,323456,1,0,0:0:0:0:
263,212,323606,1,8,0:0:0:0:
263,212,323681,1,0,0:0:0:0:
263,212,323756,1,8,0:0:0:0:
262,216,323906,1,8,0:0:0:0:
262,216,324056,1,0,0:0:0:0:
263,212,324206,1,0,0:0:0:0:
263,212,324281,1,0,0:0:0:0:
263,212,324356,1,8,0:0:0:0:
262,216,324506,1,8,0:0:0:0:
262,216,324656,1,0,0:0:0:0:
263,212,324806,1,8,0:0:0:0:
263,212,324881,1,0,0:0:0:0:
263,212,324956,1,8,0:0:0:0:
262,216,325106,1,8,0:0:0:0:
262,216,325256,1,0,0:0:0:0:
295,230,325481,1,0,0:0:0:0:
275,198,325556,1,8,0:0:0:0:
322,252,325706,1,0,0:0:0:0:
257,188,326456,5,12,0:0:0:0:
283,185,326606,1,0,0:0:0:0:
257,188,326756,1,8,0:0:0:0:
257,188,326906,1,0,0:0:0:0:
257,188,327206,1,0,0:0:0:0:
257,188,327356,1,8,0:0:0:0:
257,188,327506,1,0,0:0:0:0:
257,188,327806,1,0,0:0:0:0:
257,188,327956,1,8,0:0:0:0:
257,188,328106,1,0,0:0:0:0:
255,201,328406,1,0,0:0:0:0:
255,201,328556,1,8,0:0:0:0:
255,201,328706,1,0,0:0:0:0:
267,210,329006,1,0,0:0:0:0:
267,210,329156,1,8,0:0:0:0:
267,210,329306,1,0,0:0:0:0:
267,210,329606,1,0,0:0:0:0:
267,210,329756,1,8,0:0:0:0:
267,210,329906,1,0,0:0:0:0:
267,210,330206,1,0,0:0:0:0:
267,210,330356,1,8,0:0:0:0:
267,210,330506,1,0,0:0:0:0:
267,210,330806,1,0,0:0:0:0:
267,210,330956,1,8,0:0:0:0:
267,210,331106,1,0,0:0:0:0:
267,210,331256,1,0,0:0:0:0:
267,210,331406,1,0,0:0:0:0:
267,210,331556,1,8,0:0:0:0:
267,210,331706,1,0,0:0:0:0:
267,210,332006,1,0,0:0:0:0:
267,210,332156,1,8,0:0:0:0:
267,210,332306,1,0,0:0:0:0:
267,210,332606,1,0,0:0:0:0:
267,210,332756,1,8,0:0:0:0:
267,210,332906,1,0,0:0:0:0:
267,210,333206,1,0,0:0:0:0:
267,210,333356,1,8,0:0:0:0:
267,210,333506,1,0,0:0:0:0:
267,210,333806,1,0,0:0:0:0:
267,210,333956,1,8,0:0:0:0:
267,210,334106,1,0,0:0:0:0:
267,210,334406,1,0,0:0:0:0:
267,210,334556,1,8,0:0:0:0:
267,210,334706,1,0,0:0:0:0:
267,210,335006,1,0,0:0:0:0:
267,210,335156,1,8,0:0:0:0:
267,210,335306,1,0,0:0:0:0:
267,210,335606,1,0,0:0:0:0:
267,210,335756,1,8,0:0:0:0:
267,210,335906,1,0,0:0:0:0:
246,209,336206,1,8,0:0:0:0:
246,209,336356,1,0,0:0:0:0:
246,209,336506,1,8,0:0:0:0:
283,229,336656,1,0,0:0:0:0:
256,220,336806,1,0,0:0:0:0:
266,221,336956,1,8,0:0:0:0:
266,221,337106,1,0,0:0:0:0:
267,210,337406,1,0,0:0:0:0:
267,210,337556,1,0,0:0:0:0:
267,210,337706,1,0,0:0:0:0:
267,210,338006,1,0,0:0:0:0:
267,210,338156,1,8,0:0:0:0:
267,210,338306,1,0,0:0:0:0:
267,210,338606,1,0,0:0:0:0:
267,210,338756,1,0,0:0:0:0:
267,210,338906,1,0,0:0:0:0:
267,210,339206,1,0,0:0:0:0:
267,210,339356,1,8,0:0:0:0:
267,210,339506,1,0,0:0:0:0:
267,210,339806,1,0,0:0:0:0:
267,210,339956,1,0,0:0:0:0:
267,210,340106,1,0,0:0:0:0:
267,210,340406,1,0,0:0:0:0:
267,210,340556,1,8,0:0:0:0:
200,222,340706,1,0,0:0:0:0:
448,64,340856,1,0,0:0:0:0:
214,191,341006,1,8,0:0:0:0:
64,64,341156,1,8,0:0:0:0:
267,210,341306,1,0,0:0:0:0:
267,210,341606,1,0,0:0:0:0:
64,64,341756,1,0,0:0:0:0:
267,210,341906,1,0,0:0:0:0:
267,210,342206,1,0,0:0:0:0:
267,210,342356,1,8,0:0:0:0:
267,210,342506,1,0,0:0:0:0:
267,210,342806,1,0,0:0:0:0:
64,64,342956,1,0,0:0:0:0:
267,210,343106,1,0,0:0:0:0:
267,210,343406,1,0,0:0:0:0:
267,210,343556,1,8,0:0:0:0:
267,210,343706,1,0,0:0:0:0:
267,210,344006,1,0,0:0:0:0:
64,64,344156,1,0,0:0:0:0:
267,210,344306,1,0,0:0:0:0:
267,210,344456,1,8,0:0:0:0:
271,215,344606,1,0,0:0:0:0:
273,215,344756,1,8,0:0:0:0:
273,215,344906,1,0,0:0:0:0:
273,215,344981,1,8,0:0:0:0:
273,215,345056,1,0,0:0:0:0:
273,215,345131,1,8,0:0:0:0:
273,215,345206,1,0,0:0:0:0:
273,215,345356,1,8,0:0:0:0:
193,177,345506,1,0,0:0:0:0:
262,190,345656,5,12,0:0:0:0:
