osu file format v14

[General]
AudioFilename: audio.mp3
AudioLeadIn: 0
PreviewTime: 106884
Countdown: 0
SampleSet: Normal
StackLeniency: 0.7
Mode: 1
LetterboxInBreaks: 0
WidescreenStoryboard: 1

[Editor]
DistanceSpacing: 1.3
BeatDivisor: 8
GridSize: 4
TimelineZoom: 3.399999

[Metadata]
Title:Aletheia (fake lover, fake summer)
TitleUnicode:Aletheia (fake lover, fake summer)
Artist:Null Specification
ArtistUnicode:Null Specification
Creator:Rinze
Version:fake promise
Source:いろとりどりのセカイ
Tags:ler1211 Want To Spread My Wings And Fly Into The Sky irotoridori no sekai jcore j-core japanese electronic hardcore nerdcore jaycore lolicore nightcore j-tek jtek eroge galgame visual novel vn remix bootleg アレセイア eufonius opening op 菊地 創 kikuchi hajime riya FAVORITE
BeatmapID:3907074
BeatmapSetID:1895850

[Difficulty]
HPDrainRate:5
CircleSize:5
OverallDifficulty:7.2
ApproachRate:5
SliderMultiplier:1.4
SliderTickRate:1

[Events]
//Background and Video events
0,0,"ale.jpg",0,30
//Break Periods
2,59159,67359
//Storyboard Layer 0 (Background)
//Storyboard Layer 1 (Fail)
//Storyboard Layer 2 (Pass)
//Storyboard Layer 3 (Foreground)
//Storyboard Layer 4 (Overlay)
//Storyboard Sound Samples

[TimingPoints]
1359,300,4,1,0,75,1,0
1359,-117.647058823529,4,1,0,75,0,0
10696,-115.942028985507,4,1,0,75,0,0
10771,-114.285714285714,4,1,0,75,0,0
10846,-112.676056338028,4,1,0,75,0,0
10921,-111.111111111111,4,1,0,85,0,0
18157,-111.111111111111,4,1,0,100,0,0
18232,-110.745877585881,4,1,0,100,0,0
18307,-110.381844620402,4,1,0,100,0,0
18382,-110.019008268312,4,1,0,100,0,0
18457,-109.657364596222,4,1,0,100,0,0
18532,-109.296909683672,4,1,0,100,0,0
18607,-108.937639623087,4,1,0,100,0,0
18682,-108.579550519738,4,1,0,100,0,0
18757,-108.2226384917,4,1,0,100,0,0
18832,-107.866899669805,4,1,0,100,0,0
18907,-107.512330197606,4,1,0,100,0,0
18982,-107.158926231332,4,1,0,100,0,0
19057,-106.806683939845,4,1,0,100,0,0
19132,-106.455599504604,4,1,0,100,0,0
19207,-106.105669119615,4,1,0,100,0,0
19282,-105.7568889914,4,1,0,100,0,0
19357,-105.409255338946,4,1,0,100,0,0
19432,-105.062764393672,4,1,0,100,0,0
19507,-104.717412399382,4,1,0,100,0,0
19582,-104.373195612229,4,1,0,100,0,0
19657,-104.030110300672,4,1,0,100,0,0
19732,-103.688152745435,4,1,0,100,0,0
19807,-103.347319239468,4,1,0,100,0,0
19882,-103.007606087908,4,1,0,100,0,0
19957,-102.669009608034,4,1,0,100,0,0
20032,-102.331526129235,4,1,0,100,0,0
20107,-101.995151992961,4,1,0,100,0,0
20182,-101.659883552692,4,1,0,100,0,0
20257,-101.325717173891,4,1,0,100,0,0
20332,-100.992649233972,4,1,0,100,0,0
20407,-100.660676122253,4,1,0,100,0,0
20482,-100.329794239923,4,1,0,100,0,0
20557,-100,4,1,0,100,0,0
59034,-125,4,1,0,60,0,0
68409,-111.111111111111,4,1,0,70,0,0
76957,-111.111111111111,4,1,0,80,0,0
77032,-110.381844620402,4,1,0,80,0,0
77107,-109.657364596222,4,1,0,80,0,0
77182,-108.937639623087,4,1,0,80,0,0
77257,-108.2226384917,4,1,0,80,0,0
77332,-107.512330197606,4,1,0,80,0,0
77407,-106.806683939845,4,1,0,80,0,0
77482,-106.105669119615,4,1,0,80,0,0
77557,-105.409255338946,4,1,0,80,0,0
77632,-104.717412399382,4,1,0,80,0,0
77707,-104.030110300672,4,1,0,80,0,0
77782,-103.347319239468,4,1,0,80,0,0
77857,-102.669009608034,4,1,0,80,0,0
77932,-101.995151992961,4,1,0,80,0,0
78007,-101.325717173891,4,1,0,80,0,0
78082,-100.660676122253,4,1,0,80,0,0
78159,-100,4,1,0,85,0,0
106959,-100,4,1,0,100,0,1
154959,-100,4,1,0,100,0,0
155259,-103.092783505155,4,1,0,80,0,0
155709,-106.382978723404,4,1,0,80,0,0
156159,-108.695652173913,4,1,0,80,0,0
172809,-108.695652173913,4,1,0,60,0,0
174009,-100,4,1,0,85,0,0
192084,-100,4,1,0,65,0,0
193209,-100,4,1,0,85,0,0
211284,-100,4,1,0,75,0,0
211884,-105.263157894737,4,1,0,75,0,0
212484,-111.111111111111,4,1,0,85,0,0
222084,-100,4,1,0,85,0,0
231684,-100,4,1,0,70,0,0
243684,-100,4,1,0,80,0,0
250959,-100,4,1,0,100,0,1
289359,-100,4,1,0,85,0,0
325284,-100,4,1,0,70,0,0

[HitObjects]
256,192,1359,5,4,0:0:0:0:
256,192,1509,1,0,0:0:0:0:
256,192,1659,1,8,0:0:0:0:
256,192,1734,1,8,0:0:0:0:
256,192,1809,1,8,0:0:0:0:
256,192,1959,1,0,0:0:0:0:
256,192,2109,1,0,0:0:0:0:
256,192,2259,1,8,0:0:0:0:
256,192,2334,1,8,0:0:0:0:
256,192,2409,1,0,0:0:0:0:
256,192,2559,1,8,0:0:0:0:
256,192,2709,1,0,0:0:0:0:
256,192,2859,1,8,0:0:0:0:
256,192,2934,1,0,0:0:0:0:
256,192,3009,1,8,0:0:0:0:
256,192,3159,1,0,0:0:0:0:
256,192,3309,1,0,0:0:0:0:
256,192,3459,1,8,0:0:0:0:
256,192,3534,1,0,0:0:0:0:
256,192,3609,1,0,0:0:0:0:
256,192,3759,1,8,0:0:0:0:
256,192,3909,1,0,0:0:0:0:
256,192,4059,1,8,0:0:0:0:
256,192,4134,1,8,0:0:0:0:
256,192,4209,1,8,0:0:0:0:
256,192,4359,1,0,0:0:0:0:
256,192,4509,1,0,0:0:0:0:
256,192,4659,1,8,0:0:0:0:
256,192,4734,1,8,0:0:0:0:
256,192,4809,1,0,0:0:0:0:
256,192,4959,1,8,0:0:0:0:
256,192,5109,1,0,0:0:0:0:
256,192,5259,1,8,0:0:0:0:
256,192,5334,1,0,0:0:0:0:
256,192,5409,1,8,0:0:0:0:
256,192,5559,1,0,0:0:0:0:
256,192,5709,1,0,0:0:0:0:
256,192,5859,1,8,0:0:0:0:
256,192,5934,1,8,0:0:0:0:
256,192,6009,1,0,0:0:0:0:
256,192,6084,1,0,0:0:0:0:
256,192,6159,1,8,0:0:0:0:
256,192,6309,1,0,0:0:0:0:
256,192,6459,1,8,0:0:0:0:
256,192,6534,1,8,0:0:0:0:
256,192,6609,1,8,0:0:0:0:
256,192,6759,1,0,0:0:0:0:
256,192,6909,1,0,0:0:0:0:
256,192,7059,1,8,0:0:0:0:
256,192,7134,1,8,0:0:0:0:
256,192,7209,1,0,0:0:0:0:
256,192,7284,1,8,0:0:0:0:
256,192,7359,1,0,0:0:0:0:
256,192,7509,1,0,0:0:0:0:
256,192,7659,1,8,0:0:0:0:
256,192,7734,1,8,0:0:0:0:
256,192,7809,1,8,0:0:0:0:
256,192,7959,1,0,0:0:0:0:
256,192,8109,1,0,0:0:0:0:
256,192,8259,1,8,0:0:0:0:
256,192,8334,1,0,0:0:0:0:
256,192,8409,1,8,0:0:0:0:
256,192,8484,1,8,0:0:0:0:
256,192,8559,1,0,0:0:0:0:
256,192,8709,1,0,0:0:0:0:
256,192,8859,1,8,0:0:0:0:
256,192,8934,1,8,0:0:0:0:
256,192,9009,1,8,0:0:0:0:
256,192,9159,1,0,0:0:0:0:
256,192,9309,1,0,0:0:0:0:
256,192,9459,1,8,0:0:0:0:
256,192,9534,1,0,0:0:0:0:
256,192,9609,1,0,0:0:0:0:
256,192,9759,1,8,0:0:0:0:
256,192,9909,1,0,0:0:0:0:
256,192,10059,1,8,0:0:0:0:
256,192,10134,1,0,0:0:0:0:
256,192,10209,1,8,0:0:0:0:
256,192,10359,1,0,0:0:0:0:
256,192,10509,1,0,0:0:0:0:
256,192,10659,1,8,0:0:0:0:
256,192,10734,1,8,0:0:0:0:
256,192,10809,1,8,0:0:0:0:
256,192,10884,1,8,0:0:0:0:
256,192,10959,1,0,0:0:0:0:
256,192,11259,1,8,0:0:0:0:
256,192,11409,1,0,0:0:0:0:
256,192,11484,1,8,0:0:0:0:
256,192,11559,1,0,0:0:0:0:
256,192,11709,1,0,0:0:0:0:
256,192,11859,1,8,0:0:0:0:
256,192,11934,1,8,0:0:0:0:
256,192,12009,1,0,0:0:0:0:
256,192,12084,1,0,0:0:0:0:
256,192,12159,1,8,0:0:0:0:
256,192,12309,1,0,0:0:0:0:
256,192,12459,1,8,0:0:0:0:
256,192,12534,1,0,0:0:0:0:
256,192,12609,1,0,0:0:0:0:
256,192,12684,1,0,0:0:0:0:
256,192,12759,1,8,0:0:0:0:
256,192,12834,1,8,0:0:0:0:
256,192,12909,1,0,0:0:0:0:
256,192,13059,1,8,0:0:0:0:
256,192,13209,1,0,0:0:0:0:
256,192,13284,1,0,0:0:0:0:
256,192,13359,1,8,0:0:0:0:
256,192,13509,1,0,0:0:0:0:
256,192,13584,1,0,0:0:0:0:
256,192,13659,1,8,0:0:0:0:
256,192,13734,1,8,0:0:0:0:
256,192,13809,1,0,0:0:0:0:
256,192,13884,1,8,0:0:0:0:
256,192,13959,1,0,0:0:0:0:
256,192,14109,1,0,0:0:0:0:
256,192,14184,1,0,0:0:0:0:
256,192,14259,1,8,0:0:0:0:
256,192,14409,1,0,0:0:0:0:
256,192,14559,1,8,0:0:0:0:
256,192,14634,1,0,0:0:0:0:
256,192,14784,1,0,0:0:0:0:
256,192,14859,1,8,0:0:0:0:
256,192,15009,1,0,0:0:0:0:
256,192,15159,1,8,0:0:0:0:
256,192,15234,1,8,0:0:0:0:
256,192,15309,1,0,0:0:0:0:
256,192,15384,1,0,0:0:0:0:
256,192,15459,1,8,0:0:0:0:
256,192,15609,1,0,0:0:0:0:
256,192,15759,1,8,0:0:0:0:
256,192,15834,1,0,0:0:0:0:
256,192,15984,1,0,0:0:0:0:
256,192,16059,1,8,0:0:0:0:
256,192,16209,1,0,0:0:0:0:
256,192,16359,1,8,0:0:0:0:
256,192,16434,1,8,0:0:0:0:
256,192,16509,1,0,0:0:0:0:
256,192,16659,1,8,0:0:0:0:
256,192,16809,1,0,0:0:0:0:
256,192,16884,1,0,0:0:0:0:
256,192,16959,1,0,0:0:0:0:
256,192,17109,1,0,0:0:0:0:
256,192,17259,1,8,0:0:0:0:
256,192,17334,1,8,0:0:0:0:
256,192,17409,1,0,0:0:0:0:
256,192,17484,1,8,0:0:0:0:
256,192,17559,1,0,0:0:0:0:
256,192,17634,1,0,0:0:0:0:
256,192,17709,1,8,0:0:0:0:
256,192,17784,1,0,0:0:0:0:
256,192,17859,1,8,0:0:0:0:
256,192,18009,1,8,0:0:0:0:
256,192,18084,1,8,0:0:0:0:
256,192,18159,1,0,0:0:0:0:
256,192,18309,1,0,0:0:0:0:
256,192,18459,1,8,0:0:0:0:
256,192,18534,1,8,0:0:0:0:
256,192,18609,1,0,0:0:0:0:
256,192,18684,1,0,0:0:0:0:
256,192,18759,1,8,0:0:0:0:
256,192,18834,1,8,0:0:0:0:
256,192,18909,1,0,0:0:0:0:
256,192,19059,1,8,0:0:0:0:
256,192,19134,1,0,0:0:0:0:
256,192,19209,1,8,0:0:0:0:
256,192,19284,1,8,0:0:0:0:
256,192,19359,1,0,0:0:0:0:
256,192,19434,1,0,0:0:0:0:
256,192,19509,1,0,0:0:0:0:
256,192,19584,1,0,0:0:0:0:
256,192,19659,1,8,0:0:0:0:
256,192,19734,1,0,0:0:0:0:
256,192,19809,1,0,0:0:0:0:
256,192,19884,1,0,0:0:0:0:
256,192,19959,1,8,0:0:0:0:
256,192,20034,1,8,0:0:0:0:
256,192,20109,1,0,0:0:0:0:
256,192,20184,1,8,0:0:0:0:
256,192,20259,1,0,0:0:0:0:
256,192,20334,1,0,0:0:0:0:
256,192,20409,1,8,0:0:0:0:
256,192,20559,1,4,0:0:0:0:
256,192,20709,1,8,0:0:0:0:
256,192,20784,1,0,0:0:0:0:
256,192,20859,1,8,0:0:0:0:
256,192,21009,1,8,0:0:0:0:
256,192,21084,1,8,0:0:0:0:
256,192,21159,1,0,0:0:0:0:
256,192,21309,1,0,0:0:0:0:
256,192,21459,1,8,0:0:0:0:
256,192,21534,1,0,0:0:0:0:
256,192,21609,1,8,0:0:0:0:
256,192,21684,1,8,0:0:0:0:
256,192,21759,1,0,0:0:0:0:
256,192,21909,1,0,0:0:0:0:
256,192,21984,1,0,0:0:0:0:
256,192,22059,1,8,0:0:0:0:
256,192,22209,1,0,0:0:0:0:
256,192,22284,1,0,0:0:0:0:
256,192,22359,1,8,0:0:0:0:
256,192,22509,1,0,0:0:0:0:
256,192,22659,1,8,0:0:0:0:
256,192,22734,1,8,0:0:0:0:
256,192,22809,1,8,0:0:0:0:
256,192,22884,1,8,0:0:0:0:
256,192,22959,1,0,0:0:0:0:
256,192,23109,1,8,0:0:0:0:
256,192,23184,1,0,0:0:0:0:
256,192,23259,1,8,0:0:0:0:
256,192,23409,1,0,0:0:0:0:
256,192,23484,1,8,0:0:0:0:
256,192,23559,1,0,0:0:0:0:
256,192,23709,1,0,0:0:0:0:
256,192,23859,1,8,0:0:0:0:
256,192,23934,1,8,0:0:0:0:
256,192,24009,1,0,0:0:0:0:
256,192,24084,1,0,0:0:0:0:
256,192,24159,1,8,0:0:0:0:
256,192,24309,1,0,0:0:0:0:
256,192,24384,1,0,0:0:0:0:
256,192,24459,1,8,0:0:0:0:
256,192,24609,1,0,0:0:0:0:
256,192,24684,1,8,0:0:0:0:
256,192,24759,1,0,0:0:0:0:
256,192,24909,1,0,0:0:0:0:
256,192,25059,1,8,0:0:0:0:
256,192,25359,1,0,0:0:0:0:
256,192,25509,1,0,0:0:0:0:
256,192,25584,1,0,0:0:0:0:
256,192,25659,1,8,0:0:0:0:
256,192,25809,1,8,0:0:0:0:
256,192,25884,1,8,0:0:0:0:
256,192,25959,1,0,0:0:0:0:
256,192,26109,1,0,0:0:0:0:
256,192,26259,1,8,0:0:0:0:
256,192,26334,1,0,0:0:0:0:
256,192,26409,1,0,0:0:0:0:
256,192,26484,1,0,0:0:0:0:
256,192,26559,1,8,0:0:0:0:
256,192,26709,1,0,0:0:0:0:
256,192,26784,1,0,0:0:0:0:
256,192,26859,1,8,0:0:0:0:
256,192,27009,1,8,0:0:0:0:
256,192,27084,1,8,0:0:0:0:
256,192,27159,1,0,0:0:0:0:
256,192,27309,1,0,0:0:0:0:
256,192,27459,1,8,0:0:0:0:
256,192,27534,1,8,0:0:0:0:
256,192,27609,1,0,0:0:0:0:
256,192,27684,1,8,0:0:0:0:
256,192,27759,1,0,0:0:0:0:
256,192,27909,1,8,0:0:0:0:
256,192,27984,1,0,0:0:0:0:
256,192,28059,1,8,0:0:0:0:
256,192,28209,1,0,0:0:0:0:
256,192,28284,1,0,0:0:0:0:
256,192,28359,1,8,0:0:0:0:
256,192,28509,1,0,0:0:0:0:
256,192,28659,1,8,0:0:0:0:
256,192,28734,1,8,0:0:0:0:
256,192,28809,1,8,0:0:0:0:
256,192,28884,1,0,0:0:0:0:
256,192,28959,1,8,0:0:0:0:
256,192,29109,1,0,0:0:0:0:
256,192,29184,1,0,0:0:0:0:
256,192,29259,1,8,0:0:0:0:
256,192,29409,1,0,0:0:0:0:
256,192,29484,1,0,0:0:0:0:
256,192,29559,1,8,0:0:0:0:
256,192,29709,1,0,0:0:0:0:
256,192,29859,1,8,0:0:0:0:
256,192,29934,1,8,0:0:0:0:
256,192,30009,1,8,0:0:0:0:
256,192,30159,1,4,0:0:0:0:
256,192,30309,1,0,0:0:0:0:
256,192,30459,1,8,0:0:0:0:
256,192,30534,1,8,0:0:0:0:
256,192,30609,1,0,0:0:0:0:
256,192,30684,1,8,0:0:0:0:
256,192,30759,1,0,0:0:0:0:
256,192,30909,1,0,0:0:0:0:
256,192,31059,1,8,0:0:0:0:
256,192,31134,1,0,0:0:0:0:
256,192,31209,1,8,0:0:0:0:
256,192,31284,1,8,0:0:0:0:
256,192,31359,1,0,0:0:0:0:
256,192,31509,1,0,0:0:0:0:
256,192,31659,1,8,0:0:0:0:
256,192,31734,1,8,0:0:0:0:
256,192,31809,1,0,0:0:0:0:
256,192,31884,1,0,0:0:0:0:
256,192,31959,1,8,0:0:0:0:
256,192,32109,1,0,0:0:0:0:
256,192,32259,1,8,0:0:0:0:
256,192,32334,1,8,0:0:0:0:
256,192,32409,1,8,0:0:0:0:
256,192,32484,1,8,0:0:0:0:
256,192,32559,1,0,0:0:0:0:
256,192,32709,1,8,0:0:0:0:
256,192,32784,1,0,0:0:0:0:
256,192,32859,1,8,0:0:0:0:
256,192,32934,1,8,0:0:0:0:
256,192,33009,1,0,0:0:0:0:
256,192,33084,1,8,0:0:0:0:
256,192,33159,1,0,0:0:0:0:
256,192,33309,1,0,0:0:0:0:
256,192,33459,1,8,0:0:0:0:
256,192,33534,1,8,0:0:0:0:
256,192,33609,1,0,0:0:0:0:
256,192,33684,1,0,0:0:0:0:
256,192,33759,1,8,0:0:0:0:
256,192,33909,1,0,0:0:0:0:
256,192,34059,1,8,0:0:0:0:
256,192,34134,1,8,0:0:0:0:
256,192,34209,1,0,0:0:0:0:
256,192,34284,1,8,0:0:0:0:
256,192,34359,1,0,0:0:0:0:
256,192,34509,1,0,0:0:0:0:
256,192,34584,1,0,0:0:0:0:
256,192,34659,1,8,0:0:0:0:
256,192,34809,1,8,0:0:0:0:
256,192,34959,1,0,0:0:0:0:
256,192,35109,1,0,0:0:0:0:
256,192,35184,1,0,0:0:0:0:
256,192,35259,1,8,0:0:0:0:
256,192,35334,1,0,0:0:0:0:
256,192,35409,1,8,0:0:0:0:
256,192,35484,1,8,0:0:0:0:
256,192,35559,1,0,0:0:0:0:
256,192,35709,1,0,0:0:0:0:
256,192,35859,1,8,0:0:0:0:
256,192,35934,1,0,0:0:0:0:
256,192,36009,1,0,0:0:0:0:
256,192,36084,1,0,0:0:0:0:
256,192,36159,1,8,0:0:0:0:
256,192,36309,1,0,0:0:0:0:
256,192,36459,1,8,0:0:0:0:
256,192,36534,1,8,0:0:0:0:
256,192,36609,1,8,0:0:0:0:
256,192,36684,1,8,0:0:0:0:
256,192,36759,1,0,0:0:0:0:
256,192,36909,1,0,0:0:0:0:
256,192,37059,1,8,0:0:0:0:
256,192,37134,1,8,0:0:0:0:
256,192,37209,1,0,0:0:0:0:
256,192,37284,1,8,0:0:0:0:
256,192,37359,1,0,0:0:0:0:
256,192,37509,1,8,0:0:0:0:
256,192,37584,1,0,0:0:0:0:
256,192,37659,1,8,0:0:0:0:
256,192,37734,1,8,0:0:0:0:
256,192,37809,1,0,0:0:0:0:
256,192,37884,1,0,0:0:0:0:
256,192,37959,1,8,0:0:0:0:
256,192,38109,1,0,0:0:0:0:
256,192,38259,1,8,0:0:0:0:
256,192,38334,1,8,0:0:0:0:
256,192,38409,1,8,0:0:0:0:
256,192,38484,1,0,0:0:0:0:
256,192,38559,1,8,0:0:0:0:
256,192,38709,1,0,0:0:0:0:
256,192,38784,1,0,0:0:0:0:
256,192,38859,1,8,0:0:0:0:
256,192,39009,1,0,0:0:0:0:
256,192,39084,1,0,0:0:0:0:
256,192,39159,1,8,0:0:0:0:
256,192,39234,1,8,0:0:0:0:
256,192,39309,1,0,0:0:0:0:
256,192,39459,1,8,0:0:0:0:
256,192,39609,1,8,0:0:0:0:
256,192,39759,1,4,0:0:0:0:
256,192,39909,1,8,0:0:0:0:
256,192,39984,1,0,0:0:0:0:
256,192,40059,1,8,0:0:0:0:
256,192,40134,1,8,0:0:0:0:
256,192,40209,1,8,0:0:0:0:
256,192,40284,1,8,0:0:0:0:
256,192,40359,1,0,0:0:0:0:
256,192,40509,1,0,0:0:0:0:
256,192,40659,1,8,0:0:0:0:
256,192,40734,1,0,0:0:0:0:
256,192,40809,1,8,0:0:0:0:
256,192,40884,1,8,0:0:0:0:
256,192,40959,1,0,0:0:0:0:
256,192,41109,1,0,0:0:0:0:
256,192,41184,1,0,0:0:0:0:
256,192,41259,1,8,0:0:0:0:
256,192,41334,1,8,0:0:0:0:
256,192,41409,1,0,0:0:0:0:
256,192,41484,1,0,0:0:0:0:
256,192,41559,1,8,0:0:0:0:
256,192,41709,1,0,0:0:0:0:
256,192,41859,1,8,0:0:0:0:
256,192,41934,1,8,0:0:0:0:
256,192,42009,1,8,0:0:0:0:
256,192,42084,1,8,0:0:0:0:
256,192,42159,1,0,0:0:0:0:
256,192,42309,1,8,0:0:0:0:
256,192,42384,1,0,0:0:0:0:
256,192,42459,1,8,0:0:0:0:
256,192,42534,1,8,0:0:0:0:
256,192,42609,1,0,0:0:0:0:
256,192,42684,1,8,0:0:0:0:
256,192,42759,1,0,0:0:0:0:
256,192,42909,1,0,0:0:0:0:
256,192,43059,1,8,0:0:0:0:
256,192,43134,1,8,0:0:0:0:
256,192,43209,1,0,0:0:0:0:
256,192,43284,1,0,0:0:0:0:
256,192,43359,1,8,0:0:0:0:
256,192,43509,1,0,0:0:0:0:
256,192,43584,1,0,0:0:0:0:
256,192,43659,1,8,0:0:0:0:
256,192,43734,1,8,0:0:0:0:
256,192,43809,1,0,0:0:0:0:
256,192,43884,1,8,0:0:0:0:
256,192,43959,1,0,0:0:0:0:
256,192,44109,1,0,0:0:0:0:
256,192,44259,1,8,0:0:0:0:
256,192,44334,1,0,0:0:0:0:
256,192,44409,1,8,0:0:0:0:
256,192,44484,1,8,0:0:0:0:
256,192,44559,1,8,0:0:0:0:
256,192,44709,1,0,0:0:0:0:
256,192,44784,1,0,0:0:0:0:
256,192,44859,1,8,0:0:0:0:
256,192,44934,1,0,0:0:0:0:
256,192,45009,1,8,0:0:0:0:
256,192,45084,1,8,0:0:0:0:
256,192,45159,1,0,0:0:0:0:
256,192,45309,1,0,0:0:0:0:
256,192,45459,1,8,0:0:0:0:
256,192,45534,1,0,0:0:0:0:
256,192,45609,1,0,0:0:0:0:
256,192,45684,1,0,0:0:0:0:
256,192,45759,1,8,0:0:0:0:
256,192,45909,1,0,0:0:0:0:
256,192,45984,1,0,0:0:0:0:
256,192,46059,1,8,0:0:0:0:
256,192,46134,1,8,0:0:0:0:
256,192,46209,1,8,0:0:0:0:
256,192,46284,1,8,0:0:0:0:
256,192,46359,1,0,0:0:0:0:
256,192,46509,1,0,0:0:0:0:
256,192,46659,1,8,0:0:0:0:
256,192,46734,1,8,0:0:0:0:
256,192,46809,1,0,0:0:0:0:
256,192,46884,1,8,0:0:0:0:
256,192,46959,1,0,0:0:0:0:
256,192,47109,1,8,0:0:0:0:
256,192,47184,1,0,0:0:0:0:
256,192,47259,1,8,0:0:0:0:
256,192,47334,1,8,0:0:0:0:
256,192,47409,1,0,0:0:0:0:
256,192,47484,1,0,0:0:0:0:
256,192,47559,1,8,0:0:0:0:
256,192,47709,1,0,0:0:0:0:
256,192,47859,1,8,0:0:0:0:
256,192,47934,1,8,0:0:0:0:
256,192,48009,1,8,0:0:0:0:
256,192,48084,1,0,0:0:0:0:
256,192,48159,1,8,0:0:0:0:
256,192,48309,1,0,0:0:0:0:
256,192,48384,1,0,0:0:0:0:
256,192,48459,1,8,0:0:0:0:
256,192,48534,1,0,0:0:0:0:
256,192,48609,1,0,0:0:0:0:
256,192,48684,1,0,0:0:0:0:
256,192,48759,1,8,0:0:0:0:
256,192,48909,1,0,0:0:0:0:
256,192,49059,1,8,0:0:0:0:
256,192,49359,1,4,0:0:0:0:
256,192,49509,1,8,0:0:0:0:
256,192,49584,1,0,0:0:0:0:
256,192,49659,1,8,0:0:0:0:
256,192,49734,1,8,0:0:0:0:
256,192,49809,1,8,0:0:0:0:
256,192,49884,1,8,0:0:0:0:
256,192,49959,1,0,0:0:0:0:
256,192,50109,1,0,0:0:0:0:
256,192,50259,1,8,0:0:0:0:
256,192,50334,1,0,0:0:0:0:
256,192,50409,1,8,0:0:0:0:
256,192,50484,1,8,0:0:0:0:
256,192,50559,1,0,0:0:0:0:
256,192,50709,1,0,0:0:0:0:
256,192,50784,1,0,0:0:0:0:
256,192,50859,1,8,0:0:0:0:
256,192,50934,1,8,0:0:0:0:
256,192,51009,1,0,0:0:0:0:
256,192,51084,1,0,0:0:0:0:
256,192,51159,1,8,0:0:0:0:
256,192,51309,1,0,0:0:0:0:
256,192,51384,1,0,0:0:0:0:
256,192,51459,1,8,0:0:0:0:
256,192,51534,1,8,0:0:0:0:
256,192,51609,1,8,0:0:0:0:
256,192,51684,1,8,0:0:0:0:
256,192,51759,1,0,0:0:0:0:
256,192,51909,1,8,0:0:0:0:
256,192,51984,1,0,0:0:0:0:
256,192,52059,1,8,0:0:0:0:
256,192,52134,1,8,0:0:0:0:
256,192,52209,1,0,0:0:0:0:
256,192,52284,1,8,0:0:0:0:
256,192,52359,1,0,0:0:0:0:
256,192,52509,1,0,0:0:0:0:
256,192,52659,1,8,0:0:0:0:
256,192,52734,1,8,0:0:0:0:
256,192,52809,1,0,0:0:0:0:
256,192,52884,1,0,0:0:0:0:
256,192,52959,1,8,0:0:0:0:
256,192,53109,1,0,0:0:0:0:
256,192,53184,1,0,0:0:0:0:
256,192,53259,1,8,0:0:0:0:
256,192,53334,1,8,0:0:0:0:
256,192,53409,1,0,0:0:0:0:
256,192,53484,1,8,0:0:0:0:
256,192,53559,1,0,0:0:0:0:
256,192,53709,1,0,0:0:0:0:
256,192,53784,1,0,0:0:0:0:
256,192,53859,1,8,0:0:0:0:
256,192,54009,1,8,0:0:0:0:
256,192,54084,1,8,0:0:0:0:
256,192,54159,1,0,0:0:0:0:
256,192,54309,1,0,0:0:0:0:
256,192,54384,1,0,0:0:0:0:
256,192,54459,1,8,0:0:0:0:
256,192,54534,1,0,0:0:0:0:
256,192,54609,1,8,0:0:0:0:
256,192,54684,1,8,0:0:0:0:
256,192,54759,1,0,0:0:0:0:
256,192,54909,1,0,0:0:0:0:
256,192,55059,1,8,0:0:0:0:
256,192,55134,1,0,0:0:0:0:
256,192,55209,1,0,0:0:0:0:
256,192,55284,1,0,0:0:0:0:
256,192,55359,1,8,0:0:0:0:
256,192,55509,1,0,0:0:0:0:
256,192,55584,1,0,0:0:0:0:
256,192,55659,1,8,0:0:0:0:
256,192,55734,1,8,0:0:0:0:
256,192,55809,1,8,0:0:0:0:
256,192,55884,1,8,0:0:0:0:
256,192,55959,1,0,0:0:0:0:
256,192,56109,1,0,0:0:0:0:
256,192,56259,1,8,0:0:0:0:
256,192,56334,1,8,0:0:0:0:
256,192,56409,1,0,0:0:0:0:
256,192,56484,1,0,0:0:0:0:
256,192,56559,1,8,0:0:0:0:
256,192,56634,1,0,0:0:0:0:
256,192,56709,1,8,0:0:0:0:
256,192,56784,1,8,0:0:0:0:
256,192,56859,1,8,0:0:0:0:
256,192,56934,1,8,0:0:0:0:
256,192,57009,1,0,0:0:0:0:
256,192,57084,1,0,0:0:0:0:
256,192,57159,1,8,0:0:0:0:
256,192,57234,1,0,0:0:0:0:
256,192,57309,1,0,0:0:0:0:
256,192,57384,1,0,0:0:0:0:
256,192,57459,1,8,0:0:0:0:
256,192,57534,1,8,0:0:0:0:
256,192,57609,1,0,0:0:0:0:
256,192,57684,1,0,0:0:0:0:
256,192,57759,1,8,0:0:0:0:
256,192,57834,1,8,0:0:0:0:
256,192,57909,1,8,0:0:0:0:
256,192,57984,1,8,0:0:0:0:
256,192,58059,1,0,0:0:0:0:
256,192,58134,1,0,0:0:0:0:
256,192,58209,1,8,0:0:0:0:
256,192,58284,1,0,0:0:0:0:
256,192,58359,1,8,0:0:0:0:
256,192,58434,1,8,0:0:0:0:
256,192,58509,1,0,0:0:0:0:
256,192,58584,1,0,0:0:0:0:
256,192,58659,1,0,0:0:0:0:
256,192,58734,1,0,0:0:0:0:
256,192,58809,1,8,0:0:0:0:
256,192,58959,1,4,0:0:0:0:
256,192,68559,5,0,0:0:0:0:
256,192,68859,1,8,0:0:0:0:
256,192,69159,1,8,0:0:0:0:
256,192,69459,1,8,0:0:0:0:
256,192,69759,1,8,0:0:0:0:
256,192,70059,1,8,0:0:0:0:
256,192,70359,1,8,0:0:0:0:
256,192,70659,1,8,0:0:0:0:
256,192,70959,1,0,0:0:0:0:
256,192,71259,1,8,0:0:0:0:
256,192,71559,1,8,0:0:0:0:
256,192,71859,1,8,0:0:0:0:
256,192,72159,1,8,0:0:0:0:
256,192,72459,1,8,0:0:0:0:
256,192,72759,1,8,0:0:0:0:
256,192,73059,1,8,0:0:0:0:
256,192,73359,1,0,0:0:0:0:
256,192,73659,1,8,0:0:0:0:
256,192,73959,1,8,0:0:0:0:
256,192,74259,1,8,0:0:0:0:
256,192,74559,1,8,0:0:0:0:
256,192,74859,1,8,0:0:0:0:
256,192,75159,1,8,0:0:0:0:
256,192,75459,1,8,0:0:0:0:
256,192,75759,1,0,0:0:0:0:
256,192,76059,1,8,0:0:0:0:
256,192,76359,1,8,0:0:0:0:
256,192,76659,1,8,0:0:0:0:
256,192,76959,1,0,0:0:0:0:
256,192,77109,1,0,0:0:0:0:
256,192,77259,1,8,0:0:0:0:
256,192,77409,1,8,0:0:0:0:
256,192,77559,1,0,0:0:0:0:
256,192,77634,1,8,0:0:0:0:
256,192,77709,1,0,0:0:0:0:
256,192,77784,1,8,0:0:0:0:
256,192,77859,1,0,0:0:0:0:
256,192,77934,1,0,0:0:0:0:
256,192,78009,1,8,0:0:0:0:
256,192,78159,1,4,0:0:0:0:
256,192,78459,1,8,0:0:0:0:
256,192,78609,1,0,0:0:0:0:
256,192,78684,1,0,0:0:0:0:
256,192,78759,1,8,0:0:0:0:
256,192,78909,1,8,0:0:0:0:
256,192,78984,1,8,0:0:0:0:
256,192,79059,1,0,0:0:0:0:
256,192,79209,1,0,0:0:0:0:
256,192,79359,1,8,0:0:0:0:
256,192,79434,1,0,0:0:0:0:
256,192,79509,1,0,0:0:0:0:
256,192,79584,1,0,0:0:0:0:
256,192,79659,1,8,0:0:0:0:
256,192,79809,1,8,0:0:0:0:
256,192,79959,1,0,0:0:0:0:
256,192,80034,1,0,0:0:0:0:
256,192,80109,1,8,0:0:0:0:
256,192,80184,1,0,0:0:0:0:
256,192,80259,1,8,0:0:0:0:
256,192,80409,1,0,0:0:0:0:
256,192,80559,1,8,0:0:0:0:
256,192,80634,1,8,0:0:0:0:
256,192,80709,1,0,0:0:0:0:
256,192,80859,1,8,0:0:0:0:
256,192,81009,1,0,0:0:0:0:
256,192,81084,1,8,0:0:0:0:
256,192,81159,1,0,0:0:0:0:
256,192,81309,1,0,0:0:0:0:
256,192,81384,1,0,0:0:0:0:
256,192,81459,1,8,0:0:0:0:
256,192,81534,1,8,0:0:0:0:
256,192,81609,1,0,0:0:0:0:
256,192,81684,1,0,0:0:0:0:
256,192,81759,1,8,0:0:0:0:
256,192,81909,1,0,0:0:0:0:
256,192,82059,1,8,0:0:0:0:
256,192,82134,1,0,0:0:0:0:
256,192,82209,1,8,0:0:0:0:
256,192,82284,1,8,0:0:0:0:
256,192,82359,1,0,0:0:0:0:
256,192,82509,1,0,0:0:0:0:
256,192,82584,1,0,0:0:0:0:
256,192,82659,1,8,0:0:0:0:
256,192,82809,1,8,0:0:0:0:
256,192,82959,1,0,0:0:0:0:
256,192,83034,1,0,0:0:0:0:
256,192,83109,1,0,0:0:0:0:
256,192,83259,1,8,0:0:0:0:
256,192,83409,1,0,0:0:0:0:
256,192,83484,1,0,0:0:0:0:
256,192,83559,1,8,0:0:0:0:
256,192,83709,1,8,0:0:0:0:
256,192,83784,1,0,0:0:0:0:
256,192,83859,1,8,0:0:0:0:
256,192,83934,1,8,0:0:0:0:
256,192,84009,1,0,0:0:0:0:
256,192,84084,1,0,0:0:0:0:
256,192,84159,1,8,0:0:0:0:
256,192,84309,1,0,0:0:0:0:
256,192,84459,1,8,0:0:0:0:
256,192,84534,1,8,0:0:0:0:
256,192,84609,1,8,0:0:0:0:
256,192,84759,1,0,0:0:0:0:
256,192,84834,1,0,0:0:0:0:
256,192,84909,1,0,0:0:0:0:
256,192,84984,1,0,0:0:0:0:
256,192,85059,1,8,0:0:0:0:
256,192,85209,1,8,0:0:0:0:
256,192,85359,1,0,0:0:0:0:
256,192,85509,1,0,0:0:0:0:
256,192,85584,1,0,0:0:0:0:
256,192,85659,1,8,0:0:0:0:
256,192,85734,1,8,0:0:0:0:
256,192,85809,1,0,0:0:0:0:
256,192,85884,1,8,0:0:0:0:
256,192,85959,1,0,0:0:0:0:
256,192,86109,1,0,0:0:0:0:
256,192,86184,1,0,0:0:0:0:
256,192,86259,1,8,0:0:0:0:
256,192,86409,1,8,0:0:0:0:
256,192,86559,1,0,0:0:0:0:
256,192,86634,1,0,0:0:0:0:
256,192,86709,1,8,0:0:0:0:
256,192,86784,1,0,0:0:0:0:
256,192,86859,1,8,0:0:0:0:
256,192,86934,1,8,0:0:0:0:
256,192,87009,1,0,0:0:0:0:
256,192,87159,1,8,0:0:0:0:
256,192,87309,1,0,0:0:0:0:
256,192,87384,1,8,0:0:0:0:
256,192,87459,1,8,0:0:0:0:
256,192,87609,1,8,0:0:0:0:
256,192,87759,1,4,0:0:0:0:
256,192,88059,1,8,0:0:0:0:
256,192,88209,1,8,0:0:0:0:
256,192,88284,1,8,0:0:0:0:
256,192,88359,1,0,0:0:0:0:
256,192,88509,1,0,0:0:0:0:
256,192,88659,1,8,0:0:0:0:
256,192,88734,1,8,0:0:0:0:
256,192,88809,1,0,0:0:0:0:
256,192,88884,1,0,0:0:0:0:
256,192,88959,1,8,0:0:0:0:
256,192,89109,1,0,0:0:0:0:
256,192,89184,1,0,0:0:0:0:
256,192,89259,1,8,0:0:0:0:
256,192,89334,1,8,0:0:0:0:
256,192,89409,1,8,0:0:0:0:
256,192,89484,1,8,0:0:0:0:
256,192,89559,1,0,0:0:0:0:
256,192,89709,1,0,0:0:0:0:
256,192,89859,1,8,0:0:0:0:
256,192,89934,1,8,0:0:0:0:
256,192,90009,1,8,0:0:0:0:
256,192,90159,1,0,0:0:0:0:
256,192,90234,1,8,0:0:0:0:
256,192,90309,1,0,0:0:0:0:
256,192,90384,1,0,0:0:0:0:
256,192,90459,1,8,0:0:0:0:
256,192,90609,1,8,0:0:0:0:
256,192,90684,1,8,0:0:0:0:
256,192,90759,1,0,0:0:0:0:
256,192,90909,1,0,0:0:0:0:
256,192,91059,1,8,0:0:0:0:
256,192,91134,1,0,0:0:0:0:
256,192,91209,1,8,0:0:0:0:
256,192,91284,1,8,0:0:0:0:
256,192,91359,1,0,0:0:0:0:
256,192,91509,1,0,0:0:0:0:
256,192,91584,1,0,0:0:0:0:
256,192,91659,1,8,0:0:0:0:
256,192,91809,1,0,0:0:0:0:
256,192,91884,1,8,0:0:0:0:
256,192,91959,1,0,0:0:0:0:
256,192,92034,1,0,0:0:0:0:
256,192,92109,1,8,0:0:0:0:
256,192,92184,1,0,0:0:0:0:
256,192,92259,1,8,0:0:0:0:
256,192,92409,1,0,0:0:0:0:
256,192,92559,1,8,0:0:0:0:
256,192,92634,1,8,0:0:0:0:
256,192,92709,1,0,0:0:0:0:
256,192,92784,1,0,0:0:0:0:
256,192,92859,1,8,0:0:0:0:
256,192,93009,1,0,0:0:0:0:
256,192,93159,1,8,0:0:0:0:
256,192,93309,1,0,0:0:0:0:
256,192,93384,1,0,0:0:0:0:
256,192,93459,1,8,0:0:0:0:
256,192,93534,1,0,0:0:0:0:
256,192,93609,1,8,0:0:0:0:
256,192,93684,1,8,0:0:0:0:
256,192,93759,1,0,0:0:0:0:
256,192,93909,1,0,0:0:0:0:
256,192,94059,1,8,0:0:0:0:
256,192,94209,1,0,0:0:0:0:
256,192,94284,1,0,0:0:0:0:
256,192,94359,1,8,0:0:0:0:
256,192,94434,1,8,0:0:0:0:
256,192,94509,1,0,0:0:0:0:
256,192,94659,1,8,0:0:0:0:
256,192,94734,1,8,0:0:0:0:
256,192,94809,1,8,0:0:0:0:
256,192,94884,1,8,0:0:0:0:
256,192,94959,1,0,0:0:0:0:
256,192,95259,1,8,0:0:0:0:
256,192,95559,1,0,0:0:0:0:
256,192,95859,1,8,0:0:0:0:
256,192,96009,1,8,0:0:0:0:
256,192,96159,1,4,0:0:0:0:
256,192,96459,1,8,0:0:0:0:
256,192,96609,1,0,0:0:0:0:
256,192,96684,1,0,0:0:0:0:
256,192,96759,1,8,0:0:0:0:
256,192,96909,1,0,0:0:0:0:
256,192,97059,1,8,0:0:0:0:
256,192,97134,1,8,0:0:0:0:
256,192,97209,1,8,0:0:0:0:
256,192,97284,1,8,0:0:0:0:
256,192,97359,1,0,0:0:0:0:
256,192,97509,1,0,0:0:0:0:
256,192,97659,1,8,0:0:0:0:
256,192,97734,1,8,0:0:0:0:
256,192,97809,1,8,0:0:0:0:
256,192,97959,1,0,0:0:0:0:
256,192,98109,1,0,0:0:0:0:
256,192,98184,1,0,0:0:0:0:
256,192,98259,1,8,0:0:0:0:
256,192,98334,1,8,0:0:0:0:
256,192,98409,1,0,0:0:0:0:
256,192,98484,1,8,0:0:0:0:
256,192,98559,1,0,0:0:0:0:
256,192,98709,1,0,0:0:0:0:
256,192,98859,1,8,0:0:0:0:
256,192,98934,1,8,0:0:0:0:
256,192,99009,1,0,0:0:0:0:
256,192,99084,1,0,0:0:0:0:
256,192,99159,1,8,0:0:0:0:
256,192,99309,1,0,0:0:0:0:
256,192,99384,1,0,0:0:0:0:
256,192,99459,1,8,0:0:0:0:
256,192,99609,1,8,0:0:0:0:
256,192,99759,1,0,0:0:0:0:
256,192,99834,1,0,0:0:0:0:
256,192,99909,1,0,0:0:0:0:
256,192,100059,1,8,0:0:0:0:
256,192,100134,1,8,0:0:0:0:
256,192,100209,1,0,0:0:0:0:
256,192,100284,1,0,0:0:0:0:
256,192,100359,1,8,0:0:0:0:
256,192,100434,1,0,0:0:0:0:
256,192,100509,1,8,0:0:0:0:
256,192,100659,1,8,0:0:0:0:
256,192,100809,1,8,0:0:0:0:
256,192,100959,1,0,0:0:0:0:
256,192,101109,1,0,0:0:0:0:
256,192,101259,1,8,0:0:0:0:
256,192,101334,1,8,0:0:0:0:
256,192,101409,1,0,0:0:0:0:
256,192,101484,1,8,0:0:0:0:
256,192,101559,1,0,0:0:0:0:
256,192,101634,1,0,0:0:0:0:
256,192,101709,1,8,0:0:0:0:
256,192,101784,1,0,0:0:0:0:
256,192,101859,1,8,0:0:0:0:
256,192,102009,1,0,0:0:0:0:
256,192,102084,1,0,0:0:0:0:
256,192,102159,1,8,0:0:0:0:
256,192,102234,1,8,0:0:0:0:
256,192,102309,1,0,0:0:0:0:
256,192,102459,1,8,0:0:0:0:
256,192,102534,1,8,0:0:0:0:
256,192,102609,1,8,0:0:0:0:
256,192,102759,1,0,0:0:0:0:
256,192,102834,1,0,0:0:0:0:
256,192,102909,1,0,0:0:0:0:
256,192,102984,1,0,0:0:0:0:
256,192,103059,1,8,0:0:0:0:
256,192,103134,1,8,0:0:0:0:
256,192,103209,1,8,0:0:0:0:
256,192,103284,1,8,0:0:0:0:
256,192,103359,1,0,0:0:0:0:
256,192,103509,1,0,0:0:0:0:
256,192,103659,1,8,0:0:0:0:
256,192,103809,1,0,0:0:0:0:
256,192,103959,1,8,0:0:0:0:
256,192,104034,1,0,0:0:0:0:
256,192,104109,1,8,0:0:0:0:
256,192,104184,1,8,0:0:0:0:
256,192,104259,1,0,0:0:0:0:
256,192,104334,1,0,0:0:0:0:
256,192,104409,1,8,0:0:0:0:
256,192,104559,1,4,0:0:0:0:
256,192,104859,1,8,0:0:0:0:
256,192,105009,1,0,0:0:0:0:
256,192,105159,1,8,0:0:0:0:
256,192,105234,1,8,0:0:0:0:
256,192,105309,1,0,0:0:0:0:
256,192,105384,1,0,0:0:0:0:
256,192,105459,1,8,0:0:0:0:
256,192,105509,1,8,0:0:0:0:
256,192,105559,1,8,0:0:0:0:
256,192,105609,1,0,0:0:0:0:
256,192,105759,1,8,0:0:0:0:
256,192,105834,1,8,0:0:0:0:
256,192,105909,1,0,0:0:0:0:
256,192,105984,1,0,0:0:0:0:
256,192,106059,1,8,0:0:0:0:
256,192,106209,1,0,0:0:0:0:
256,192,106284,1,8,0:0:0:0:
256,192,106359,1,0,0:0:0:0:
256,192,106659,1,0,0:0:0:0:
256,192,106959,1,8,0:0:0:0:
256,192,107034,1,0,0:0:0:0:
256,192,107109,1,0,0:0:0:0:
256,192,107184,1,0,0:0:0:0:
256,192,107259,1,8,0:0:0:0:
256,192,107334,1,0,0:0:0:0:
256,192,107409,1,8,0:0:0:0:
256,192,107484,1,8,0:0:0:0:
256,192,107559,1,0,0:0:0:0:
256,192,107634,1,0,0:0:0:0:
256,192,107709,1,0,0:0:0:0:
256,192,107784,1,0,0:0:0:0:
256,192,107859,1,8,0:0:0:0:
256,192,107934,1,0,0:0:0:0:
256,192,108009,1,8,0:0:0:0:
256,192,108084,1,8,0:0:0:0:
256,192,108159,1,8,0:0:0:0:
256,192,108234,1,8,0:0:0:0:
256,192,108309,1,0,0:0:0:0:
256,192,108384,1,0,0:0:0:0:
256,192,108459,1,8,0:0:0:0:
256,192,108534,1,0,0:0:0:0:
256,192,108609,1,0,0:0:0:0:
256,192,108684,1,0,0:0:0:0:
256,192,108759,1,8,0:0:0:0:
256,192,108834,1,8,0:0:0:0:
256,192,108909,1,0,0:0:0:0:
256,192,108984,1,0,0:0:0:0:
256,192,109059,1,0,0:0:0:0:
256,192,109134,1,0,0:0:0:0:
256,192,109209,1,8,0:0:0:0:
256,192,109284,1,0,0:0:0:0:
256,192,109359,1,8,0:0:0:0:
256,192,109434,1,8,0:0:0:0:
256,192,109509,1,0,0:0:0:0:
256,192,109584,1,0,0:0:0:0:
256,192,109659,1,8,0:0:0:0:
256,192,109734,1,0,0:0:0:0:
256,192,109809,1,8,0:0:0:0:
256,192,109884,1,8,0:0:0:0:
256,192,109959,1,0,0:0:0:0:
256,192,110034,1,0,0:0:0:0:
256,192,110109,1,8,0:0:0:0:
256,192,110184,1,0,0:0:0:0:
256,192,110259,1,0,0:0:0:0:
256,192,110334,1,0,0:0:0:0:
256,192,110409,1,8,0:0:0:0:
256,192,110484,1,8,0:0:0:0:
256,192,110559,1,8,0:0:0:0:
256,192,110634,1,8,0:0:0:0:
256,192,110709,1,0,0:0:0:0:
256,192,110784,1,0,0:0:0:0:
256,192,110859,1,8,0:0:0:0:
256,192,110934,1,0,0:0:0:0:
256,192,111009,1,0,0:0:0:0:
256,192,111084,1,0,0:0:0:0:
256,192,111159,1,8,0:0:0:0:
256,192,111234,1,8,0:0:0:0:
256,192,111309,1,8,0:0:0:0:
256,192,111384,1,8,0:0:0:0:
256,192,111459,1,0,0:0:0:0:
256,192,111609,1,0,0:0:0:0:
256,192,111759,1,8,0:0:0:0:
256,192,111834,1,0,0:0:0:0:
256,192,111909,1,0,0:0:0:0:
256,192,111984,1,0,0:0:0:0:
256,192,112059,1,8,0:0:0:0:
256,192,112134,1,8,0:0:0:0:
256,192,112209,1,0,0:0:0:0:
256,192,112284,1,8,0:0:0:0:
256,192,112359,1,0,0:0:0:0:
256,192,112434,1,0,0:0:0:0:
256,192,112509,1,8,0:0:0:0:
256,192,112584,1,0,0:0:0:0:
256,192,112659,1,8,0:0:0:0:
256,192,112734,1,8,0:0:0:0:
256,192,112809,1,8,0:0:0:0:
256,192,112884,1,8,0:0:0:0:
256,192,112959,1,0,0:0:0:0:
256,192,113034,1,0,0:0:0:0:
256,192,113109,1,8,0:0:0:0:
256,192,113184,1,0,0:0:0:0:
256,192,113259,1,0,0:0:0:0:
256,192,113334,1,0,0:0:0:0:
256,192,113409,1,8,0:0:0:0:
256,192,113484,1,8,0:0:0:0:
256,192,113559,1,0,0:0:0:0:
256,192,113634,1,0,0:0:0:0:
256,192,113709,1,0,0:0:0:0:
256,192,113784,1,0,0:0:0:0:
256,192,113859,1,8,0:0:0:0:
256,192,113934,1,0,0:0:0:0:
256,192,114009,1,0,0:0:0:0:
256,192,114084,1,0,0:0:0:0:
256,192,114159,1,8,0:0:0:0:
256,192,114234,1,8,0:0:0:0:
256,192,114309,1,8,0:0:0:0:
256,192,114384,1,8,0:0:0:0:
256,192,114459,1,0,0:0:0:0:
256,192,114534,1,0,0:0:0:0:
256,192,114609,1,8,0:0:0:0:
256,192,114684,1,0,0:0:0:0:
256,192,114759,1,0,0:0:0:0:
256,192,114834,1,0,0:0:0:0:
256,192,114909,1,8,0:0:0:0:
256,192,114984,1,0,0:0:0:0:
256,192,115059,1,8,0:0:0:0:
256,192,115134,1,8,0:0:0:0:
256,192,115209,1,0,0:0:0:0:
256,192,115284,1,0,0:0:0:0:
256,192,115359,1,8,0:0:0:0:
256,192,115434,1,8,0:0:0:0:
256,192,115509,1,8,0:0:0:0:
256,192,115584,1,8,0:0:0:0:
256,192,115659,1,0,0:0:0:0:
256,192,115734,1,8,0:0:0:0:
256,192,115809,1,0,0:0:0:0:
256,192,115884,1,0,0:0:0:0:
256,192,115959,1,8,0:0:0:0:
256,192,116109,1,0,0:0:0:0:
256,192,116259,1,8,0:0:0:0:
256,192,116334,1,0,0:0:0:0:
256,192,116409,1,0,0:0:0:0:
256,192,116484,1,0,0:0:0:0:
256,192,116559,1,8,0:0:0:0:
256,192,116634,1,8,0:0:0:0:
256,192,116709,1,8,0:0:0:0:
256,192,116784,1,8,0:0:0:0:
256,192,116859,1,0,0:0:0:0:
256,192,116934,1,0,0:0:0:0:
256,192,117009,1,8,0:0:0:0:
256,192,117084,1,0,0:0:0:0:
256,192,117159,1,0,0:0:0:0:
256,192,117234,1,0,0:0:0:0:
256,192,117309,1,8,0:0:0:0:
256,192,117384,1,0,0:0:0:0:
256,192,117459,1,8,0:0:0:0:
256,192,117534,1,8,0:0:0:0:
256,192,117609,1,0,0:0:0:0:
256,192,117684,1,0,0:0:0:0:
256,192,117759,1,0,0:0:0:0:
256,192,117834,1,0,0:0:0:0:
256,192,117909,1,8,0:0:0:0:
256,192,117984,1,0,0:0:0:0:
256,192,118059,1,0,0:0:0:0:
256,192,118134,1,0,0:0:0:0:
256,192,118209,1,8,0:0:0:0:
256,192,118284,1,8,0:0:0:0:
256,192,118359,1,0,0:0:0:0:
256,192,118434,1,0,0:0:0:0:
256,192,118509,1,0,0:0:0:0:
256,192,118584,1,0,0:0:0:0:
256,192,118659,1,8,0:0:0:0:
256,192,118734,1,0,0:0:0:0:
256,192,118809,1,0,0:0:0:0:
256,192,118884,1,0,0:0:0:0:
256,192,118959,1,8,0:0:0:0:
256,192,119034,1,8,0:0:0:0:
256,192,119109,1,0,0:0:0:0:
256,192,119184,1,0,0:0:0:0:
256,192,119259,1,8,0:0:0:0:
256,192,119334,1,0,0:0:0:0:
256,192,119409,1,8,0:0:0:0:
256,192,119484,1,8,0:0:0:0:
256,192,119559,1,0,0:0:0:0:
256,192,119634,1,0,0:0:0:0:
256,192,119709,1,8,0:0:0:0:
256,192,119784,1,0,0:0:0:0:
256,192,119859,1,0,0:0:0:0:
256,192,119934,1,0,0:0:0:0:
256,192,120009,1,8,0:0:0:0:
256,192,120084,1,8,0:0:0:0:
256,192,120159,1,8,0:0:0:0:
256,192,120234,1,8,0:0:0:0:
256,192,120309,1,0,0:0:0:0:
256,192,120384,1,0,0:0:0:0:
256,192,120459,1,8,0:0:0:0:
256,192,120534,1,0,0:0:0:0:
256,192,120609,1,0,0:0:0:0:
256,192,120684,1,0,0:0:0:0:
256,192,120759,1,8,0:0:0:0:
256,192,120909,1,8,0:0:0:0:
256,192,120984,1,8,0:0:0:0:
256,192,121059,1,8,0:0:0:0:
256,192,121209,1,0,0:0:0:0:
256,192,121359,1,8,0:0:0:0:
256,192,121434,1,0,0:0:0:0:
256,192,121509,1,0,0:0:0:0:
256,192,121584,1,0,0:0:0:0:
256,192,121659,1,8,0:0:0:0:
256,192,121734,1,8,0:0:0:0:
256,192,121809,1,0,0:0:0:0:
256,192,121884,1,8,0:0:0:0:
256,192,121959,1,0,0:0:0:0:
256,192,122034,1,0,0:0:0:0:
256,192,122109,1,8,0:0:0:0:
256,192,122184,1,0,0:0:0:0:
256,192,122259,1,8,0:0:0:0:
256,192,122334,1,8,0:0:0:0:
256,192,122409,1,8,0:0:0:0:
256,192,122484,1,8,0:0:0:0:
256,192,122559,1,0,0:0:0:0:
256,192,122634,1,0,0:0:0:0:
256,192,122709,1,8,0:0:0:0:
256,192,122784,1,0,0:0:0:0:
256,192,122859,1,0,0:0:0:0:
256,192,122934,1,0,0:0:0:0:
256,192,123009,1,8,0:0:0:0:
256,192,123084,1,8,0:0:0:0:
256,192,123159,1,0,0:0:0:0:
256,192,123234,1,0,0:0:0:0:
256,192,123309,1,0,0:0:0:0:
256,192,123384,1,0,0:0:0:0:
256,192,123459,1,8,0:0:0:0:
256,192,123534,1,0,0:0:0:0:
256,192,123609,1,8,0:0:0:0:
256,192,123684,1,8,0:0:0:0:
256,192,123759,1,0,0:0:0:0:
256,192,123984,1,8,0:0:0:0:
256,192,124059,1,0,0:0:0:0:
256,192,124209,1,8,0:0:0:0:
256,192,124284,1,8,0:0:0:0:
256,192,124359,1,0,0:0:0:0:
256,192,124584,1,8,0:0:0:0:
256,192,124659,1,0,0:0:0:0:
256,192,124809,1,0,0:0:0:0:
256,192,124959,1,8,0:0:0:0:
256,192,125034,1,0,0:0:0:0:
256,192,125109,1,0,0:0:0:0:
256,192,125184,1,0,0:0:0:0:
256,192,125259,1,8,0:0:0:0:
256,192,125334,1,8,0:0:0:0:
256,192,125409,1,8,0:0:0:0:
256,192,125484,1,8,0:0:0:0:
256,192,125559,1,0,0:0:0:0:
256,192,125784,1,8,0:0:0:0:
256,192,125859,1,0,0:0:0:0:
256,192,126009,1,0,0:0:0:0:
256,192,126159,1,8,0:0:0:0:
256,192,126234,1,0,0:0:0:0:
256,192,126309,1,0,0:0:0:0:
256,192,126384,1,0,0:0:0:0:
256,192,126459,1,8,0:0:0:0:
256,192,126534,1,0,0:0:0:0:
256,192,126609,1,8,0:0:0:0:
256,192,126684,1,8,0:0:0:0:
256,192,126759,1,8,0:0:0:0:
256,192,126834,1,8,0:0:0:0:
256,192,126909,1,0,0:0:0:0:
256,192,126984,1,0,0:0:0:0:
256,192,127059,1,8,0:0:0:0:
256,192,127134,1,0,0:0:0:0:
256,192,127209,1,0,0:0:0:0:
256,192,127284,1,0,0:0:0:0:
256,192,127359,1,8,0:0:0:0:
256,192,127434,1,8,0:0:0:0:
256,192,127509,1,8,0:0:0:0:
256,192,127584,1,8,0:0:0:0:
256,192,127659,1,0,0:0:0:0:
256,192,127734,1,0,0:0:0:0:
256,192,127809,1,8,0:0:0:0:
256,192,127884,1,0,0:0:0:0:
256,192,127959,1,0,0:0:0:0:
256,192,128034,1,0,0:0:0:0:
256,192,128109,1,8,0:0:0:0:
256,192,128184,1,8,0:0:0:0:
256,192,128259,1,0,0:0:0:0:
256,192,128334,1,0,0:0:0:0:
256,192,128409,1,8,0:0:0:0:
256,192,128484,1,0,0:0:0:0:
256,192,128559,1,8,0:0:0:0:
256,192,128634,1,8,0:0:0:0:
256,192,128709,1,8,0:0:0:0:
256,192,128784,1,8,0:0:0:0:
256,192,128859,1,0,0:0:0:0:
256,192,128934,1,0,0:0:0:0:
256,192,129009,1,8,0:0:0:0:
256,192,129084,1,0,0:0:0:0:
256,192,129159,1,0,0:0:0:0:
256,192,129234,1,0,0:0:0:0:
256,192,129309,1,8,0:0:0:0:
256,192,129384,1,0,0:0:0:0:
256,192,129459,1,8,0:0:0:0:
256,192,129534,1,8,0:0:0:0:
256,192,129609,1,8,0:0:0:0:
256,192,129684,1,8,0:0:0:0:
256,192,129759,1,0,0:0:0:0:
256,192,129834,1,8,0:0:0:0:
256,192,129909,1,0,0:0:0:0:
256,192,129984,1,0,0:0:0:0:
256,192,130059,1,8,0:0:0:0:
256,192,130134,1,0,0:0:0:0:
256,192,130209,1,0,0:0:0:0:
256,192,130284,1,0,0:0:0:0:
256,192,130359,1,8,0:0:0:0:
256,192,130509,1,8,0:0:0:0:
256,192,130659,1,0,0:0:0:0:
256,192,130809,1,8,0:0:0:0:
256,192,130884,1,8,0:0:0:0:
256,192,130959,1,0,0:0:0:0:
256,192,131034,1,0,0:0:0:0:
256,192,131109,1,0,0:0:0:0:
256,192,131184,1,0,0:0:0:0:
256,192,131259,1,8,0:0:0:0:
256,192,131334,1,0,0:0:0:0:
256,192,131409,1,8,0:0:0:0:
256,192,131484,1,0,0:0:0:0:
256,192,131559,1,0,0:0:0:0:
256,192,131634,1,0,0:0:0:0:
256,192,131709,1,8,0:0:0:0:
256,192,131784,1,8,0:0:0:0:
256,192,131859,1,0,0:0:0:0:
256,192,131934,1,0,0:0:0:0:
256,192,132009,1,0,0:0:0:0:
256,192,132084,1,0,0:0:0:0:
256,192,132159,1,8,0:0:0:0:
256,192,132234,1,0,0:0:0:0:
256,192,132309,1,0,0:0:0:0:
256,192,132384,1,0,0:0:0:0:
256,192,132459,1,8,0:0:0:0:
256,192,132534,1,8,0:0:0:0:
256,192,132609,1,8,0:0:0:0:
256,192,132684,1,8,0:0:0:0:
256,192,132759,1,0,0:0:0:0:
256,192,132834,1,0,0:0:0:0:
256,192,132909,1,8,0:0:0:0:
256,192,132984,1,0,0:0:0:0:
256,192,133059,1,0,0:0:0:0:
256,192,133134,1,0,0:0:0:0:
256,192,133209,1,8,0:0:0:0:
256,192,133284,1,0,0:0:0:0:
256,192,133359,1,8,0:0:0:0:
256,192,133434,1,8,0:0:0:0:
256,192,133509,1,8,0:0:0:0:
256,192,133584,1,8,0:0:0:0:
256,192,133659,1,0,0:0:0:0:
256,192,133734,1,0,0:0:0:0:
256,192,133809,1,8,0:0:0:0:
256,192,133884,1,0,0:0:0:0:
256,192,133959,1,0,0:0:0:0:
256,192,134034,1,0,0:0:0:0:
256,192,134109,1,8,0:0:0:0:
256,192,134184,1,8,0:0:0:0:
256,192,134259,1,0,0:0:0:0:
256,192,134334,1,0,0:0:0:0:
256,192,134409,1,0,0:0:0:0:
256,192,134484,1,0,0:0:0:0:
256,192,134559,1,8,0:0:0:0:
256,192,134634,1,0,0:0:0:0:
256,192,134709,1,0,0:0:0:0:
256,192,134784,1,0,0:0:0:0:
256,192,134859,1,8,0:0:0:0:
256,192,134934,1,8,0:0:0:0:
256,192,135009,1,0,0:0:0:0:
256,192,135084,1,8,0:0:0:0:
256,192,135159,1,0,0:0:0:0:
256,192,135234,1,0,0:0:0:0:
256,192,135309,1,0,0:0:0:0:
256,192,135384,1,0,0:0:0:0:
256,192,135459,1,8,0:0:0:0:
256,192,135609,1,8,0:0:0:0:
256,192,135684,1,8,0:0:0:0:
256,192,135759,1,0,0:0:0:0:
256,192,135909,1,0,0:0:0:0:
256,192,136059,1,8,0:0:0:0:
256,192,136134,1,0,0:0:0:0:
256,192,136209,1,8,0:0:0:0:
256,192,136284,1,8,0:0:0:0:
256,192,136359,1,0,0:0:0:0:
256,192,136434,1,0,0:0:0:0:
256,192,136509,1,0,0:0:0:0:
256,192,136584,1,0,0:0:0:0:
256,192,136659,1,8,0:0:0:0:
256,192,136809,1,0,0:0:0:0:
256,192,136959,1,8,0:0:0:0:
256,192,137034,1,0,0:0:0:0:
256,192,137109,1,0,0:0:0:0:
256,192,137184,1,0,0:0:0:0:
256,192,137259,1,8,0:0:0:0:
256,192,137334,1,8,0:0:0:0:
256,192,137409,1,8,0:0:0:0:
256,192,137484,1,8,0:0:0:0:
256,192,137559,1,0,0:0:0:0:
256,192,137709,1,0,0:0:0:0:
256,192,137784,1,0,0:0:0:0:
256,192,137859,1,8,0:0:0:0:
256,192,138009,1,8,0:0:0:0:
256,192,138159,1,0,0:0:0:0:
256,192,138234,1,0,0:0:0:0:
256,192,138309,1,8,0:0:0:0:
256,192,138384,1,8,0:0:0:0:
256,192,138459,1,0,0:0:0:0:
256,192,138609,1,8,0:0:0:0:
256,192,138684,1,8,0:0:0:0:
256,192,138759,1,8,0:0:0:0:
256,192,138909,1,0,0:0:0:0:
256,192,139059,1,8,0:0:0:0:
256,192,139134,1,8,0:0:0:0:
256,192,139209,1,0,0:0:0:0:
256,192,139284,1,8,0:0:0:0:
256,192,139359,1,0,0:0:0:0:
256,192,139509,1,0,0:0:0:0:
256,192,139584,1,0,0:0:0:0:
256,192,139659,1,8,0:0:0:0:
256,192,139809,1,8,0:0:0:0:
256,192,139959,1,0,0:0:0:0:
256,192,140034,1,0,0:0:0:0:
256,192,140109,1,0,0:0:0:0:
256,192,140259,1,8,0:0:0:0:
256,192,140409,1,8,0:0:0:0:
256,192,140484,1,8,0:0:0:0:
256,192,140559,1,0,0:0:0:0:
256,192,140634,1,8,0:0:0:0:
256,192,140709,1,0,0:0:0:0:
256,192,140784,1,0,0:0:0:0:
256,192,140859,1,8,0:0:0:0:
256,192,141009,1,8,0:0:0:0:
256,192,141159,1,0,0:0:0:0:
256,192,141234,1,0,0:0:0:0:
256,192,141309,1,8,0:0:0:0:
256,192,141384,1,0,0:0:0:0:
256,192,141459,1,8,0:0:0:0:
256,192,141609,1,8,0:0:0:0:
256,192,141759,1,0,0:0:0:0:
256,192,141834,1,0,0:0:0:0:
256,192,141909,1,8,0:0:0:0:
256,192,141984,1,8,0:0:0:0:
256,192,142059,1,8,0:0:0:0:
256,192,142134,1,8,0:0:0:0:
256,192,142209,1,0,0:0:0:0:
256,192,142284,1,0,0:0:0:0:
256,192,142359,1,8,0:0:0:0:
256,192,142509,1,0,0:0:0:0:
256,192,142659,1,8,0:0:0:0:
256,192,142734,1,0,0:0:0:0:
256,192,142809,1,8,0:0:0:0:
256,192,142884,1,8,0:0:0:0:
256,192,142959,1,0,0:0:0:0:
256,192,143109,1,0,0:0:0:0:
256,192,143184,1,0,0:0:0:0:
256,192,143259,1,8,0:0:0:0:
256,192,143409,1,8,0:0:0:0:
256,192,143559,1,0,0:0:0:0:
256,192,143634,1,0,0:0:0:0:
256,192,143709,1,0,0:0:0:0:
256,192,143859,1,8,0:0:0:0:
256,192,143934,1,8,0:0:0:0:
256,192,144009,1,0,0:0:0:0:
256,192,144084,1,0,0:0:0:0:
256,192,144159,1,8,0:0:0:0:
256,192,144309,1,0,0:0:0:0:
256,192,144384,1,0,0:0:0:0:
256,192,144459,1,8,0:0:0:0:
256,192,144534,1,8,0:0:0:0:
256,192,144609,1,0,0:0:0:0:
256,192,144684,1,8,0:0:0:0:
256,192,144759,1,0,0:0:0:0:
256,192,144909,1,0,0:0:0:0:
256,192,145059,1,8,0:0:0:0:
256,192,145209,1,8,0:0:0:0:
256,192,145284,1,8,0:0:0:0:
256,192,145359,1,0,0:0:0:0:
256,192,145509,1,0,0:0:0:0:
256,192,145659,1,8,0:0:0:0:
256,192,145809,1,0,0:0:0:0:
256,192,145884,1,0,0:0:0:0:
256,192,145959,1,8,0:0:0:0:
256,192,146034,1,8,0:0:0:0:
256,192,146109,1,0,0:0:0:0:
256,192,146259,1,8,0:0:0:0:
256,192,146334,1,8,0:0:0:0:
256,192,146409,1,8,0:0:0:0:
256,192,146559,1,0,0:0:0:0:
256,192,146709,1,8,0:0:0:0:
256,192,146784,1,0,0:0:0:0:
256,192,146859,1,8,0:0:0:0:
256,192,146934,1,8,0:0:0:0:
256,192,147009,1,0,0:0:0:0:
256,192,147084,1,0,0:0:0:0:
256,192,147159,1,8,0:0:0:0:
256,192,147309,1,0,0:0:0:0:
256,192,147459,1,8,0:0:0:0:
256,192,147534,1,8,0:0:0:0:
256,192,147609,1,8,0:0:0:0:
256,192,147684,1,8,0:0:0:0:
256,192,147759,1,0,0:0:0:0:
256,192,147909,1,0,0:0:0:0:
256,192,147984,1,0,0:0:0:0:
256,192,148059,1,8,0:0:0:0:
256,192,148134,1,0,0:0:0:0:
256,192,148209,1,8,0:0:0:0:
256,192,148284,1,8,0:0:0:0:
256,192,148359,1,0,0:0:0:0:
256,192,148509,1,0,0:0:0:0:
256,192,148659,1,8,0:0:0:0:
256,192,148734,1,8,0:0:0:0:
256,192,148809,1,0,0:0:0:0:
256,192,148884,1,0,0:0:0:0:
256,192,148959,1,8,0:0:0:0:
256,192,149109,1,0,0:0:0:0:
256,192,149184,1,0,0:0:0:0:
256,192,149259,1,8,0:0:0:0:
256,192,149334,1,8,0:0:0:0:
256,192,149409,1,8,0:0:0:0:
256,192,149484,1,8,0:0:0:0:
256,192,149559,1,0,0:0:0:0:
256,192,149709,1,0,0:0:0:0:
256,192,149784,1,0,0:0:0:0:
256,192,149859,1,8,0:0:0:0:
256,192,150009,1,8,0:0:0:0:
256,192,150159,1,0,0:0:0:0:
256,192,150234,1,0,0:0:0:0:
256,192,150309,1,0,0:0:0:0:
256,192,150459,1,8,0:0:0:0:
256,192,150609,1,8,0:0:0:0:
256,192,150684,1,8,0:0:0:0:
256,192,150759,1,0,0:0:0:0:
256,192,150909,1,0,0:0:0:0:
256,192,150984,1,0,0:0:0:0:
256,192,151059,1,8,0:0:0:0:
256,192,151134,1,8,0:0:0:0:
256,192,151209,1,0,0:0:0:0:
256,192,151284,1,8,0:0:0:0:
256,192,151359,1,0,0:0:0:0:
256,192,151509,1,0,0:0:0:0:
256,192,151659,1,8,0:0:0:0:
256,192,151734,1,8,0:0:0:0:
256,192,151809,1,8,0:0:0:0:
256,192,151884,1,8,0:0:0:0:
256,192,151959,1,0,0:0:0:0:
256,192,152109,1,0,0:0:0:0:
256,192,152259,1,8,0:0:0:0:
256,192,152409,1,8,0:0:0:0:
256,192,152484,1,8,0:0:0:0:
256,192,152559,1,0,0:0:0:0:
256,192,152709,1,0,0:0:0:0:
256,192,152784,1,0,0:0:0:0:
256,192,152859,1,8,0:0:0:0:
256,192,152934,1,8,0:0:0:0:
256,192,153009,1,0,0:0:0:0:
256,192,153084,1,0,0:0:0:0:
256,192,153159,1,8,0:0:0:0:
256,192,153309,1,0,0:0:0:0:
256,192,153384,1,0,0:0:0:0:
256,192,153459,1,8,0:0:0:0:
256,192,153534,1,8,0:0:0:0:
256,192,153609,1,8,0:0:0:0:
256,192,153684,1,8,0:0:0:0:
256,192,153759,1,0,0:0:0:0:
256,192,153834,1,8,0:0:0:0:
256,192,153909,1,0,0:0:0:0:
256,192,153984,1,0,0:0:0:0:
256,192,154059,1,8,0:0:0:0:
256,192,154209,1,0,0:0:0:0:
256,192,154359,1,8,0:0:0:0:
256,192,154509,1,0,0:0:0:0:
256,192,154584,1,0,0:0:0:0:
256,192,154659,1,8,0:0:0:0:
256,192,154809,1,8,0:0:0:0:
256,192,154959,1,4,0:0:0:0:
256,192,155409,1,0,0:0:0:0:
256,192,155859,1,8,0:0:0:0:
256,192,156459,1,8,0:0:0:0:
256,192,156759,1,0,0:0:0:0:
256,192,157059,1,8,0:0:0:0:
256,192,157359,1,0,0:0:0:0:
256,192,157659,1,8,0:0:0:0:
256,192,157959,1,0,0:0:0:0:
256,192,158259,1,8,0:0:0:0:
256,192,158559,1,0,0:0:0:0:
256,192,158859,1,8,0:0:0:0:
256,192,159159,1,0,0:0:0:0:
256,192,159459,1,8,0:0:0:0:
256,192,159759,1,0,0:0:0:0:
256,192,160059,1,8,0:0:0:0:
256,192,160359,1,0,0:0:0:0:
256,192,160659,1,8,0:0:0:0:
256,192,160959,1,0,0:0:0:0:
256,192,161259,1,8,0:0:0:0:
256,192,161559,1,0,0:0:0:0:
256,192,161859,1,8,0:0:0:0:
256,192,162159,1,0,0:0:0:0:
256,192,162459,1,8,0:0:0:0:
256,192,162759,1,0,0:0:0:0:
256,192,163059,1,8,0:0:0:0:
256,192,163359,1,0,0:0:0:0:
256,192,163659,1,8,0:0:0:0:
256,192,163959,1,0,0:0:0:0:
256,192,164259,1,8,0:0:0:0:
256,192,164559,1,8,0:0:0:0:
256,192,164859,1,8,0:0:0:0:
256,192,165159,1,8,0:0:0:0:
256,192,165459,1,8,0:0:0:0:
256,192,165759,1,8,0:0:0:0:
256,192,166059,1,8,0:0:0:0:
256,192,166359,1,8,0:0:0:0:
256,192,166659,1,8,0:0:0:0:
256,192,166959,1,8,0:0:0:0:
256,192,167259,1,8,0:0:0:0:
256,192,167559,1,8,0:0:0:0:
256,192,167859,1,8,0:0:0:0:
256,192,168159,1,8,0:0:0:0:
256,192,168459,1,8,0:0:0:0:
256,192,168759,1,8,0:0:0:0:
256,192,169059,1,8,0:0:0:0:
256,192,169359,1,8,0:0:0:0:
256,192,169659,1,8,0:0:0:0:
256,192,169959,1,8,0:0:0:0:
256,192,170259,1,8,0:0:0:0:
256,192,170559,1,8,0:0:0:0:
256,192,170859,1,8,0:0:0:0:
256,192,171159,1,8,0:0:0:0:
256,192,171459,1,8,0:0:0:0:
256,192,171759,1,8,0:0:0:0:
256,192,172059,1,8,0:0:0:0:
256,192,172359,1,8,0:0:0:0:
256,192,172659,1,8,0:0:0:0:
256,192,172959,1,0,0:0:0:0:
256,192,173259,1,0,0:0:0:0:
256,192,173559,1,0,0:0:0:0:
256,192,173859,1,0,0:0:0:0:
256,192,174159,1,4,0:0:0:0:
256,192,174459,1,8,0:0:0:0:
256,192,174609,1,0,0:0:0:0:
256,192,174759,1,8,0:0:0:0:
256,192,174909,1,0,0:0:0:0:
256,192,174984,1,0,0:0:0:0:
256,192,175059,1,8,0:0:0:0:
256,192,175209,1,8,0:0:0:0:
256,192,175359,1,8,0:0:0:0:
256,192,175509,1,8,0:0:0:0:
256,192,175659,1,8,0:0:0:0:
256,192,175809,1,0,0:0:0:0:
256,192,175884,1,0,0:0:0:0:
256,192,175959,1,8,0:0:0:0:
256,192,176109,1,0,0:0:0:0:
256,192,176259,1,8,0:0:0:0:
256,192,176409,1,0,0:0:0:0:
256,192,176484,1,0,0:0:0:0:
256,192,176559,1,8,0:0:0:0:
256,192,176634,1,8,0:0:0:0:
256,192,176709,1,0,0:0:0:0:
256,192,176859,1,8,0:0:0:0:
256,192,177009,1,0,0:0:0:0:
256,192,177084,1,0,0:0:0:0:
256,192,177159,1,8,0:0:0:0:
256,192,177234,1,8,0:0:0:0:
256,192,177309,1,0,0:0:0:0:
256,192,177384,1,0,0:0:0:0:
256,192,177459,1,8,0:0:0:0:
256,192,177609,1,8,0:0:0:0:
256,192,177759,1,0,0:0:0:0:
256,192,177834,1,8,0:0:0:0:
256,192,177909,1,0,0:0:0:0:
256,192,177984,1,0,0:0:0:0:
256,192,178059,1,8,0:0:0:0:
256,192,178209,1,0,0:0:0:0:
256,192,178359,1,8,0:0:0:0:
256,192,178509,1,8,0:0:0:0:
256,192,178659,1,8,0:0:0:0:
256,192,178959,1,0,0:0:0:0:
256,192,179109,1,0,0:0:0:0:
256,192,179184,1,0,0:0:0:0:
256,192,179259,1,8,0:0:0:0:
256,192,179409,1,8,0:0:0:0:
256,192,179559,1,0,0:0:0:0:
256,192,179634,1,0,0:0:0:0:
256,192,179709,1,8,0:0:0:0:
256,192,179784,1,0,0:0:0:0:
256,192,179859,1,8,0:0:0:0:
256,192,180009,1,0,0:0:0:0:
256,192,180084,1,0,0:0:0:0:
256,192,180159,1,8,0:0:0:0:
256,192,180309,1,0,0:0:0:0:
256,192,180459,1,8,0:0:0:0:
256,192,180609,1,0,0:0:0:0:
256,192,180684,1,0,0:0:0:0:
256,192,180759,1,8,0:0:0:0:
256,192,180834,1,0,0:0:0:0:
256,192,180909,1,0,0:0:0:0:
256,192,181059,1,8,0:0:0:0:
256,192,181209,1,0,0:0:0:0:
256,192,181284,1,0,0:0:0:0:
256,192,181359,1,8,0:0:0:0:
256,192,181434,1,0,0:0:0:0:
256,192,181509,1,0,0:0:0:0:
256,192,181584,1,0,0:0:0:0:
256,192,181659,1,8,0:0:0:0:
256,192,181809,1,0,0:0:0:0:
256,192,181959,1,8,0:0:0:0:
256,192,182034,1,8,0:0:0:0:
256,192,182109,1,0,0:0:0:0:
256,192,182184,1,0,0:0:0:0:
256,192,182259,1,8,0:0:0:0:
256,192,182409,1,0,0:0:0:0:
256,192,182559,1,8,0:0:0:0:
256,192,182709,1,8,0:0:0:0:
256,192,182859,1,8,0:0:0:0:
256,192,183009,1,0,0:0:0:0:
256,192,183159,1,8,0:0:0:0:
256,192,183209,1,8,0:0:0:0:
256,192,183259,1,8,0:0:0:0:
256,192,183309,1,0,0:0:0:0:
256,192,183421,1,8,0:0:0:0:
256,192,183534,1,0,0:0:0:0:
256,192,183646,1,0,0:0:0:0:
256,192,183759,1,12,0:0:0:0:
256,192,184059,1,8,0:0:0:0:
256,192,184209,1,0,0:0:0:0:
256,192,184284,1,0,0:0:0:0:
256,192,184359,1,8,0:0:0:0:
256,192,184509,1,0,0:0:0:0:
256,192,184659,1,8,0:0:0:0:
256,192,184734,1,8,0:0:0:0:
256,192,184809,1,0,0:0:0:0:
256,192,184884,1,0,0:0:0:0:
256,192,184959,1,8,0:0:0:0:
256,192,185109,1,0,0:0:0:0:
256,192,185259,1,8,0:0:0:0:
256,192,185334,1,0,0:0:0:0:
256,192,185409,1,8,0:0:0:0:
256,192,185484,1,0,0:0:0:0:
256,192,185559,1,8,0:0:0:0:
256,192,185709,1,0,0:0:0:0:
256,192,185859,1,8,0:0:0:0:
256,192,185934,1,8,0:0:0:0:
256,192,186009,1,0,0:0:0:0:
256,192,186159,1,8,0:0:0:0:
256,192,186309,1,0,0:0:0:0:
256,192,186384,1,0,0:0:0:0:
256,192,186459,1,8,0:0:0:0:
256,192,186759,1,8,0:0:0:0:
256,192,187059,1,8,0:0:0:0:
256,192,187209,1,0,0:0:0:0:
256,192,187359,1,8,0:0:0:0:
256,192,187659,1,8,0:0:0:0:
256,192,187809,1,0,0:0:0:0:
256,192,187959,1,8,0:0:0:0:
256,192,188109,1,8,0:0:0:0:
256,192,188259,1,8,0:0:0:0:
256,192,188559,1,8,0:0:0:0:
256,192,188709,1,8,0:0:0:0:
256,192,188859,1,8,0:0:0:0:
256,192,189009,1,0,0:0:0:0:
256,192,189159,1,8,0:0:0:0:
256,192,189309,1,0,0:0:0:0:
256,192,189384,1,0,0:0:0:0:
256,192,189459,1,8,0:0:0:0:
256,192,189609,1,0,0:0:0:0:
256,192,189759,1,8,0:0:0:0:
256,192,189834,1,8,0:0:0:0:
256,192,189909,1,0,0:0:0:0:
256,192,189984,1,0,0:0:0:0:
256,192,190059,1,8,0:0:0:0:
256,192,190209,1,8,0:0:0:0:
256,192,190359,1,8,0:0:0:0:
256,192,190509,1,8,0:0:0:0:
256,192,190659,1,8,0:0:0:0:
256,192,190809,1,0,0:0:0:0:
256,192,190959,1,8,0:0:0:0:
256,192,191034,1,8,0:0:0:0:
256,192,191109,1,0,0:0:0:0:
256,192,191259,1,8,0:0:0:0:
256,192,191409,1,0,0:0:0:0:
256,192,191484,1,0,0:0:0:0:
256,192,191559,1,8,0:0:0:0:
256,192,191634,1,8,0:0:0:0:
256,192,191709,1,0,0:0:0:0:
256,192,191784,1,0,0:0:0:0:
256,192,191859,1,8,0:0:0:0:
256,192,192009,1,8,0:0:0:0:
256,192,192159,1,0,0:0:0:0:
256,192,192459,1,8,0:0:0:0:
256,192,192759,1,0,0:0:0:0:
256,192,192909,1,0,0:0:0:0:
256,192,193059,1,8,0:0:0:0:
256,192,193359,1,4,0:0:0:0:
256,192,193659,1,8,0:0:0:0:
256,192,193809,1,0,0:0:0:0:
256,192,193959,1,8,0:0:0:0:
256,192,194034,1,8,0:0:0:0:
256,192,194109,1,0,0:0:0:0:
256,192,194184,1,0,0:0:0:0:
256,192,194259,1,8,0:0:0:0:
256,192,194409,1,8,0:0:0:0:
256,192,194559,1,8,0:0:0:0:
256,192,194709,1,8,0:0:0:0:
256,192,194859,1,8,0:0:0:0:
256,192,195009,1,0,0:0:0:0:
256,192,195084,1,0,0:0:0:0:
256,192,195159,1,8,0:0:0:0:
256,192,195309,1,0,0:0:0:0:
256,192,195459,1,8,0:0:0:0:
256,192,195534,1,0,0:0:0:0:
256,192,195609,1,0,0:0:0:0:
256,192,195684,1,0,0:0:0:0:
256,192,195759,1,8,0:0:0:0:
256,192,195834,1,8,0:0:0:0:
256,192,195909,1,0,0:0:0:0:
256,192,196059,1,8,0:0:0:0:
256,192,196209,1,0,0:0:0:0:
256,192,196284,1,0,0:0:0:0:
256,192,196359,1,8,0:0:0:0:
256,192,196434,1,8,0:0:0:0:
256,192,196509,1,0,0:0:0:0:
256,192,196584,1,0,0:0:0:0:
256,192,196659,1,8,0:0:0:0:
256,192,196809,1,8,0:0:0:0:
256,192,196959,1,0,0:0:0:0:
256,192,197034,1,8,0:0:0:0:
256,192,197109,1,0,0:0:0:0:
256,192,197184,1,0,0:0:0:0:
256,192,197259,1,8,0:0:0:0:
256,192,197409,1,0,0:0:0:0:
256,192,197559,1,8,0:0:0:0:
256,192,197634,1,8,0:0:0:0:
256,192,197709,1,8,0:0:0:0:
256,192,197784,1,0,0:0:0:0:
256,192,197859,1,8,0:0:0:0:
256,192,198009,1,8,0:0:0:0:
256,192,198159,1,0,0:0:0:0:
256,192,198309,1,0,0:0:0:0:
256,192,198384,1,0,0:0:0:0:
256,192,198459,1,8,0:0:0:0:
256,192,198609,1,8,0:0:0:0:
256,192,198759,1,0,0:0:0:0:
256,192,198834,1,0,0:0:0:0:
256,192,198909,1,8,0:0:0:0:
256,192,198984,1,0,0:0:0:0:
256,192,199059,1,8,0:0:0:0:
256,192,199209,1,0,0:0:0:0:
256,192,199284,1,0,0:0:0:0:
256,192,199359,1,8,0:0:0:0:
256,192,199434,1,8,0:0:0:0:
256,192,199509,1,0,0:0:0:0:
256,192,199584,1,0,0:0:0:0:
256,192,199659,1,8,0:0:0:0:
256,192,199809,1,0,0:0:0:0:
256,192,199884,1,0,0:0:0:0:
256,192,199959,1,8,0:0:0:0:
256,192,200034,1,0,0:0:0:0:
256,192,200109,1,0,0:0:0:0:
256,192,200259,1,8,0:0:0:0:
256,192,200409,1,0,0:0:0:0:
256,192,200484,1,0,0:0:0:0:
256,192,200559,1,8,0:0:0:0:
256,192,200634,1,0,0:0:0:0:
256,192,200709,1,0,0:0:0:0:
256,192,200784,1,0,0:0:0:0:
256,192,200859,1,8,0:0:0:0:
256,192,201009,1,0,0:0:0:0:
256,192,201159,1,8,0:0:0:0:
256,192,201234,1,8,0:0:0:0:
256,192,201309,1,0,0:0:0:0:
256,192,201384,1,0,0:0:0:0:
256,192,201459,1,8,0:0:0:0:
256,192,201609,1,0,0:0:0:0:
256,192,201759,1,8,0:0:0:0:
256,192,201834,1,0,0:0:0:0:
256,192,201909,1,8,0:0:0:0:
256,192,201984,1,0,0:0:0:0:
256,192,202059,1,8,0:0:0:0:
256,192,202209,1,8,0:0:0:0:
256,192,202359,1,0,0:0:0:0:
256,192,202509,1,0,0:0:0:0:
256,192,202959,1,12,0:0:0:0:
256,192,203259,1,8,0:0:0:0:
256,192,203409,1,0,0:0:0:0:
256,192,203484,1,0,0:0:0:0:
256,192,203559,1,8,0:0:0:0:
256,192,203709,1,0,0:0:0:0:
256,192,203784,1,0,0:0:0:0:
256,192,203859,1,8,0:0:0:0:
256,192,203934,1,8,0:0:0:0:
256,192,204009,1,0,0:0:0:0:
256,192,204084,1,0,0:0:0:0:
256,192,204159,1,8,0:0:0:0:
256,192,204309,1,0,0:0:0:0:
256,192,204459,1,8,0:0:0:0:
256,192,204534,1,0,0:0:0:0:
256,192,204609,1,8,0:0:0:0:
256,192,204684,1,0,0:0:0:0:
256,192,204759,1,8,0:0:0:0:
256,192,204834,1,8,0:0:0:0:
256,192,204909,1,0,0:0:0:0:
256,192,205059,1,8,0:0:0:0:
256,192,205209,1,0,0:0:0:0:
256,192,205359,1,8,0:0:0:0:
256,192,205434,1,8,0:0:0:0:
256,192,205509,1,0,0:0:0:0:
256,192,205584,1,0,0:0:0:0:
256,192,205659,1,8,0:0:0:0:
256,192,205734,1,0,0:0:0:0:
256,192,205809,1,8,0:0:0:0:
256,192,205884,1,8,0:0:0:0:
256,192,205959,1,8,0:0:0:0:
256,192,206109,1,0,0:0:0:0:
256,192,206184,1,0,0:0:0:0:
256,192,206259,1,8,0:0:0:0:
256,192,206409,1,0,0:0:0:0:
256,192,206559,1,8,0:0:0:0:
256,192,206634,1,0,0:0:0:0:
256,192,206709,1,0,0:0:0:0:
256,192,206784,1,0,0:0:0:0:
256,192,206859,1,8,0:0:0:0:
256,192,206934,1,8,0:0:0:0:
256,192,207009,1,0,0:0:0:0:
256,192,207084,1,0,0:0:0:0:
256,192,207159,1,8,0:0:0:0:
256,192,207309,1,8,0:0:0:0:
256,192,207459,1,8,0:0:0:0:
256,192,207609,1,0,0:0:0:0:
256,192,207684,1,0,0:0:0:0:
256,192,207759,1,8,0:0:0:0:
256,192,207834,1,0,0:0:0:0:
256,192,207909,1,8,0:0:0:0:
256,192,207984,1,0,0:0:0:0:
256,192,208059,1,8,0:0:0:0:
256,192,208209,1,0,0:0:0:0:
256,192,208284,1,0,0:0:0:0:
256,192,208359,1,8,0:0:0:0:
256,192,208434,1,8,0:0:0:0:
256,192,208509,1,0,0:0:0:0:
256,192,208584,1,0,0:0:0:0:
256,192,208659,1,8,0:0:0:0:
256,192,208809,1,0,0:0:0:0:
256,192,208959,1,8,0:0:0:0:
256,192,209034,1,0,0:0:0:0:
256,192,209109,1,0,0:0:0:0:
256,192,209184,1,0,0:0:0:0:
256,192,209259,1,8,0:0:0:0:
256,192,209409,1,8,0:0:0:0:
256,192,209559,1,8,0:0:0:0:
256,192,209709,1,8,0:0:0:0:
256,192,209859,1,0,0:0:0:0:
256,192,209934,1,0,0:0:0:0:
256,192,210009,1,0,0:0:0:0:
256,192,210159,1,8,0:0:0:0:
256,192,210234,1,8,0:0:0:0:
256,192,210309,1,0,0:0:0:0:
256,192,210384,1,0,0:0:0:0:
256,192,210459,1,8,0:0:0:0:
256,192,210609,1,0,0:0:0:0:
256,192,210684,1,0,0:0:0:0:
256,192,210759,1,8,0:0:0:0:
256,192,210834,1,8,0:0:0:0:
256,192,210909,1,0,0:0:0:0:
256,192,211059,1,8,0:0:0:0:
256,192,211134,1,8,0:0:0:0:
256,192,211209,1,8,0:0:0:0:
256,192,211359,1,0,0:0:0:0:
256,192,211959,1,0,0:0:0:0:
256,192,212559,1,4,0:0:0:0:
256,192,212859,1,4,0:0:0:0:
256,192,213159,1,4,0:0:0:0:
256,192,213459,1,4,0:0:0:0:
256,192,213759,1,4,0:0:0:0:
256,192,214059,1,4,0:0:0:0:
256,192,214359,1,4,0:0:0:0:
256,192,214659,1,4,0:0:0:0:
256,192,214959,1,4,0:0:0:0:
256,192,215259,1,4,0:0:0:0:
256,192,215559,1,4,0:0:0:0:
256,192,215859,1,4,0:0:0:0:
256,192,216159,1,4,0:0:0:0:
256,192,216459,1,4,0:0:0:0:
256,192,216759,1,4,0:0:0:0:
256,192,216909,1,4,0:0:0:0:
256,192,217059,1,0,0:0:0:0:
256,192,217134,1,0,0:0:0:0:
256,192,217209,1,0,0:0:0:0:
256,192,217359,1,12,0:0:0:0:
256,192,217659,1,12,0:0:0:0:
256,192,217959,1,12,0:0:0:0:
256,192,218259,1,12,0:0:0:0:
256,192,218559,1,12,0:0:0:0:
256,192,218859,1,12,0:0:0:0:
256,192,219159,1,12,0:0:0:0:
256,192,219459,1,12,0:0:0:0:
256,192,219609,1,12,0:0:0:0:
256,192,219759,1,12,0:0:0:0:
256,192,220059,1,12,0:0:0:0:
256,192,220359,1,12,0:0:0:0:
256,192,220659,1,12,0:0:0:0:
256,192,220884,1,4,0:0:0:0:
256,192,221109,1,12,0:0:0:0:
256,192,221334,1,4,0:0:0:0:
256,192,221634,1,12,0:0:0:0:
256,192,221859,1,12,0:0:0:0:
256,192,222159,1,4,0:0:0:0:
256,192,222459,1,12,0:0:0:0:
256,192,222759,1,4,0:0:0:0:
256,192,223059,1,12,0:0:0:0:
256,192,223359,1,4,0:0:0:0:
256,192,223659,1,12,0:0:0:0:
256,192,223959,1,4,0:0:0:0:
256,192,224259,1,4,0:0:0:0:
256,192,224559,1,4,0:0:0:0:
256,192,224859,1,12,0:0:0:0:
256,192,225159,1,4,0:0:0:0:
256,192,225459,1,12,0:0:0:0:
256,192,225759,1,4,0:0:0:0:
256,192,226059,1,12,0:0:0:0:
256,192,226359,1,4,0:0:0:0:
256,192,226659,1,4,0:0:0:0:
256,192,226959,1,12,0:0:0:0:
256,192,227259,1,4,0:0:0:0:
256,192,227559,1,12,0:0:0:0:
256,192,227859,1,4,0:0:0:0:
256,192,228159,1,12,0:0:0:0:
256,192,228459,1,4,0:0:0:0:
256,192,228759,1,12,0:0:0:0:
256,192,228984,1,4,0:0:0:0:
256,192,229209,1,4,0:0:0:0:
256,192,229359,1,12,0:0:0:0:
256,192,229659,1,4,0:0:0:0:
256,192,229959,1,12,0:0:0:0:
256,192,230259,1,4,0:0:0:0:
256,192,230559,1,8,0:0:0:0:
256,192,230634,1,8,0:0:0:0:
256,192,230709,1,8,0:0:0:0:
256,192,230784,1,8,0:0:0:0:
256,192,230859,1,0,0:0:0:0:
256,192,231009,1,8,0:0:0:0:
256,192,231159,1,4,0:0:0:0:
256,192,231384,1,4,0:0:0:0:
256,192,231609,1,4,0:0:0:0:
256,192,231759,1,8,0:0:0:0:
256,192,231909,1,8,0:0:0:0:
256,192,232059,1,0,0:0:0:0:
256,192,232209,1,0,0:0:0:0:
256,192,232359,1,8,0:0:0:0:
256,192,232509,1,0,0:0:0:0:
256,192,232659,1,0,0:0:0:0:
256,192,232809,1,0,0:0:0:0:
256,192,232959,1,8,0:0:0:0:
256,192,233109,1,8,0:0:0:0:
256,192,233259,1,0,0:0:0:0:
256,192,233409,1,0,0:0:0:0:
256,192,233559,1,8,0:0:0:0:
256,192,233709,1,0,0:0:0:0:
256,192,233859,1,0,0:0:0:0:
256,192,234009,1,0,0:0:0:0:
256,192,234159,1,8,0:0:0:0:
256,192,234309,1,8,0:0:0:0:
256,192,234459,1,0,0:0:0:0:
256,192,234609,1,0,0:0:0:0:
256,192,234759,1,8,0:0:0:0:
256,192,234909,1,0,0:0:0:0:
256,192,235059,1,0,0:0:0:0:
256,192,235209,1,0,0:0:0:0:
256,192,235359,1,8,0:0:0:0:
256,192,235509,1,8,0:0:0:0:
256,192,235659,1,0,0:0:0:0:
256,192,235809,1,0,0:0:0:0:
256,192,235959,1,8,0:0:0:0:
256,192,236109,1,0,0:0:0:0:
256,192,236259,1,8,0:0:0:0:
256,192,236334,1,0,0:0:0:0:
256,192,236409,1,0,0:0:0:0:
256,192,236484,1,0,0:0:0:0:
256,192,236559,1,8,0:0:0:0:
256,192,236709,1,8,0:0:0:0:
256,192,236859,1,0,0:0:0:0:
256,192,237009,1,8,0:0:0:0:
256,192,237084,1,8,0:0:0:0:
256,192,237159,1,0,0:0:0:0:
256,192,237234,1,0,0:0:0:0:
256,192,237309,1,8,0:0:0:0:
256,192,237459,1,0,0:0:0:0:
256,192,237609,1,8,0:0:0:0:
256,192,237684,1,8,0:0:0:0:
256,192,237759,1,0,0:0:0:0:
256,192,237909,1,0,0:0:0:0:
256,192,238059,1,8,0:0:0:0:
256,192,238134,1,0,0:0:0:0:
256,192,238209,1,8,0:0:0:0:
256,192,238284,1,8,0:0:0:0:
256,192,238359,1,0,0:0:0:0:
256,192,238509,1,0,0:0:0:0:
256,192,238659,1,8,0:0:0:0:
256,192,238734,1,8,0:0:0:0:
256,192,238809,1,0,0:0:0:0:
256,192,238884,1,8,0:0:0:0:
256,192,238959,1,0,0:0:0:0:
256,192,239109,1,0,0:0:0:0:
256,192,239259,1,8,0:0:0:0:
256,192,239334,1,0,0:0:0:0:
256,192,239409,1,0,0:0:0:0:
256,192,239484,1,0,0:0:0:0:
256,192,239559,1,8,0:0:0:0:
256,192,239634,1,8,0:0:0:0:
256,192,239709,1,0,0:0:0:0:
256,192,239859,1,8,0:0:0:0:
256,192,240009,1,0,0:0:0:0:
256,192,240084,1,0,0:0:0:0:
256,192,240159,1,8,0:0:0:0:
256,192,240309,1,8,0:0:0:0:
256,192,240459,1,0,0:0:0:0:
256,192,240534,1,8,0:0:0:0:
256,192,240609,1,0,0:0:0:0:
256,192,240684,1,0,0:0:0:0:
256,192,240759,1,8,0:0:0:0:
256,192,240909,1,8,0:0:0:0:
256,192,241059,1,0,0:0:0:0:
256,192,241134,1,0,0:0:0:0:
256,192,241209,1,8,0:0:0:0:
256,192,241284,1,8,0:0:0:0:
256,192,241359,1,0,0:0:0:0:
256,192,241509,1,8,0:0:0:0:
256,192,241659,1,0,0:0:0:0:
256,192,241734,1,0,0:0:0:0:
256,192,241809,1,8,0:0:0:0:
256,192,241884,1,8,0:0:0:0:
256,192,241959,1,0,0:0:0:0:
256,192,242034,1,0,0:0:0:0:
256,192,242109,1,8,0:0:0:0:
256,192,242259,1,0,0:0:0:0:
256,192,242409,1,8,0:0:0:0:
256,192,242484,1,8,0:0:0:0:
256,192,242559,1,0,0:0:0:0:
256,192,242709,1,0,0:0:0:0:
256,192,242859,1,8,0:0:0:0:
256,192,242934,1,0,0:0:0:0:
256,192,243009,1,0,0:0:0:0:
256,192,243084,1,0,0:0:0:0:
256,192,243159,1,8,0:0:0:0:
256,192,243234,1,8,0:0:0:0:
256,192,243309,1,8,0:0:0:0:
256,192,243384,1,8,0:0:0:0:
256,192,243459,1,0,0:0:0:0:
256,192,243609,1,0,0:0:0:0:
256,192,243759,1,8,0:0:0:0:
256,192,243834,1,8,0:0:0:0:
256,192,243909,1,0,0:0:0:0:
256,192,243984,1,8,0:0:0:0:
256,192,244059,1,0,0:0:0:0:
256,192,244134,1,0,0:0:0:0:
256,192,244209,1,8,0:0:0:0:
256,192,244284,1,0,0:0:0:0:
256,192,244359,1,0,0:0:0:0:
256,192,244434,1,0,0:0:0:0:
256,192,244509,1,8,0:0:0:0:
256,192,244584,1,8,0:0:0:0:
256,192,244659,1,0,0:0:0:0:
256,192,244734,1,0,0:0:0:0:
256,192,244809,1,0,0:0:0:0:
256,192,244884,1,0,0:0:0:0:
256,192,244959,1,8,0:0:0:0:
256,192,245034,1,0,0:0:0:0:
256,192,245109,1,0,0:0:0:0:
256,192,245184,1,0,0:0:0:0:
256,192,245259,1,8,0:0:0:0:
256,192,245334,1,8,0:0:0:0:
256,192,245409,1,8,0:0:0:0:
256,192,245484,1,8,0:0:0:0:
256,192,245559,1,0,0:0:0:0:
256,192,245634,1,0,0:0:0:0:
256,192,245709,1,8,0:0:0:0:
256,192,245784,1,0,0:0:0:0:
256,192,245859,1,8,0:0:0:0:
256,192,245934,1,8,0:0:0:0:
256,192,246009,1,0,0:0:0:0:
256,192,246084,1,0,0:0:0:0:
256,192,246159,1,8,0:0:0:0:
256,192,246234,1,0,0:0:0:0:
256,192,246309,1,0,0:0:0:0:
256,192,246384,1,0,0:0:0:0:
256,192,246459,1,8,0:0:0:0:
256,192,246534,1,8,0:0:0:0:
256,192,246609,1,8,0:0:0:0:
256,192,246684,1,8,0:0:0:0:
256,192,246759,1,0,0:0:0:0:
256,192,246834,1,0,0:0:0:0:
256,192,246909,1,8,0:0:0:0:
256,192,246984,1,0,0:0:0:0:
256,192,247059,1,8,0:0:0:0:
256,192,247134,1,8,0:0:0:0:
256,192,247209,1,8,0:0:0:0:
256,192,247284,1,8,0:0:0:0:
256,192,247359,1,0,0:0:0:0:
256,192,247434,1,8,0:0:0:0:
256,192,247509,1,0,0:0:0:0:
256,192,247584,1,0,0:0:0:0:
256,192,247659,1,8,0:0:0:0:
256,192,247734,1,0,0:0:0:0:
256,192,247809,1,0,0:0:0:0:
256,192,247884,1,0,0:0:0:0:
256,192,247959,1,8,0:0:0:0:
256,192,248034,1,8,0:0:0:0:
256,192,248109,1,8,0:0:0:0:
256,192,248184,1,8,0:0:0:0:
256,192,248259,1,0,0:0:0:0:
256,192,248334,1,0,0:0:0:0:
256,192,248409,1,8,0:0:0:0:
256,192,248484,1,0,0:0:0:0:
256,192,248559,1,0,0:0:0:0:
256,192,248634,1,0,0:0:0:0:
256,192,248709,1,8,0:0:0:0:
256,192,248784,1,8,0:0:0:0:
256,192,248859,1,8,0:0:0:0:
256,192,248934,1,8,0:0:0:0:
256,192,249009,1,0,0:0:0:0:
256,192,249084,1,0,0:0:0:0:
256,192,249159,1,8,0:0:0:0:
256,192,249234,1,0,0:0:0:0:
256,192,249309,1,0,0:0:0:0:
256,192,249384,1,0,0:0:0:0:
256,192,249459,1,8,0:0:0:0:
256,192,249534,1,8,0:0:0:0:
256,192,249609,1,8,0:0:0:0:
256,192,249684,1,8,0:0:0:0:
256,192,249759,1,0,0:0:0:0:
256,192,250509,1,8,0:0:0:0:
256,192,250659,1,0,0:0:0:0:
256,192,250734,1,0,0:0:0:0:
256,192,250809,1,0,0:0:0:0:
256,192,250959,1,8,0:0:0:0:
256,192,251034,1,8,0:0:0:0:
256,192,251109,1,0,0:0:0:0:
256,192,251184,1,0,0:0:0:0:
256,192,251259,1,8,0:0:0:0:
256,192,251334,1,0,0:0:0:0:
256,192,251409,1,8,0:0:0:0:
256,192,251484,1,8,0:0:0:0:
256,192,251559,1,0,0:0:0:0:
256,192,251634,1,0,0:0:0:0:
256,192,251709,1,0,0:0:0:0:
256,192,251784,1,0,0:0:0:0:
256,192,251859,1,8,0:0:0:0:
256,192,251934,1,0,0:0:0:0:
256,192,252009,1,8,0:0:0:0:
256,192,252084,1,8,0:0:0:0:
256,192,252159,1,8,0:0:0:0:
256,192,252234,1,8,0:0:0:0:
256,192,252309,1,0,0:0:0:0:
256,192,252384,1,0,0:0:0:0:
256,192,252459,1,8,0:0:0:0:
256,192,252534,1,0,0:0:0:0:
256,192,252609,1,0,0:0:0:0:
256,192,252684,1,0,0:0:0:0:
256,192,252759,1,8,0:0:0:0:
256,192,252834,1,8,0:0:0:0:
256,192,252909,1,0,0:0:0:0:
256,192,252984,1,0,0:0:0:0:
256,192,253059,1,0,0:0:0:0:
256,192,253134,1,0,0:0:0:0:
256,192,253209,1,8,0:0:0:0:
256,192,253284,1,0,0:0:0:0:
256,192,253359,1,8,0:0:0:0:
256,192,253434,1,8,0:0:0:0:
256,192,253509,1,0,0:0:0:0:
256,192,253584,1,0,0:0:0:0:
256,192,253659,1,8,0:0:0:0:
256,192,253734,1,0,0:0:0:0:
256,192,253809,1,8,0:0:0:0:
256,192,253884,1,8,0:0:0:0:
256,192,253959,1,0,0:0:0:0:
256,192,254034,1,0,0:0:0:0:
256,192,254109,1,8,0:0:0:0:
256,192,254184,1,0,0:0:0:0:
256,192,254259,1,0,0:0:0:0:
256,192,254334,1,0,0:0:0:0:
256,192,254409,1,8,0:0:0:0:
256,192,254484,1,8,0:0:0:0:
256,192,254559,1,8,0:0:0:0:
256,192,254634,1,8,0:0:0:0:
256,192,254709,1,0,0:0:0:0:
256,192,254784,1,0,0:0:0:0:
256,192,254859,1,8,0:0:0:0:
256,192,254934,1,0,0:0:0:0:
256,192,255009,1,0,0:0:0:0:
256,192,255084,1,0,0:0:0:0:
256,192,255159,1,8,0:0:0:0:
256,192,255234,1,8,0:0:0:0:
256,192,255309,1,8,0:0:0:0:
256,192,255384,1,8,0:0:0:0:
256,192,255459,1,0,0:0:0:0:
256,192,255609,1,0,0:0:0:0:
256,192,255759,1,8,0:0:0:0:
256,192,255834,1,0,0:0:0:0:
256,192,255909,1,0,0:0:0:0:
256,192,255984,1,0,0:0:0:0:
256,192,256059,1,8,0:0:0:0:
256,192,256134,1,8,0:0:0:0:
256,192,256209,1,0,0:0:0:0:
256,192,256284,1,8,0:0:0:0:
256,192,256359,1,0,0:0:0:0:
256,192,256434,1,0,0:0:0:0:
256,192,256509,1,8,0:0:0:0:
256,192,256584,1,0,0:0:0:0:
256,192,256659,1,8,0:0:0:0:
256,192,256734,1,8,0:0:0:0:
256,192,256809,1,8,0:0:0:0:
256,192,256884,1,8,0:0:0:0:
256,192,256959,1,0,0:0:0:0:
256,192,257034,1,0,0:0:0:0:
256,192,257109,1,8,0:0:0:0:
256,192,257184,1,0,0:0:0:0:
256,192,257259,1,0,0:0:0:0:
256,192,257334,1,0,0:0:0:0:
256,192,257409,1,8,0:0:0:0:
256,192,257484,1,8,0:0:0:0:
256,192,257559,1,0,0:0:0:0:
256,192,257634,1,0,0:0:0:0:
256,192,257709,1,0,0:0:0:0:
256,192,257784,1,0,0:0:0:0:
256,192,257859,1,8,0:0:0:0:
256,192,257934,1,0,0:0:0:0:
256,192,258009,1,0,0:0:0:0:
256,192,258084,1,0,0:0:0:0:
256,192,258159,1,8,0:0:0:0:
256,192,258234,1,8,0:0:0:0:
256,192,258309,1,8,0:0:0:0:
256,192,258384,1,8,0:0:0:0:
256,192,258459,1,0,0:0:0:0:
256,192,258534,1,0,0:0:0:0:
256,192,258609,1,8,0:0:0:0:
256,192,258684,1,0,0:0:0:0:
256,192,258759,1,0,0:0:0:0:
256,192,258834,1,0,0:0:0:0:
256,192,258909,1,8,0:0:0:0:
256,192,258984,1,0,0:0:0:0:
256,192,259059,1,8,0:0:0:0:
256,192,259134,1,8,0:0:0:0:
256,192,259209,1,0,0:0:0:0:
256,192,259284,1,0,0:0:0:0:
256,192,259359,1,8,0:0:0:0:
256,192,259434,1,8,0:0:0:0:
256,192,259509,1,8,0:0:0:0:
256,192,259584,1,8,0:0:0:0:
256,192,259659,1,0,0:0:0:0:
256,192,259734,1,8,0:0:0:0:
256,192,259809,1,0,0:0:0:0:
256,192,259884,1,0,0:0:0:0:
256,192,259959,1,8,0:0:0:0:
256,192,260109,1,0,0:0:0:0:
256,192,260259,1,0,0:0:0:0:
256,192,260409,1,0,0:0:0:0:
256,192,260559,1,8,0:0:0:0:
256,192,260634,1,8,0:0:0:0:
256,192,260709,1,8,0:0:0:0:
256,192,260784,1,8,0:0:0:0:
256,192,260859,1,0,0:0:0:0:
256,192,260934,1,0,0:0:0:0:
256,192,261009,1,8,0:0:0:0:
256,192,261084,1,0,0:0:0:0:
256,192,261159,1,0,0:0:0:0:
256,192,261234,1,0,0:0:0:0:
256,192,261309,1,8,0:0:0:0:
256,192,261384,1,0,0:0:0:0:
256,192,261459,1,8,0:0:0:0:
256,192,261534,1,8,0:0:0:0:
256,192,261609,1,0,0:0:0:0:
256,192,261684,1,0,0:0:0:0:
256,192,261759,1,0,0:0:0:0:
256,192,261834,1,0,0:0:0:0:
256,192,261909,1,8,0:0:0:0:
256,192,261984,1,0,0:0:0:0:
256,192,262059,1,0,0:0:0:0:
256,192,262134,1,0,0:0:0:0:
256,192,262209,1,8,0:0:0:0:
256,192,262284,1,8,0:0:0:0:
256,192,262359,1,0,0:0:0:0:
256,192,262434,1,0,0:0:0:0:
256,192,262509,1,0,0:0:0:0:
256,192,262584,1,0,0:0:0:0:
256,192,262659,1,8,0:0:0:0:
256,192,262734,1,0,0:0:0:0:
256,192,262809,1,0,0:0:0:0:
256,192,262884,1,0,0:0:0:0:
256,192,262959,1,8,0:0:0:0:
256,192,263034,1,8,0:0:0:0:
256,192,263109,1,0,0:0:0:0:
256,192,263184,1,0,0:0:0:0:
256,192,263259,1,8,0:0:0:0:
256,192,263334,1,0,0:0:0:0:
256,192,263409,1,8,0:0:0:0:
256,192,263484,1,8,0:0:0:0:
256,192,263559,1,0,0:0:0:0:
256,192,263634,1,0,0:0:0:0:
256,192,263709,1,8,0:0:0:0:
256,192,263784,1,0,0:0:0:0:
256,192,263859,1,0,0:0:0:0:
256,192,263934,1,0,0:0:0:0:
256,192,264009,1,8,0:0:0:0:
256,192,264084,1,8,0:0:0:0:
256,192,264159,1,8,0:0:0:0:
256,192,264234,1,8,0:0:0:0:
256,192,264309,1,0,0:0:0:0:
256,192,264384,1,0,0:0:0:0:
256,192,264459,1,8,0:0:0:0:
256,192,264534,1,0,0:0:0:0:
256,192,264609,1,0,0:0:0:0:
256,192,264684,1,0,0:0:0:0:
256,192,264759,1,8,0:0:0:0:
256,192,264834,1,8,0:0:0:0:
256,192,264909,1,8,0:0:0:0:
256,192,264984,1,8,0:0:0:0:
256,192,265059,1,0,0:0:0:0:
256,192,265209,1,0,0:0:0:0:
256,192,265359,1,8,0:0:0:0:
256,192,265434,1,0,0:0:0:0:
256,192,265509,1,0,0:0:0:0:
256,192,265584,1,0,0:0:0:0:
256,192,265659,1,8,0:0:0:0:
256,192,265734,1,8,0:0:0:0:
256,192,265809,1,0,0:0:0:0:
256,192,265884,1,8,0:0:0:0:
256,192,265959,1,0,0:0:0:0:
256,192,266034,1,0,0:0:0:0:
256,192,266109,1,8,0:0:0:0:
256,192,266184,1,0,0:0:0:0:
256,192,266259,1,8,0:0:0:0:
256,192,266334,1,8,0:0:0:0:
256,192,266409,1,8,0:0:0:0:
256,192,266484,1,8,0:0:0:0:
256,192,266559,1,0,0:0:0:0:
256,192,266634,1,0,0:0:0:0:
256,192,266709,1,8,0:0:0:0:
256,192,266784,1,0,0:0:0:0:
256,192,266859,1,0,0:0:0:0:
256,192,266934,1,0,0:0:0:0:
256,192,267009,1,8,0:0:0:0:
256,192,267084,1,8,0:0:0:0:
256,192,267159,1,0,0:0:0:0:
256,192,267234,1,0,0:0:0:0:
256,192,267309,1,0,0:0:0:0:
256,192,267384,1,0,0:0:0:0:
256,192,267459,1,8,0:0:0:0:
256,192,267534,1,0,0:0:0:0:
256,192,267609,1,8,0:0:0:0:
256,192,267684,1,0,0:0:0:0:
256,192,267759,1,0,0:0:0:0:
256,192,267834,1,0,0:0:0:0:
256,192,267909,1,8,0:0:0:0:
256,192,267984,1,8,0:0:0:0:
256,192,268059,1,0,0:0:0:0:
256,192,268134,1,0,0:0:0:0:
256,192,268209,1,0,0:0:0:0:
256,192,268284,1,0,0:0:0:0:
256,192,268359,1,8,0:0:0:0:
256,192,268434,1,0,0:0:0:0:
256,192,268509,1,0,0:0:0:0:
256,192,268584,1,0,0:0:0:0:
256,192,268659,1,8,0:0:0:0:
256,192,268734,1,0,0:0:0:0:
256,192,268809,1,8,0:0:0:0:
256,192,268884,1,8,0:0:0:0:
256,192,268959,1,8,0:0:0:0:
256,192,269034,1,8,0:0:0:0:
256,192,269109,1,0,0:0:0:0:
256,192,269184,1,8,0:0:0:0:
256,192,269259,1,0,0:0:0:0:
256,192,269334,1,0,0:0:0:0:
256,192,269409,1,8,0:0:0:0:
256,192,269484,1,8,0:0:0:0:
256,192,269559,1,0,0:0:0:0:
256,192,269784,1,8,0:0:0:0:
256,192,269859,1,0,0:0:0:0:
256,192,270009,1,0,0:0:0:0:
256,192,270159,1,8,0:0:0:0:
256,192,270234,1,0,0:0:0:0:
256,192,270309,1,0,0:0:0:0:
256,192,270384,1,0,0:0:0:0:
256,192,270459,1,8,0:0:0:0:
256,192,270534,1,0,0:0:0:0:
256,192,270609,1,8,0:0:0:0:
256,192,270684,1,8,0:0:0:0:
256,192,270759,1,8,0:0:0:0:
256,192,270834,1,8,0:0:0:0:
256,192,270909,1,0,0:0:0:0:
256,192,270984,1,0,0:0:0:0:
256,192,271059,1,8,0:0:0:0:
256,192,271134,1,0,0:0:0:0:
256,192,271209,1,0,0:0:0:0:
256,192,271284,1,0,0:0:0:0:
256,192,271359,1,8,0:0:0:0:
256,192,271434,1,8,0:0:0:0:
256,192,271509,1,8,0:0:0:0:
256,192,271584,1,8,0:0:0:0:
256,192,271659,1,0,0:0:0:0:
256,192,271734,1,0,0:0:0:0:
256,192,271809,1,8,0:0:0:0:
256,192,271884,1,0,0:0:0:0:
256,192,271959,1,0,0:0:0:0:
256,192,272034,1,0,0:0:0:0:
256,192,272109,1,8,0:0:0:0:
256,192,272184,1,8,0:0:0:0:
256,192,272259,1,0,0:0:0:0:
256,192,272334,1,0,0:0:0:0:
256,192,272409,1,8,0:0:0:0:
256,192,272484,1,0,0:0:0:0:
256,192,272559,1,8,0:0:0:0:
256,192,272634,1,8,0:0:0:0:
256,192,272709,1,8,0:0:0:0:
256,192,272784,1,8,0:0:0:0:
256,192,272859,1,0,0:0:0:0:
256,192,272934,1,0,0:0:0:0:
256,192,273009,1,8,0:0:0:0:
256,192,273084,1,0,0:0:0:0:
256,192,273159,1,0,0:0:0:0:
256,192,273234,1,0,0:0:0:0:
256,192,273309,1,8,0:0:0:0:
256,192,273384,1,0,0:0:0:0:
256,192,273459,1,8,0:0:0:0:
256,192,273534,1,8,0:0:0:0:
256,192,273609,1,8,0:0:0:0:
256,192,273684,1,8,0:0:0:0:
256,192,273759,1,0,0:0:0:0:
256,192,273834,1,8,0:0:0:0:
256,192,273909,1,0,0:0:0:0:
256,192,273984,1,0,0:0:0:0:
256,192,274059,1,8,0:0:0:0:
256,192,274134,1,0,0:0:0:0:
256,192,274209,1,0,0:0:0:0:
256,192,274284,1,0,0:0:0:0:
256,192,274359,1,8,0:0:0:0:
256,192,274434,1,8,0:0:0:0:
256,192,274509,1,8,0:0:0:0:
256,192,274584,1,8,0:0:0:0:
256,192,274659,1,0,0:0:0:0:
256,192,274809,1,0,0:0:0:0:
256,192,274959,1,8,0:0:0:0:
256,192,275034,1,0,0:0:0:0:
256,192,275109,1,0,0:0:0:0:
256,192,275184,1,0,0:0:0:0:
256,192,275259,1,8,0:0:0:0:
256,192,275334,1,8,0:0:0:0:
256,192,275409,1,0,0:0:0:0:
256,192,275484,1,0,0:0:0:0:
256,192,275559,1,0,0:0:0:0:
256,192,275634,1,0,0:0:0:0:
256,192,275709,1,8,0:0:0:0:
256,192,275784,1,0,0:0:0:0:
256,192,275859,1,8,0:0:0:0:
256,192,275934,1,8,0:0:0:0:
256,192,276009,1,0,0:0:0:0:
256,192,276084,1,0,0:0:0:0:
256,192,276159,1,8,0:0:0:0:
256,192,276234,1,0,0:0:0:0:
256,192,276309,1,0,0:0:0:0:
256,192,276384,1,0,0:0:0:0:
256,192,276459,1,8,0:0:0:0:
256,192,276534,1,8,0:0:0:0:
256,192,276609,1,8,0:0:0:0:
256,192,276684,1,8,0:0:0:0:
256,192,276759,1,0,0:0:0:0:
256,192,276834,1,0,0:0:0:0:
256,192,276909,1,8,0:0:0:0:
256,192,276984,1,0,0:0:0:0:
256,192,277059,1,0,0:0:0:0:
256,192,277134,1,0,0:0:0:0:
256,192,277209,1,8,0:0:0:0:
256,192,277284,1,0,0:0:0:0:
256,192,277359,1,8,0:0:0:0:
256,192,277434,1,8,0:0:0:0:
256,192,277509,1,8,0:0:0:0:
256,192,277584,1,8,0:0:0:0:
256,192,277659,1,0,0:0:0:0:
256,192,277734,1,0,0:0:0:0:
256,192,277809,1,8,0:0:0:0:
256,192,277884,1,0,0:0:0:0:
256,192,277959,1,0,0:0:0:0:
256,192,278034,1,0,0:0:0:0:
256,192,278109,1,8,0:0:0:0:
256,192,278184,1,8,0:0:0:0:
256,192,278259,1,0,0:0:0:0:
256,192,278334,1,0,0:0:0:0:
256,192,278409,1,0,0:0:0:0:
256,192,278484,1,0,0:0:0:0:
256,192,278559,1,8,0:0:0:0:
256,192,278634,1,0,0:0:0:0:
256,192,278709,1,0,0:0:0:0:
256,192,278784,1,0,0:0:0:0:
256,192,278859,1,8,0:0:0:0:
256,192,278934,1,8,0:0:0:0:
256,192,279009,1,0,0:0:0:0:
256,192,279084,1,8,0:0:0:0:
256,192,279159,1,0,0:0:0:0:
256,192,279234,1,0,0:0:0:0:
256,192,279309,1,8,0:0:0:0:
256,192,279384,1,0,0:0:0:0:
256,192,279459,1,8,0:0:0:0:
256,192,279534,1,8,0:0:0:0:
256,192,279609,1,8,0:0:0:0:
256,192,279684,1,8,0:0:0:0:
256,192,279759,1,0,0:0:0:0:
256,192,279909,1,0,0:0:0:0:
256,192,279984,1,0,0:0:0:0:
256,192,280059,1,8,0:0:0:0:
256,192,280209,1,8,0:0:0:0:
256,192,280359,1,0,0:0:0:0:
256,192,280434,1,0,0:0:0:0:
256,192,280509,1,0,0:0:0:0:
256,192,280584,1,0,0:0:0:0:
256,192,280659,1,8,0:0:0:0:
256,192,280809,1,8,0:0:0:0:
256,192,280884,1,8,0:0:0:0:
256,192,280959,1,0,0:0:0:0:
256,192,281109,1,0,0:0:0:0:
256,192,281259,1,8,0:0:0:0:
256,192,281334,1,0,0:0:0:0:
256,192,281409,1,8,0:0:0:0:
256,192,281484,1,8,0:0:0:0:
256,192,281559,1,0,0:0:0:0:
256,192,281709,1,0,0:0:0:0:
256,192,281784,1,0,0:0:0:0:
256,192,281859,1,8,0:0:0:0:
256,192,282009,1,8,0:0:0:0:
256,192,282159,1,0,0:0:0:0:
256,192,282234,1,8,0:0:0:0:
256,192,282309,1,0,0:0:0:0:
256,192,282384,1,0,0:0:0:0:
256,192,282459,1,8,0:0:0:0:
256,192,282609,1,8,0:0:0:0:
256,192,282684,1,8,0:0:0:0:
256,192,282759,1,0,0:0:0:0:
256,192,282909,1,0,0:0:0:0:
256,192,283059,1,8,0:0:0:0:
256,192,283134,1,8,0:0:0:0:
256,192,283209,1,8,0:0:0:0:
256,192,283284,1,8,0:0:0:0:
256,192,283359,1,0,0:0:0:0:
256,192,283509,1,0,0:0:0:0:
256,192,283584,1,0,0:0:0:0:
256,192,283659,1,8,0:0:0:0:
256,192,283809,1,8,0:0:0:0:
256,192,283959,1,0,0:0:0:0:
256,192,284034,1,0,0:0:0:0:
256,192,284109,1,8,0:0:0:0:
256,192,284184,1,0,0:0:0:0:
256,192,284259,1,8,0:0:0:0:
256,192,284334,1,8,0:0:0:0:
256,192,284409,1,0,0:0:0:0:
256,192,284484,1,0,0:0:0:0:
256,192,284559,1,8,0:0:0:0:
256,192,284709,1,0,0:0:0:0:
256,192,284859,1,8,0:0:0:0:
256,192,284934,1,8,0:0:0:0:
256,192,285009,1,0,0:0:0:0:
256,192,285159,1,8,0:0:0:0:
256,192,285309,1,0,0:0:0:0:
256,192,285384,1,0,0:0:0:0:
256,192,285459,1,8,0:0:0:0:
256,192,285534,1,8,0:0:0:0:
256,192,285609,1,0,0:0:0:0:
256,192,285684,1,8,0:0:0:0:
256,192,285759,1,0,0:0:0:0:
256,192,285909,1,0,0:0:0:0:
256,192,286059,1,8,0:0:0:0:
256,192,286134,1,8,0:0:0:0:
256,192,286209,1,0,0:0:0:0:
256,192,286284,1,0,0:0:0:0:
256,192,286359,1,8,0:0:0:0:
256,192,286509,1,0,0:0:0:0:
256,192,286584,1,0,0:0:0:0:
256,192,286659,1,8,0:0:0:0:
256,192,286734,1,0,0:0:0:0:
256,192,286809,1,8,0:0:0:0:
256,192,286884,1,8,0:0:0:0:
256,192,286959,1,0,0:0:0:0:
256,192,287109,1,0,0:0:0:0:
256,192,287259,1,8,0:0:0:0:
256,192,287334,1,8,0:0:0:0:
256,192,287409,1,8,0:0:0:0:
256,192,287559,1,0,0:0:0:0:
256,192,287634,1,0,0:0:0:0:
256,192,287709,1,0,0:0:0:0:
256,192,287859,1,8,0:0:0:0:
256,192,288009,1,0,0:0:0:0:
256,192,288084,1,0,0:0:0:0:
256,192,288159,1,8,0:0:0:0:
256,192,288309,1,0,0:0:0:0:
256,192,288459,1,8,0:0:0:0:
256,192,288609,1,0,0:0:0:0:
256,192,288759,1,8,0:0:0:0:
256,192,288834,1,8,0:0:0:0:
256,192,288909,1,0,0:0:0:0:
256,192,288984,1,0,0:0:0:0:
256,192,289059,1,8,0:0:0:0:
256,192,289134,1,8,0:0:0:0:
256,192,289209,1,0,0:0:0:0:
256,192,289359,1,12,0:0:0:0:
256,192,289659,1,0,0:0:0:0:
256,192,289809,1,8,0:0:0:0:
256,192,289884,1,8,0:0:0:0:
256,192,289959,1,0,0:0:0:0:
256,192,290109,1,8,0:0:0:0:
256,192,290184,1,8,0:0:0:0:
256,192,290259,1,8,0:0:0:0:
256,192,290409,1,0,0:0:0:0:
256,192,290559,1,8,0:0:0:0:
256,192,290634,1,0,0:0:0:0:
256,192,290709,1,8,0:0:0:0:
256,192,290784,1,8,0:0:0:0:
256,192,290859,1,0,0:0:0:0:
256,192,291009,1,8,0:0:0:0:
256,192,291084,1,8,0:0:0:0:
256,192,291159,1,0,0:0:0:0:
256,192,291234,1,0,0:0:0:0:
256,192,291309,1,8,0:0:0:0:
256,192,291384,1,0,0:0:0:0:
256,192,291459,1,8,0:0:0:0:
256,192,291609,1,0,0:0:0:0:
256,192,291759,1,8,0:0:0:0:
256,192,291834,1,8,0:0:0:0:
256,192,291909,1,0,0:0:0:0:
256,192,291984,1,0,0:0:0:0:
256,192,292059,1,8,0:0:0:0:
256,192,292209,1,8,0:0:0:0:
256,192,292359,1,0,0:0:0:0:
256,192,292509,1,8,0:0:0:0:
256,192,292584,1,0,0:0:0:0:
256,192,292659,1,8,0:0:0:0:
256,192,292734,1,8,0:0:0:0:
256,192,292809,1,0,0:0:0:0:
256,192,292884,1,0,0:0:0:0:
256,192,292959,1,8,0:0:0:0:
256,192,293109,1,8,0:0:0:0:
256,192,293259,1,0,0:0:0:0:
256,192,293334,1,0,0:0:0:0:
256,192,293409,1,8,0:0:0:0:
256,192,293484,1,0,0:0:0:0:
256,192,293559,1,0,0:0:0:0:
256,192,293709,1,8,0:0:0:0:
256,192,293784,1,8,0:0:0:0:
256,192,293859,1,0,0:0:0:0:
256,192,294009,1,0,0:0:0:0:
256,192,294159,1,8,0:0:0:0:
256,192,294234,1,8,0:0:0:0:
256,192,294309,1,8,0:0:0:0:
256,192,294459,1,0,0:0:0:0:
256,192,294609,1,8,0:0:0:0:
256,192,294684,1,8,0:0:0:0:
256,192,294759,1,0,0:0:0:0:
256,192,294909,1,8,0:0:0:0:
256,192,294984,1,8,0:0:0:0:
256,192,295059,1,0,0:0:0:0:
256,192,295134,1,8,0:0:0:0:
256,192,295209,1,0,0:0:0:0:
256,192,295284,1,0,0:0:0:0:
256,192,295359,1,8,0:0:0:0:
256,192,295509,1,0,0:0:0:0:
256,192,295659,1,8,0:0:0:0:
256,192,295734,1,0,0:0:0:0:
256,192,295809,1,8,0:0:0:0:
256,192,295884,1,8,0:0:0:0:
256,192,295959,1,0,0:0:0:0:
256,192,296109,1,8,0:0:0:0:
256,192,296259,1,0,0:0:0:0:
256,192,296334,1,8,0:0:0:0:
256,192,296409,1,0,0:0:0:0:
256,192,296484,1,0,0:0:0:0:
256,192,296559,1,8,0:0:0:0:
256,192,296709,1,0,0:0:0:0:
256,192,296784,1,0,0:0:0:0:
256,192,296859,1,8,0:0:0:0:
256,192,297009,1,8,0:0:0:0:
256,192,297159,1,0,0:0:0:0:
256,192,297234,1,0,0:0:0:0:
256,192,297309,1,8,0:0:0:0:
256,192,297384,1,8,0:0:0:0:
256,192,297459,1,0,0:0:0:0:
256,192,297534,1,8,0:0:0:0:
256,192,297609,1,0,0:0:0:0:
256,192,297759,1,8,0:0:0:0:
256,192,297909,1,0,0:0:0:0:
256,192,297984,1,0,0:0:0:0:
256,192,298059,1,8,0:0:0:0:
256,192,298134,1,0,0:0:0:0:
256,192,298209,1,8,0:0:0:0:
256,192,298359,1,0,0:0:0:0:
256,192,298434,1,0,0:0:0:0:
256,192,298509,1,8,0:0:0:0:
256,192,298584,1,8,0:0:0:0:
256,192,298659,1,8,0:0:0:0:
256,192,298734,1,8,0:0:0:0:
256,192,298809,1,0,0:0:0:0:
256,192,298959,1,12,0:0:0:0:
256,192,299259,1,0,0:0:0:0:
256,192,299409,1,8,0:0:0:0:
256,192,299484,1,8,0:0:0:0:
256,192,299559,1,0,0:0:0:0:
256,192,299709,1,8,0:0:0:0:
256,192,299784,1,8,0:0:0:0:
256,192,299859,1,8,0:0:0:0:
256,192,300009,1,0,0:0:0:0:
256,192,300159,1,8,0:0:0:0:
256,192,300234,1,0,0:0:0:0:
256,192,300309,1,8,0:0:0:0:
256,192,300384,1,8,0:0:0:0:
256,192,300459,1,0,0:0:0:0:
256,192,300609,1,8,0:0:0:0:
256,192,300759,1,0,0:0:0:0:
256,192,300834,1,0,0:0:0:0:
256,192,300909,1,8,0:0:0:0:
256,192,300984,1,0,0:0:0:0:
256,192,301059,1,8,0:0:0:0:
256,192,301209,1,0,0:0:0:0:
256,192,301284,1,0,0:0:0:0:
256,192,301359,1,8,0:0:0:0:
256,192,301434,1,8,0:0:0:0:
256,192,301509,1,0,0:0:0:0:
256,192,301584,1,0,0:0:0:0:
256,192,301659,1,8,0:0:0:0:
256,192,301809,1,8,0:0:0:0:
256,192,301959,1,0,0:0:0:0:
256,192,302109,1,8,0:0:0:0:
256,192,302184,1,8,0:0:0:0:
256,192,302259,1,0,0:0:0:0:
256,192,302334,1,8,0:0:0:0:
256,192,302409,1,0,0:0:0:0:
256,192,302484,1,0,0:0:0:0:
256,192,302559,1,8,0:0:0:0:
256,192,302709,1,8,0:0:0:0:
256,192,302859,1,0,0:0:0:0:
256,192,302934,1,0,0:0:0:0:
256,192,303009,1,8,0:0:0:0:
256,192,303084,1,8,0:0:0:0:
256,192,303159,1,0,0:0:0:0:
256,192,303309,1,8,0:0:0:0:
256,192,303384,1,0,0:0:0:0:
256,192,303459,1,8,0:0:0:0:
256,192,303534,1,8,0:0:0:0:
256,192,303609,1,0,0:0:0:0:
256,192,303684,1,0,0:0:0:0:
256,192,303759,1,8,0:0:0:0:
256,192,303909,1,8,0:0:0:0:
256,192,304059,1,0,0:0:0:0:
256,192,304209,1,8,0:0:0:0:
256,192,304284,1,8,0:0:0:0:
256,192,304359,1,0,0:0:0:0:
256,192,304509,1,8,0:0:0:0:
256,192,304584,1,8,0:0:0:0:
256,192,304659,1,0,0:0:0:0:
256,192,304734,1,8,0:0:0:0:
256,192,304809,1,0,0:0:0:0:
256,192,304884,1,0,0:0:0:0:
256,192,304959,1,8,0:0:0:0:
256,192,305109,1,0,0:0:0:0:
256,192,305259,1,8,0:0:0:0:
256,192,305334,1,0,0:0:0:0:
256,192,305409,1,8,0:0:0:0:
256,192,305484,1,8,0:0:0:0:
256,192,305559,1,0,0:0:0:0:
256,192,305709,1,8,0:0:0:0:
256,192,305859,1,0,0:0:0:0:
256,192,305934,1,8,0:0:0:0:
256,192,306009,1,0,0:0:0:0:
256,192,306084,1,0,0:0:0:0:
256,192,306159,1,8,0:0:0:0:
256,192,306309,1,0,0:0:0:0:
256,192,306384,1,0,0:0:0:0:
256,192,306459,1,8,0:0:0:0:
256,192,306609,1,8,0:0:0:0:
256,192,306759,1,0,0:0:0:0:
256,192,306834,1,0,0:0:0:0:
256,192,306909,1,8,0:0:0:0:
256,192,306984,1,8,0:0:0:0:
256,192,307059,1,0,0:0:0:0:
256,192,307134,1,8,0:0:0:0:
256,192,307209,1,0,0:0:0:0:
256,192,307359,1,8,0:0:0:0:
256,192,307509,1,0,0:0:0:0:
256,192,307584,1,0,0:0:0:0:
256,192,307659,1,8,0:0:0:0:
256,192,307809,1,8,0:0:0:0:
256,192,307959,1,0,0:0:0:0:
256,192,308034,1,8,0:0:0:0:
256,192,308109,1,0,0:0:0:0:
256,192,308184,1,0,0:0:0:0:
256,192,308259,1,8,0:0:0:0:
256,192,308334,1,8,0:0:0:0:
256,192,308409,1,0,0:0:0:0:
256,192,308559,1,8,0:0:0:0:
256,192,308634,1,0,0:0:0:0:
256,192,308709,1,0,0:0:0:0:
256,192,308784,1,0,0:0:0:0:
256,192,308859,1,8,0:0:0:0:
256,192,308934,1,8,0:0:0:0:
256,192,309009,1,8,0:0:0:0:
256,192,309084,1,8,0:0:0:0:
256,192,309159,1,0,0:0:0:0:
256,192,309309,1,0,0:0:0:0:
256,192,309384,1,0,0:0:0:0:
256,192,309459,1,8,0:0:0:0:
256,192,309534,1,0,0:0:0:0:
256,192,309609,1,8,0:0:0:0:
256,192,309684,1,8,0:0:0:0:
256,192,309759,1,0,0:0:0:0:
256,192,309909,1,0,0:0:0:0:
256,192,309984,1,0,0:0:0:0:
256,192,310059,1,8,0:0:0:0:
256,192,310134,1,8,0:0:0:0:
256,192,310209,1,8,0:0:0:0:
256,192,310284,1,8,0:0:0:0:
256,192,310359,1,0,0:0:0:0:
256,192,310509,1,0,0:0:0:0:
256,192,310659,1,8,0:0:0:0:
256,192,310734,1,0,0:0:0:0:
256,192,310809,1,0,0:0:0:0:
256,192,310884,1,0,0:0:0:0:
256,192,310959,1,8,0:0:0:0:
256,192,311109,1,0,0:0:0:0:
256,192,311184,1,0,0:0:0:0:
256,192,311259,1,8,0:0:0:0:
256,192,311334,1,8,0:0:0:0:
256,192,311409,1,0,0:0:0:0:
256,192,311559,1,8,0:0:0:0:
256,192,311634,1,8,0:0:0:0:
256,192,311709,1,0,0:0:0:0:
256,192,311784,1,0,0:0:0:0:
256,192,311859,1,8,0:0:0:0:
256,192,311934,1,0,0:0:0:0:
256,192,312009,1,8,0:0:0:0:
256,192,312084,1,8,0:0:0:0:
256,192,312159,1,0,0:0:0:0:
256,192,312309,1,0,0:0:0:0:
256,192,312459,1,8,0:0:0:0:
256,192,312534,1,8,0:0:0:0:
256,192,312609,1,8,0:0:0:0:
256,192,312759,1,0,0:0:0:0:
256,192,312909,1,0,0:0:0:0:
256,192,313059,1,8,0:0:0:0:
256,192,313134,1,8,0:0:0:0:
256,192,313209,1,0,0:0:0:0:
256,192,313284,1,0,0:0:0:0:
256,192,313359,1,8,0:0:0:0:
256,192,313509,1,0,0:0:0:0:
256,192,313659,1,8,0:0:0:0:
256,192,313734,1,0,0:0:0:0:
256,192,313809,1,8,0:0:0:0:
256,192,313884,1,8,0:0:0:0:
256,192,313959,1,0,0:0:0:0:
256,192,314109,1,0,0:0:0:0:
256,192,314184,1,0,0:0:0:0:
256,192,314259,1,8,0:0:0:0:
256,192,314409,1,0,0:0:0:0:
256,192,314484,1,8,0:0:0:0:
256,192,314559,1,0,0:0:0:0:
256,192,314709,1,8,0:0:0:0:
256,192,314859,1,0,0:0:0:0:
256,192,314934,1,0,0:0:0:0:
256,192,315009,1,8,0:0:0:0:
256,192,315084,1,0,0:0:0:0:
256,192,315159,1,8,0:0:0:0:
256,192,315309,1,0,0:0:0:0:
256,192,315384,1,0,0:0:0:0:
256,192,315459,1,8,0:0:0:0:
256,192,315609,1,8,0:0:0:0:
256,192,315759,1,0,0:0:0:0:
256,192,315834,1,0,0:0:0:0:
256,192,315909,1,0,0:0:0:0:
256,192,316059,1,8,0:0:0:0:
256,192,316209,1,0,0:0:0:0:
256,192,316284,1,8,0:0:0:0:
256,192,316359,1,0,0:0:0:0:
256,192,316509,1,0,0:0:0:0:
256,192,316659,1,8,0:0:0:0:
256,192,316734,1,8,0:0:0:0:
256,192,316809,1,0,0:0:0:0:
256,192,316884,1,0,0:0:0:0:
256,192,316959,1,8,0:0:0:0:
256,192,317109,1,0,0:0:0:0:
256,192,317184,1,0,0:0:0:0:
256,192,317259,1,8,0:0:0:0:
256,192,317409,1,8,0:0:0:0:
256,192,317484,1,8,0:0:0:0:
256,192,317559,1,0,0:0:0:0:
256,192,317634,1,8,0:0:0:0:
256,192,317709,1,0,0:0:0:0:
256,192,317784,1,0,0:0:0:0:
256,192,317859,1,8,0:0:0:0:
256,192,318009,1,8,0:0:0:0:
256,192,318159,1,4,0:0:0:0:
256,192,318459,1,8,0:0:0:0:
256,192,318609,1,0,0:0:0:0:
256,192,318684,1,0,0:0:0:0:
256,192,318759,1,8,0:0:0:0:
256,192,318909,1,0,0:0:0:0:
256,192,319059,1,8,0:0:0:0:
256,192,319209,1,8,0:0:0:0:
256,192,319284,1,8,0:0:0:0:
256,192,319359,1,0,0:0:0:0:
256,192,319434,1,0,0:0:0:0:
256,192,319509,1,8,0:0:0:0:
256,192,319584,1,0,0:0:0:0:
256,192,319659,1,8,0:0:0:0:
256,192,319809,1,0,0:0:0:0:
256,192,319884,1,0,0:0:0:0:
256,192,319959,1,8,0:0:0:0:
256,192,320034,1,8,0:0:0:0:
256,192,320109,1,0,0:0:0:0:
256,192,320259,1,8,0:0:0:0:
256,192,320409,1,8,0:0:0:0:
256,192,320559,1,0,0:0:0:0:
256,192,320709,1,0,0:0:0:0:
256,192,320784,1,0,0:0:0:0:
256,192,320859,1,8,0:0:0:0:
256,192,321009,1,8,0:0:0:0:
256,192,321159,1,0,0:0:0:0:
256,192,321234,1,0,0:0:0:0:
256,192,321309,1,8,0:0:0:0:
256,192,321384,1,0,0:0:0:0:
256,192,321459,1,8,0:0:0:0:
256,192,321609,1,0,0:0:0:0:
256,192,321759,1,8,0:0:0:0:
256,192,321834,1,8,0:0:0:0:
256,192,321909,1,0,0:0:0:0:
256,192,321984,1,0,0:0:0:0:
256,192,322059,1,8,0:0:0:0:
256,192,322209,1,8,0:0:0:0:
256,192,322359,1,0,0:0:0:0:
256,192,322434,1,0,0:0:0:0:
256,192,322509,1,0,0:0:0:0:
256,192,322659,1,8,0:0:0:0:
256,192,322809,1,0,0:0:0:0:
256,192,322884,1,0,0:0:0:0:
256,192,322959,1,8,0:0:0:0:
256,192,323034,1,8,0:0:0:0:
256,192,323109,1,0,0:0:0:0:
256,192,323184,1,0,0:0:0:0:
256,192,323259,1,8,0:0:0:0:
256,192,323409,1,8,0:0:0:0:
256,192,323559,1,0,0:0:0:0:
256,192,323634,1,8,0:0:0:0:
256,192,323709,1,0,0:0:0:0:
256,192,323784,1,0,0:0:0:0:
256,192,323859,1,8,0:0:0:0:
256,192,324009,1,8,0:0:0:0:
256,192,324159,1,0,0:0:0:0:
256,192,324309,1,8,0:0:0:0:
256,192,324384,1,0,0:0:0:0:
256,192,324459,1,8,0:0:0:0:
256,192,324534,1,8,0:0:0:0:
256,192,324609,1,0,0:0:0:0:
256,192,324684,1,8,0:0:0:0:
256,192,324759,1,0,0:0:0:0:
256,192,324909,1,0,0:0:0:0:
256,192,325059,1,8,0:0:0:0:
256,192,325134,1,8,0:0:0:0:
256,192,325209,1,8,0:0:0:0:
256,192,325359,1,0,0:0:0:0:
256,192,325509,1,0,0:0:0:0:
256,192,325659,1,8,0:0:0:0:
256,192,325809,1,8,0:0:0:0:
256,192,325959,1,0,0:0:0:0:
256,192,326109,1,0,0:0:0:0:
256,192,326259,1,8,0:0:0:0:
256,192,326409,1,0,0:0:0:0:
256,192,326559,1,8,0:0:0:0:
256,192,326709,1,8,0:0:0:0:
256,192,326859,1,0,0:0:0:0:
256,192,327009,1,8,0:0:0:0:
256,192,327309,1,8,0:0:0:0:
256,192,327609,1,0,0:0:0:0:
