osu file format v14

[General]
AudioFilename: audio.mp3
AudioLeadIn: 0
PreviewTime: 269045
Countdown: 0
SampleSet: Normal
StackLeniency: 0.7
Mode: 1
LetterboxInBreaks: 0
WidescreenStoryboard: 0

[Editor]
DistanceSpacing: 0.8
BeatDivisor: 4
GridSize: 16
TimelineZoom: 5.199997

[Metadata]
Title:#1208
TitleUnicode:#1208
Artist:Null Specification
ArtistUnicode:Null Specification
Creator:Haypzeh
Version:Inner Oni
Source:ハッピーシュガーライフ
Tags:japanese electronic jaycore jcore j-core frenchcore hardcore remix bootleg anime happy sugar life ナナヲアカリ Nanawo Akari ワンルームシュガーライフ One Room Sugar Life ReoNa カナリア Canaria 松坂 さとう Matsuzaka Satō Satou 花澤 香菜 Hanazawa Kana 神戸 しお Kōbe Shio 久野 美咲 Kuno Misaki
BeatmapID:4158362
BeatmapSetID:2000180

[Difficulty]
HPDrainRate:6.2
CircleSize:5
OverallDifficulty:7.2
ApproachRate:5
SliderMultiplier:1.4
SliderTickRate:1

[Events]
//Background and Video events
0,0,"bg censored.png",0,0
//Break Periods
2,228816,236559
//Storyboard Layer 0 (Background)
//Storyboard Layer 1 (Fail)
//Storyboard Layer 2 (Pass)
//Storyboard Layer 3 (Foreground)
//Storyboard Layer 4 (Overlay)
//Storyboard Sound Samples

[TimingPoints]
46,285.714285714286,4,1,0,80,1,8
18331,285.714285714286,4,1,0,80,1,0
18331,-125,4,1,0,70,0,0
36616,-111.111111111111,4,1,0,80,0,0
52902,-111.111111111111,4,1,0,90,0,0
52973,-110.00699790063,4,1,0,90,0,0
53045,-108.9095191908,4,1,0,90,0,0
53116,-107.848518111965,4,1,0,90,0,0
53188,-106.79347826087,4,1,0,90,0,0
53259,-105.773112636254,4,1,0,90,0,0
53331,-104.758096761295,4,1,0,90,0,0
53402,-103.776076049644,4,1,0,90,0,0
53473,-102.812295618051,4,1,0,90,0,0
53545,-101.85305170403,4,1,0,90,0,0
53616,-100.924499229584,4,1,0,90,0,0
53688,-100,4,1,0,90,0,0
53759,-86.95652173913,4,1,0,90,0,0
54902,-100,4,1,0,90,0,0
64045,-90.909090909091,4,1,0,90,0,0
64331,-100,4,1,0,90,0,0
72045,-90.909090909091,4,1,0,90,0,0
72331,-100,4,1,0,90,0,0
73188,-100,4,1,0,90,0,0
73331,-97.556808474287,4,1,0,90,0,0
73473,-95.246038365304,4,1,0,90,0,0
73616,-93.027044639948,4,1,0,90,0,0
73759,-90.909090909091,4,1,0,90,0,0
76902,-90.909090909091,4,1,0,90,0,0
77045,-95.238095238095,4,1,0,90,0,0
77188,-100,4,1,0,90,0,0
81187,-90.909090909091,4,1,0,90,0,0
81259,-91.432685385169,4,1,0,90,0,0
81330,-91.95494770716,4,1,0,90,0,0
81473,-93.025148530968,4,1,0,90,0,0
81545,-93.573475235366,4,1,0,90,0,0
81616,-94.120553359684,4,1,0,90,0,0
81688,-94.681908548708,4,1,0,90,0,0
81759,-95.242063161403,4,1,0,90,0,0
81830,-95.808885163453,4,1,0,90,0,0
81902,-96.390622364648,4,1,0,90,0,0
81973,-96.971239501145,4,1,0,90,0,0
82044,-97.558893820417,4,1,0,90,0,0
82188,-98.772900103699,4,1,0,90,0,0
82330,-100,4,1,0,90,0,0
83473,-100,4,1,0,90,0,0
83545,-99.641291351136,4,1,0,90,0,0
83616,-99.290075956908,4,1,0,90,0,0
83759,-98.590160701962,4,1,0,90,0,0
83830,-98.246303482831,4,1,0,90,0,0
83902,-97.90004405502,4,1,0,90,0,0
84045,-97.219521679953,4,1,0,90,0,0
84117,-96.880449525286,4,1,0,90,0,0
84187,-96.553055904219,4,1,0,90,0,0
84331,-95.886470419024,4,1,0,90,0,0
84403,-95.556617295748,4,1,0,90,0,0
84474,-95.233560306652,4,1,0,90,0,0
84616,-94.593955446247,4,1,0,90,0,0
84688,-94.2729201037,4,1,0,90,0,0
84759,-93.958470356103,4,1,0,90,0,0
84902,-93.331466703999,4,1,0,90,0,0
84974,-93.018929352123,4,1,0,90,0,0
85044,-92.717073849149,4,1,0,90,0,0
85188,-92.102233479162,4,1,0,90,0,0
85260,-91.797861109836,4,1,0,90,0,0
85331,-91.499679751121,4,1,0,90,0,0
85473,-90.909090909091,4,1,0,90,0,0
90331,-83.333333333333,4,1,0,90,0,0
90902,-100,4,1,0,90,0,0
91473,-90.909090909091,4,1,0,90,0,0
91759,-100,4,1,0,90,0,0
91831,-100.174089656173,4,1,0,90,0,0
91902,-100.346355995834,4,1,0,90,0,0
92045,-100.695119580012,4,1,0,90,0,0
92188,-101.046315943514,4,1,0,90,0,0
92331,-101.399970629987,4,1,0,90,0,0
92402,-101.576482702822,4,1,0,90,0,0
92473,-101.7536103743,4,1,0,90,0,0
92545,-101.933864777089,4,1,0,90,0,0
92616,-102.112242131467,4,1,0,90,0,0
92759,-102.473410833539,4,1,0,90,0,0
92902,-102.83714349542,4,1,0,90,0,0
92973,-103.018699025264,4,1,0,90,0,0
93045,-103.203467516939,4,1,0,90,0,0
93188,-103.572410689733,4,1,0,90,0,0
93331,-103.944001204275,4,1,0,90,0,0
93473,-104.315641051465,4,1,0,90,0,0
93616,-104.692593434918,4,1,0,90,0,0
93688,-104.883420672894,4,1,0,90,0,0
93759,-105.072279989855,4,1,0,90,0,0
93902,-105.454730572454,4,1,0,90,0,0
94045,-105.839975475169,4,1,0,90,0,0
94188,-106.228045434732,4,1,0,90,0,0
94259,-106.421782686874,4,1,0,90,0,0
94331,-106.618971640331,4,1,0,90,0,0
94473,-107.010021696456,4,1,0,90,0,0
94616,-107.406735281155,4,1,0,90,0,0
94664,-107.540558079169,4,1,0,90,0,0
94711,-107.671916419772,4,1,0,90,0,0
94759,-107.806401249024,4,1,0,90,0,0
94902,-108.209052681067,4,1,0,90,0,0
95045,-108.614723154362,4,1,0,90,0,0
95188,-109.023446751401,4,1,0,90,0,0
95331,-109.435258069629,4,1,0,90,0,0
95473,-109.847279669106,4,1,0,90,0,0
95545,-110.057379662098,4,1,0,90,0,0
95616,-110.265350118436,4,1,0,90,0,0
95688,-110.477053945228,4,1,0,90,0,0
95759,-110.686615014694,4,1,0,90,0,0
95902,-111.111111111111,4,1,0,90,0,0
96045,-100,4,1,0,90,0,0
96188,-100.457058842331,4,1,0,90,0,0
96331,-100.918314924223,4,1,0,90,0,0
96402,-101.148907411579,4,1,0,90,0,0
96473,-101.380556093155,4,1,0,90,0,0
96616,-101.850351599209,4,1,0,90,0,0
96759,-102.32452142206,4,1,0,90,0,0
96902,-102.803126942073,4,1,0,90,0,0
96973,-103.042423447643,4,1,0,90,0,0
97045,-103.286230693395,4,1,0,90,0,0
97116,-103.527784182615,4,1,0,90,0,0
97188,-103.773896391191,4,1,0,90,0,0
97331,-104.26618895966,4,1,0,90,0,0
97473,-104.759682687821,4,1,0,90,0,0
97545,-105.011693952556,4,1,0,90,0,0
97616,-105.261395224221,4,1,0,90,0,0
97759,-105.767936465204,4,1,0,90,0,0
97902,-106.279376458256,4,1,0,90,0,0
98045,-106.7957866123,4,1,0,90,0,0
98116,-107.054054974624,4,1,0,90,0,0
98188,-107.317239730939,4,1,0,90,0,0
98331,-107.843810046665,4,1,0,90,0,0
98473,-108.371836425074,4,1,0,90,0,0
98616,-108.908832599882,4,1,0,90,0,0
98688,-109.181227637475,4,1,0,90,0,0
98759,-109.451177044157,4,1,0,90,0,0
98902,-109.998950057747,4,1,0,90,0,0
99188,-111.111111111111,4,1,0,90,0,0
99473,-90.909090909091,4,1,0,90,0,0
99616,-100,4,1,0,90,0,0
100616,-90.909090909091,4,1,0,90,0,0
100902,-100,4,1,0,90,0,0
100974,-100.162829616898,4,1,0,90,0,0
101045,-100.32391782001,4,1,0,90,0,0
101188,-100.649940914462,4,1,0,90,0,0
101331,-100.978089874832,4,1,0,90,0,0
101474,-101.308385562011,4,1,0,90,0,0
101545,-101.473182578413,4,1,0,90,0,0
101616,-101.63851661465,4,1,0,90,0,0
101688,-101.806730415594,4,1,0,90,0,0
101759,-101.97315405337,4,1,0,90,0,0
101902,-102.310002310002,4,1,0,90,0,0
102045,-102.649083366167,4,1,0,90,0,0
102116,-102.818274677315,4,1,0,90,0,0
102188,-102.990419495861,4,1,0,90,0,0
102259,-103.160738825612,4,1,0,90,0,0
102331,-103.334033270339,4,1,0,90,0,0
102474,-103.679947563088,4,1,0,90,0,0
102616,-104.02574220218,4,1,0,90,0,0
102688,-104.201957462827,4,1,0,90,0,0
102759,-104.376310890109,4,1,0,90,0,0
102807,-104.494514568833,4,1,0,90,0,0
102854,-104.610515376258,4,1,0,90,0,0
102902,-104.729250413809,4,1,0,90,0,0
103045,-105.084584905213,4,1,0,90,0,0
103188,-105.442338824874,4,1,0,90,0,0
103331,-105.802536967583,4,1,0,90,0,0
103402,-105.982292414453,4,1,0,90,0,0
103474,-106.165204468095,4,1,0,90,0,0
103616,-106.527804502598,4,1,0,90,0,0
103759,-106.895469794608,4,1,0,90,0,0
103831,-107.081550252653,4,1,0,90,0,0
103902,-107.265681763139,4,1,0,90,0,0
104045,-107.638466959924,4,1,0,90,0,0
104116,-107.824520401208,4,1,0,90,0,0
104188,-108.013852307092,4,1,0,90,0,0
104259,-108.201206850219,4,1,0,90,0,0
104331,-108.391865103644,4,1,0,90,0,0
104474,-108.772533032074,4,1,0,90,0,0
104616,-109.153194006309,4,1,0,90,0,0
104688,-109.347224965436,4,1,0,90,0,0
104759,-109.539237751342,4,1,0,90,0,0
104831,-109.734644830406,4,1,0,90,0,0
104902,-109.928021841648,4,1,0,90,0,0
104973,-110.122081603222,4,1,0,90,0,0
105045,-110.319575559818,4,1,0,90,0,0
105188,-110.713928607139,4,1,0,90,0,0
105331,-111.111111111111,4,1,0,90,0,0
105474,-100,4,1,0,90,0,0
105545,-100.226482503429,4,1,0,90,0,0
105616,-100.453993222073,4,1,0,90,0,0
105759,-100.915368556287,4,1,0,90,0,0
105902,-101.381001548787,4,1,0,90,0,0
106045,-101.850951408474,4,1,0,90,0,0
106116,-102.085905516928,4,1,0,90,0,0
106188,-102.325278447209,4,1,0,90,0,0
106259,-102.562428594745,4,1,0,90,0,0
106331,-102.804044105618,4,1,0,90,0,0
106474,-103.287310979619,4,1,0,90,0,0
106616,-103.771715436951,4,1,0,90,0,0
106688,-104.019069059127,4,1,0,90,0,0
106759,-104.264144682263,4,1,0,90,0,0
106902,-104.761269671913,4,1,0,90,0,0
107045,-105.263157894737,4,1,0,90,0,0
107188,-105.769878139096,4,1,0,90,0,0
107259,-106.023283279906,4,1,0,90,0,0
107331,-106.281500524304,4,1,0,90,0,0
107474,-106.798096532971,4,1,0,90,0,0
107616,-107.316073502288,4,1,0,90,0,0
107759,-107.842800755106,4,1,0,90,0,0
107831,-108.109968000551,4,1,0,90,0,0
107902,-108.37472406181,4,1,0,90,0,0
108045,-108.911920690492,4,1,0,90,0,0
108116,-109.180624087845,4,1,0,90,0,0
108188,-109.454469448896,4,1,0,90,0,0
108259,-109.725859961585,4,1,0,90,0,0
108331,-110.002450722963,4,1,0,90,0,0
108402,-110.276568861435,4,1,0,90,0,0
108473,-110.552056577883,4,1,0,90,0,0
108545,-110.832833609651,4,1,0,90,0,0
108616,-111.111111111111,4,1,0,90,0,0
108759,-100,4,1,0,60,0,0
109759,-125,4,1,0,80,0,0
128045,-90.909090909091,4,1,0,80,0,0
128331,-91.691320262749,4,1,0,79,0,0
128616,-92.484321262391,4,1,0,79,0,0
128902,-93.294014407869,4,1,0,78,0,0
129188,-94.118010376349,4,1,0,77,0,0
129473,-94.953733032849,4,1,0,77,0,0
129759,-95.807442026176,4,1,0,76,0,0
130045,-96.676641324691,4,1,0,76,0,0
130331,-97.561756389052,4,1,0,75,0,0
130616,-98.460047383157,4,1,0,74,0,0
130902,-99.378274385339,4,1,0,74,0,0
131188,-100.313789168788,4,1,0,73,0,0
131473,-101.263719832981,4,1,0,73,0,0
131759,-102.235242812895,4,1,0,72,0,0
132045,-103.225587933117,4,1,0,71,0,0
132331,-104.235307530069,4,1,0,71,0,0
132616,-105.261340087497,4,1,0,70,0,0
132902,-106.311481128346,4,1,0,69,0,0
133188,-107.382786808231,4,1,0,69,0,0
133473,-108.472042615288,4,1,0,68,0,0
133759,-109.587563375724,4,1,0,68,0,0
134045,-110.726266455137,4,1,0,67,0,0
134331,-111.888882090192,4,1,0,66,0,0
134616,-113.071976255256,4,1,0,66,0,0
134902,-114.284642883928,4,1,0,65,0,0
135188,-115.523602547256,4,1,0,64,0,0
135473,-116.785244414924,4,1,0,64,0,0
135759,-118.07932223528,4,1,0,63,0,0
136045,-119.402400323874,4,1,0,63,0,0
136331,-120.755464571089,4,1,0,62,0,0
136616,-122.134651349185,4,1,0,61,0,0
136902,-123.550714845545,4,1,0,61,0,0
137045,-124.271132072907,4,1,0,60,0,0
137188,-125,4,1,0,60,0,0
144616,-125,4,1,0,60,0,0
144759,-121.212121212121,4,1,0,65,0,0
144902,-117.647058823529,4,1,0,70,0,0
144973,-115.953780660855,4,1,0,72,0,0
145045,-114.285714285714,4,1,0,75,0,0
145116,-112.687155240347,4,1,0,77,0,0
145188,-111.111111111111,4,1,0,80,0,0
145616,-100,4,1,0,80,0,0
146331,-100,4,1,0,100,0,1
154902,-100,4,1,0,90,0,0
155473,-95.238095238095,4,1,0,100,0,1
164616,-86.95652173913,4,1,0,90,0,0
164759,-95.238095238095,4,1,0,100,0,1
173759,-86.95652173913,4,1,0,90,0,1
174045,-86.95652173913,4,1,0,90,0,0
174188,-87.775120142196,4,1,0,89,0,0
174331,-88.609277391343,4,1,0,89,0,0
174473,-89.453439484748,4,1,0,88,0,0
174616,-90.319958452819,4,1,0,87,0,0
174688,-90.762633023984,4,1,0,87,0,0
174759,-91.20342924894,4,1,0,86,0,0
174831,-91.654827918061,4,1,0,86,0,0
174902,-92.104354233346,4,1,0,86,0,0
175188,-93.960677456484,4,1,0,84,0,0
175331,-94.9171847563,4,1,0,84,0,0
175473,-95.886470419024,4,1,0,83,0,0
175616,-96.882796037494,4,1,0,82,0,0
175759,-97.90004405502,4,1,0,81,0,0
175831,-98.420353329068,4,1,0,81,0,0
175902,-98.938880506567,4,1,0,81,0,0
175973,-99.462900338174,4,1,0,80,0,0
176045,-100,4,1,0,80,0,0
178331,-100,4,1,0,80,0,0
178402,-99.793310238421,4,1,0,80,0,0
178473,-99.587473127651,4,1,0,80,0,0
178545,-99.379602249667,4,1,0,80,0,0
178616,-99.175466512368,4,1,0,80,0,0
178759,-98.766854903769,4,1,0,80,0,0
178902,-98.361596510861,4,1,0,80,0,0
179045,-97.959650225753,4,1,0,80,0,0
179116,-97.761300442036,4,1,0,80,0,0
179188,-97.560975609756,4,1,0,80,0,0
179259,-97.364235401045,4,1,0,80,0,0
179331,-97.165532879819,4,1,0,80,0,0
179473,-96.776014905991,4,1,0,80,0,0
179616,-96.386897230423,4,1,0,80,0,0
179688,-96.192159833881,4,1,0,80,0,0
179759,-96.000896157724,4,1,0,80,0,0
179831,-95.807713806596,4,1,0,80,0,0
179902,-95.61797439402,4,1,0,80,0,0
180045,-95.238095238095,4,1,0,80,0,0
180188,-94.861222569665,4,1,0,80,0,0
180259,-94.675209898365,4,1,0,80,0,0
180331,-94.487320837927,4,1,0,80,0,0
180402,-94.302770212649,4,1,0,80,0,0
180473,-94.11893910274,4,1,0,80,0,0
180616,-93.750854642418,4,1,0,80,0,0
180759,-93.385638008064,4,1,0,80,0,0
180831,-93.202827623709,4,1,0,80,0,0
180902,-93.023255813953,4,1,0,80,0,0
180973,-92.844374627593,4,1,0,80,0,0
181045,-92.663675190571,4,1,0,80,0,0
181188,-92.306863774672,4,1,0,80,0,0
181331,-91.952789699571,4,1,0,80,0,0
181402,-91.777997911702,4,1,0,80,0,0
181473,-91.603869381647,4,1,0,80,0,0
181545,-91.427961807222,4,1,0,80,0,0
181616,-91.255157726607,4,1,0,80,0,0
181759,-90.909090909091,4,1,0,80,0,0
181973,-90.909090909091,4,1,0,80,0,0
182188,-93.759113444153,4,1,0,80,0,0
182402,-96.779048765804,4,1,0,80,0,0
182616,-100,4,1,0,80,0,0
182902,-100,4,1,0,90,0,0
185188,-90.909090909091,4,1,0,90,0,0
185759,-100,4,1,0,90,0,0
187473,-100,4,1,0,100,0,1
187616,-98.360655737705,4,1,0,100,0,1
187759,-96.774193548387,4,1,0,100,0,1
187902,-95.238095238095,4,1,0,100,0,1
187973,-95.238095238095,4,1,0,100,0,0
188188,-92.307692307692,4,1,0,100,0,1
188259,-91.607943625881,4,1,0,100,0,1
188331,-90.909090909091,4,1,0,100,0,1
196331,-90.909090909091,4,1,0,100,0,1
196402,-91.94847020934,4,1,0,100,0,1
196473,-93.01189118749,4,1,0,100,0,1
196616,-95.230153435624,4,1,0,100,0,1
196902,-100,4,1,0,100,0,1
201188,-100,4,1,0,100,0,0
201473,-100,4,1,0,100,0,1
205759,-90.909090909091,4,1,0,90,0,0
206902,-90.909090909091,4,1,0,90,0,0
206973,-91.42537194049,4,1,0,90,0,0
207045,-91.95494770716,4,1,0,90,0,0
207116,-92.483210615746,4,1,0,90,0,0
207188,-93.025148530968,4,1,0,90,0,0
207259,-93.565815324165,4,1,0,90,0,0
207331,-94.120553359684,4,1,0,90,0,0
207402,-94.674066097904,4,1,0,90,0,0
207473,-95.234127645392,4,1,0,90,0,0
207616,-96.38249430812,4,1,0,90,0,0
207759,-97.558893820417,4,1,0,90,0,0
207902,-98.764365333103,4,1,0,90,0,0
208045,-100,4,1,0,90,0,0
208331,-100,4,1,0,90,0,0
208473,-98.049986267509,4,1,0,90,0,0
208545,-97.090019037259,4,1,0,90,0,0
208616,-96.161616161616,4,1,0,90,0,0
208688,-95.238095238095,4,1,0,90,0,0
208759,-94.344608879493,4,1,0,90,0,0
208831,-93.455497382199,4,1,0,90,0,0
208902,-92.594994164181,4,1,0,90,0,0
208973,-91.750192752506,4,1,0,90,0,0
209045,-90.909090909091,4,1,0,90,0,0
209186,-83.333333333333,4,1,0,90,0,0
209759,-90.909090909091,4,1,0,90,0,0
209831,-91.961414790997,4,1,0,90,0,0
209902,-93.023255813953,4,1,0,90,0,0
209973,-94.109904573873,4,1,0,90,0,0
210045,-95.238095238095,4,1,0,90,0,0
210116,-96.377422072452,4,1,0,90,0,0
210188,-97.560975609756,4,1,0,90,0,0
210331,-100,4,1,0,80,0,0
219473,-90.909090909091,4,1,0,80,0,0
219759,-100,4,1,0,80,0,0
223760,-100,4,1,0,80,0,0
223831,-97.569325573434,4,1,0,80,0,0
223902,-95.254010695187,4,1,0,80,0,0
224045,-90.909090909091,4,1,0,80,0,0
226902,-90.909090909091,4,1,0,80,0,0
226973,-91.598973920479,4,1,0,79,0,0
227045,-92.309349418354,4,1,0,79,0,0
227188,-93.753418663166,4,1,0,77,0,0
227331,-95.243387419427,4,1,0,76,0,0
227473,-96.770551038844,4,1,0,75,0,0
227545,-97.563752276867,4,1,0,74,0,0
227616,-98.35877424538,4,1,0,74,0,0
227759,-100,4,1,0,73,0,0
227902,-101.696926545627,4,1,0,71,0,0
228045,-103.452438435538,4,1,0,70,0,0
228188,-105.26962289645,4,1,0,69,0,0
228331,-107.151787946987,4,1,0,67,0,0
228473,-109.088594704684,4,1,0,66,0,0
228616,-111.111111111111,4,1,0,65,0,0
228759,-100,4,1,0,60,0,0
230331,-142.857142857143,4,1,0,60,0,0
231045,-166.666666666667,4,1,0,60,0,0
237759,-125,4,1,0,75,0,0
246902,-90.9090909090909,4,1,0,90,0,0
247188,-100,4,1,0,90,0,0
269473,-100,4,1,0,90,0,0
269616,-100,4,1,0,90,0,0
269759,-90.9090909090909,4,1,0,100,0,1
269831,-125,4,1,0,100,0,1
278902,-125,4,1,0,100,0,1
279331,-124.16768846327,4,1,0,100,0,1
279474,-123.89270891408,4,1,0,100,0,1
279759,-123.348289313413,4,1,0,100,0,1
279902,-123.076923076923,4,1,0,100,0,1
280473,-122.005154717787,4,1,0,100,0,1
280617,-121.737807197748,4,1,0,100,0,1
280902,-121.212121212121,4,1,0,100,0,1
281188,-120.689134960625,4,1,0,100,0,1
281474,-120.170642312083,4,1,0,100,0,1
281760,-119.65658559933,4,1,0,100,0,1
282046,-119.146908137734,4,1,0,100,0,1
282331,-118.643313707752,4,1,0,100,0,1
282617,-118.142213689729,4,1,0,100,0,1
282759,-117.894985042074,4,1,0,100,0,1
282903,-117.645328745166,4,1,0,100,0,1
283189,-117.152605913278,4,1,0,100,0,1
283331,-116.909497435298,4,1,0,100,0,1
283473,-116.667395837891,4,1,0,100,0,1
283760,-116.18112637602,4,1,0,100,0,1
284046,-115.700566932778,4,1,0,100,0,1
284332,-115.22396658505,4,1,0,100,0,1
284616,-114.754568666265,4,1,0,100,0,1
284903,-114.284081655976,4,1,0,100,0,1
285189,-113.819056155477,4,1,0,100,0,1
285474,-113.359405996713,4,1,0,100,0,1
285759,-112.903453434382,4,1,0,100,0,1
285903,-112.674469373671,4,1,0,100,0,1
286046,-112.447992803328,4,1,0,100,0,1
286189,-112.222424846045,4,1,0,100,0,1
286332,-111.997760044799,4,1,0,100,0,1
286474,-111.77555468619,4,1,0,100,0,1
286617,-111.55267377815,4,1,0,100,0,1
286760,-111.330679952128,4,1,0,100,0,1
286902,-111.111111111111,4,1,0,100,0,1
288045,-100,4,1,0,90,0,0
288331,-111.111111111111,4,1,0,100,0,0
299473,-99.9999999999999,4,1,0,80,0,0
299759,-125,4,1,0,75,0,0
319902,-125,4,1,0,90,0,0
320045,-100,4,1,0,90,0,1
320188,-111.111111111111,4,1,0,90,0,1
333759,-111.111111111111,4,1,0,90,0,0
333902,-110.615770409585,4,1,0,90,0,0
333973,-110.373161991845,4,1,0,90,0,0
334045,-110.128220934533,4,1,0,90,0,0
334188,-109.64495044036,4,1,0,90,0,0
334331,-109.16590284143,4,1,0,90,0,0
334402,-108.929605804701,4,1,0,90,0,0
334473,-108.694329520565,4,1,0,90,0,0
334545,-108.45677513356,4,1,0,90,0,0
334616,-108.223534756929,4,1,0,90,0,0
334759,-107.756800772061,4,1,0,90,0,0
334901,-107.297297297297,4,1,0,90,0,0
335116,-106.60898105326,4,1,0,90,0,0
335188,-106.380444814958,4,1,0,90,0,0
335331,-105.929439667951,4,1,0,90,0,0
335402,-105.706931747581,4,1,0,90,0,0
335473,-105.48535663675,4,1,0,90,0,0
335616,-105.041893282375,4,1,0,90,0,0
335759,-104.60214298261,4,1,0,90,0,0
335831,-104.382120946538,4,1,0,90,0,0
335902,-104.166059298563,4,1,0,90,0,0
336044,-103.736608309381,4,1,0,90,0,0
336331,-102.879355024475,4,1,0,90,0,0
336473,-102.460426703372,4,1,0,90,0,0
336545,-102.249313186813,4,1,0,90,0,0
336616,-102.041982007711,4,1,0,90,0,0
336759,-101.626941236703,4,1,0,90,0,0
336831,-101.41924496168,4,1,0,90,0,0
336902,-101.21526302371,4,1,0,90,0,0
337045,-100.806906669676,4,1,0,90,0,0
337187,-100.404653515427,4,1,0,90,0,0
337259,-100.20191822312,4,1,0,90,0,0
337331,-100,4,1,0,90,0,0
338045,-100,4,1,0,90,0,0
338116,-97.577618560218,4,1,0,90,0,0
338188,-95.238095238095,4,1,0,90,0,0
338259,-93.038386467144,4,1,0,90,0,0
338331,-90.9090909090909,4,1,0,100,0,1
338473,-95.2380952380952,4,1,0,100,0,1
356616,-90.9090909090909,4,1,0,100,0,1
374902,-100,4,1,0,90,0,0
375045,-100.313789168788,4,1,0,90,0,0
375188,-100.629553809241,4,1,0,89,0,0
375259,-100.787071740377,4,1,0,89,0,0
375331,-100.947312635252,4,1,0,89,0,0
375402,-101.105827712042,4,1,0,89,0,0
375473,-101.26484139642,4,1,0,89,0,0
375616,-101.586631408191,4,1,0,88,0,0
375759,-101.910473048286,4,1,0,88,0,0
375831,-102.074308935828,4,1,0,88,0,0
375902,-102.236386000224,4,1,0,88,0,0
375973,-102.398978586148,4,1,0,88,0,0
376045,-102.564390200126,4,1,0,87,0,0
376188,-102.89450584078,4,1,0,87,0,0
376331,-103.226753375785,4,1,0,87,0,0
376473,-103.558807538963,4,1,0,87,0,0
376545,-103.7279905609,4,1,0,86,0,0
376616,-103.895366014409,4,1,0,86,0,0
376759,-104.234119202882,4,1,0,86,0,0
376831,-104.405517745398,4,1,0,86,0,0
376902,-104.575088642342,4,1,0,86,0,0
376973,-104.745211254697,4,1,0,85,0,0
377045,-104.918296153493,4,1,0,85,0,0
377116,-105.089538171536,4,1,0,85,0,0
377188,-105.263763844436,4,1,0,85,0,0
377331,-105.611514115418,4,1,0,85,0,0
377402,-105.785028346639,4,1,0,85,0,0
377473,-105.959113665863,4,1,0,84,0,0
377616,-106.311481128346,4,1,0,84,0,0
377759,-106.666200009333,4,1,0,84,0,0
377831,-106.84569719067,4,1,0,84,0,0
377902,-107.023293924851,4,1,0,83,0,0
377973,-107.201482037332,4,1,0,83,0,0
378045,-107.382786808231,4,1,0,83,0,0
378188,-107.744702915459,4,1,0,83,0,0
378259,-107.925303366542,4,1,0,83,0,0
378331,-108.10906683063,4,1,0,82,0,0
378473,-108.473329536826,4,1,0,82,0,0
378616,-108.842646603652,4,1,0,82,0,0
378759,-109.21448707535,4,1,0,82,0,0
378831,-109.402670750969,4,1,0,81,0,0
378902,-109.588876902793,4,1,0,81,0,0
378973,-109.775717990587,4,1,0,81,0,0
379045,-109.965842393919,4,1,0,81,0,0
379188,-110.345410219894,4,1,0,81,0,0
379331,-110.727607421402,4,1,0,80,0,0
379402,-110.918354967851,4,1,0,80,0,0
379473,-111.109760839977,4,1,0,80,0,0
379616,-111.497280554133,4,1,0,80,0,0
379759,-111.887512849381,4,1,0,79,0,0
379902,-112.280486307258,4,1,0,79,0,0
379973,-112.476626316307,4,1,0,79,0,0
380045,-112.676229912255,4,1,0,79,0,0
380188,-113.074773058943,4,1,0,78,0,0
380331,-113.476145559251,4,1,0,78,0,0
380402,-113.676488872311,4,1,0,78,0,0
380473,-113.877540852929,4,1,0,78,0,0
380545,-114.082152126173,4,1,0,78,0,0
380616,-114.284642883928,4,1,0,78,0,0
380759,-114.694666064529,4,1,0,77,0,0
380902,-115.107641948886,4,1,0,77,0,0
381045,-115.523602547256,4,1,0,77,0,0
381116,-115.731247310195,4,1,0,76,0,0
381188,-115.942580334272,4,1,0,76,0,0
381331,-116.364608257394,4,1,0,76,0,0
381473,-116.786736153689,4,1,0,76,0,0
381616,-117.214943206584,4,1,0,75,0,0
381688,-117.431734696499,4,1,0,75,0,0
381759,-117.646301919811,4,1,0,75,0,0
381902,-118.080847216841,4,1,0,75,0,0
382045,-118.518614539044,4,1,0,74,0,0
382188,-118.959639855318,4,1,0,74,0,0
382259,-119.179832108035,4,1,0,74,0,0
382331,-119.403959671943,4,1,0,74,0,0
382473,-119.848468959732,4,1,0,73,0,0
382616,-120.299465803531,4,1,0,73,0,0
382759,-120.753869723704,4,1,0,73,0,0
382831,-120.983962314085,4,1,0,73,0,0
382902,-121.21171947501,4,1,0,73,0,0
383045,-121.673054402214,4,1,0,72,0,0
383188,-122.137914451361,4,1,0,72,0,0
383331,-122.606340181301,4,1,0,72,0,0
383402,-122.840252586323,4,1,0,71,0,0
383473,-123.075059228947,4,1,0,71,0,0
383616,-123.550714845545,4,1,0,71,0,0
383759,-124.030061316403,4,1,0,71,0,0
383902,-124.51314176767,4,1,0,70,0,0
384045,-125,4,1,0,70,0,0
388616,-125,4,1,0,70,0,0
388902,-123.965986001041,4,1,0,69,0,0
389188,-122.948938611589,4,1,0,67,0,0
389331,-122.44664743022,4,1,0,67,0,0
389473,-121.951913501209,4,1,0,66,0,0
389759,-120.967514323615,4,1,0,65,0,0
390045,-119.998880085114,4,1,0,63,0,0
390188,-119.52035694367,4,1,0,63,0,0
390331,-119.045635085965,4,1,0,62,0,0
390473,-118.577949923918,4,1,0,61,0,0
390616,-118.110670194004,4,1,0,61,0,0
390902,-117.187072783945,4,1,0,59,0,0
391188,-116.277807921867,4,1,0,58,0,0
391473,-115.385650827837,4,1,0,57,0,0
391616,-114.943145247801,4,1,0,56,0,0
391759,-114.504020731479,4,1,0,55,0,0
392045,-113.635761062651,4,1,0,54,0,0
392188,-113.206550449023,4,1,0,53,0,0
392331,-112.780569955004,4,1,0,53,0,0
392473,-112.360728798008,4,1,0,52,0,0
392616,-111.941078144588,4,1,0,51,0,0
392759,-111.524550493092,4,1,0,51,0,0
392902,-111.111111111111,4,1,0,50,0,0
393188,-100,4,1,0,30,0,0

[HitObjects]
256,192,18331,5,0,0:0:0:0:
256,192,18616,1,0,0:0:0:0:
256,192,18902,1,12,0:0:0:0:
256,192,19331,1,8,0:0:0:0:
256,192,19616,1,8,0:0:0:0:
256,192,19759,1,0,0:0:0:0:
256,192,19902,1,0,0:0:0:0:
256,192,20045,1,12,0:0:0:0:
256,192,20331,1,0,0:0:0:0:
240,192,20473,1,8,0:0:0:0:
256,192,20616,1,0,0:0:0:0:
256,192,20901,1,0,0:0:0:0:
256,192,21187,1,12,0:0:0:0:
256,192,21473,1,0,0:0:0:0:
256,192,21616,1,8,0:0:0:0:
256,192,21902,1,8,0:0:0:0:
256,192,22045,1,8,0:0:0:0:
256,192,22330,1,12,0:0:0:0:
256,192,22473,1,0,0:0:0:0:
256,192,22616,1,8,0:0:0:0:
256,192,22759,1,8,0:0:0:0:
256,192,22902,1,0,0:0:0:0:
256,192,23187,1,0,0:0:0:0:
256,192,23473,1,12,0:0:0:0:
256,192,23902,1,8,0:0:0:0:
256,192,24187,1,8,0:0:0:0:
256,192,24330,1,0,0:0:0:0:
256,192,24473,1,0,0:0:0:0:
256,192,24616,1,12,0:0:0:0:
256,192,24902,1,0,0:0:0:0:
256,192,25045,1,8,0:0:0:0:
256,192,25188,1,0,0:0:0:0:
256,192,25473,1,0,0:0:0:0:
256,192,25759,1,12,0:0:0:0:
256,192,26045,1,0,0:0:0:0:
240,192,26188,1,0,0:0:0:0:
256,192,26473,1,0,0:0:0:0:
256,192,26616,1,8,0:0:0:0:
256,192,26902,1,12,0:0:0:0:
256,192,27045,1,0,0:0:0:0:
256,192,27188,1,8,0:0:0:0:
256,192,27331,1,8,0:0:0:0:
256,192,27473,1,0,0:0:0:0:
256,192,27759,1,0,0:0:0:0:
256,192,28045,1,12,0:0:0:0:
256,192,28331,1,8,0:0:0:0:
256,192,28473,1,8,0:0:0:0:
256,192,28759,1,8,0:0:0:0:
256,192,28902,1,0,0:0:0:0:
256,192,29045,1,0,0:0:0:0:
256,192,29188,1,12,0:0:0:0:
256,192,29473,1,0,0:0:0:0:
256,192,29616,1,8,0:0:0:0:
256,192,29759,1,0,0:0:0:0:
256,192,30045,1,0,0:0:0:0:
256,192,30331,1,12,0:0:0:0:
256,192,30473,1,0,0:0:0:0:
256,192,30759,1,8,0:0:0:0:
256,192,30902,1,0,0:0:0:0:
256,192,31045,1,0,0:0:0:0:
256,192,31188,1,8,0:0:0:0:
256,192,31473,1,12,0:0:0:0:
256,192,31616,1,0,0:0:0:0:
256,192,31759,1,0,0:0:0:0:
256,192,31902,1,8,0:0:0:0:
256,192,32045,1,0,0:0:0:0:
256,192,32331,1,0,0:0:0:0:
256,192,32616,1,12,0:0:0:0:
256,192,32902,1,0,0:0:0:0:
256,192,33045,1,8,0:0:0:0:
256,192,33331,1,8,0:0:0:0:
256,192,33473,1,0,0:0:0:0:
256,192,33616,1,0,0:0:0:0:
256,192,33759,1,12,0:0:0:0:
256,192,34045,1,0,0:0:0:0:
256,192,34188,1,8,0:0:0:0:
256,192,34331,1,0,0:0:0:0:
256,192,34616,1,0,0:0:0:0:
256,192,34902,1,12,0:0:0:0:
256,192,35188,1,0,0:0:0:0:
256,192,35331,1,8,0:0:0:0:
256,192,35616,1,8,0:0:0:0:
256,192,35759,1,8,0:0:0:0:
256,192,36045,1,12,0:0:0:0:
256,192,36188,1,8,0:0:0:0:
256,192,36331,1,0,0:0:0:0:
256,192,36473,1,8,0:0:0:0:
256,192,36616,5,4,0:0:0:0:
256,192,36902,1,8,0:0:0:0:
256,192,37045,1,0,0:0:0:0:
256,192,37116,1,8,0:0:0:0:
256,192,37188,1,0,0:0:0:0:
256,192,37331,1,8,0:0:0:0:
256,192,37473,1,0,0:0:0:0:
256,192,37545,1,0,0:0:0:0:
256,192,37616,1,8,0:0:0:0:
256,192,37688,1,8,0:0:0:0:
256,192,37759,1,0,0:0:0:0:
256,192,37902,1,0,0:0:0:0:
256,192,38045,1,8,0:0:0:0:
256,192,38188,1,0,0:0:0:0:
256,192,38259,1,0,0:0:0:0:
256,192,38331,1,0,0:0:0:0:
256,192,38473,1,8,0:0:0:0:
256,192,38616,1,0,0:0:0:0:
256,192,38688,1,8,0:0:0:0:
256,192,38759,1,8,0:0:0:0:
256,192,38831,1,8,0:0:0:0:
256,192,38902,1,0,0:0:0:0:
256,192,39045,1,0,0:0:0:0:
256,192,39188,1,8,0:0:0:0:
256,192,39331,1,0,0:0:0:0:
256,192,39402,1,8,0:0:0:0:
256,192,39473,1,0,0:0:0:0:
256,192,39616,1,8,0:0:0:0:
256,192,39759,1,0,0:0:0:0:
256,192,39831,1,0,0:0:0:0:
256,192,39902,1,8,0:0:0:0:
256,192,39973,1,8,0:0:0:0:
256,192,40045,1,0,0:0:0:0:
256,192,40188,1,0,0:0:0:0:
256,192,40331,1,8,0:0:0:0:
256,192,40473,1,0,0:0:0:0:
256,192,40545,1,0,0:0:0:0:
256,192,40616,1,0,0:0:0:0:
256,192,40688,1,0,0:0:0:0:
256,192,40759,1,8,0:0:0:0:
256,192,40902,1,0,0:0:0:0:
256,192,40973,1,8,0:0:0:0:
256,192,41116,1,8,0:0:0:0:
256,192,41188,1,0,0:0:0:0:
256,192,41331,1,0,0:0:0:0:
256,192,41473,1,8,0:0:0:0:
256,192,41616,1,0,0:0:0:0:
256,192,41688,1,8,0:0:0:0:
256,192,41759,1,0,0:0:0:0:
256,192,41902,1,8,0:0:0:0:
256,192,42045,1,0,0:0:0:0:
256,192,42116,1,0,0:0:0:0:
256,192,42188,1,8,0:0:0:0:
256,192,42259,1,8,0:0:0:0:
256,192,42331,1,0,0:0:0:0:
256,192,42473,1,0,0:0:0:0:
256,192,42616,1,8,0:0:0:0:
256,192,42759,1,0,0:0:0:0:
256,192,42831,1,0,0:0:0:0:
256,192,42902,1,8,0:0:0:0:
256,192,42973,1,0,0:0:0:0:
256,192,43045,1,8,0:0:0:0:
256,192,43188,1,0,0:0:0:0:
256,192,43259,1,8,0:0:0:0:
256,192,43402,1,8,0:0:0:0:
256,192,43473,1,0,0:0:0:0:
256,192,43616,1,0,0:0:0:0:
256,192,43759,1,8,0:0:0:0:
256,192,43902,1,0,0:0:0:0:
256,192,43973,1,0,0:0:0:0:
256,192,44045,1,8,0:0:0:0:
256,192,44116,1,0,0:0:0:0:
256,192,44188,1,8,0:0:0:0:
256,192,44259,1,8,0:0:0:0:
256,192,44331,1,0,0:0:0:0:
256,192,44473,1,8,0:0:0:0:
256,192,44616,1,0,0:0:0:0:
256,192,44688,1,0,0:0:0:0:
256,192,44759,1,0,0:0:0:0:
256,192,44902,1,8,0:0:0:0:
256,192,45045,1,0,0:0:0:0:
256,192,45188,1,0,0:0:0:0:
256,192,45259,1,8,0:0:0:0:
256,192,45331,1,8,0:0:0:0:
256,192,45473,1,0,0:0:0:0:
256,192,45545,1,8,0:0:0:0:
256,192,45688,1,8,0:0:0:0:
256,192,45759,1,0,0:0:0:0:
256,192,46045,1,8,0:0:0:0:
256,192,46188,1,0,0:0:0:0:
256,192,46259,1,8,0:0:0:0:
256,192,46331,1,0,0:0:0:0:
256,192,46473,1,0,0:0:0:0:
256,192,46616,1,8,0:0:0:0:
256,192,46688,1,0,0:0:0:0:
256,192,46759,1,0,0:0:0:0:
256,192,46831,1,0,0:0:0:0:
256,192,46902,1,8,0:0:0:0:
256,192,47045,1,0,0:0:0:0:
256,192,47188,1,8,0:0:0:0:
256,192,47259,1,8,0:0:0:0:
256,192,47331,1,0,0:0:0:0:
256,192,47473,1,0,0:0:0:0:
256,192,47616,1,8,0:0:0:0:
256,192,47688,1,0,0:0:0:0:
256,192,47759,1,0,0:0:0:0:
256,192,47831,1,8,0:0:0:0:
256,192,47973,1,8,0:0:0:0:
256,192,48045,1,0,0:0:0:0:
256,192,48188,1,0,0:0:0:0:
256,192,48331,1,8,0:0:0:0:
256,192,48402,1,8,0:0:0:0:
256,192,48473,1,0,0:0:0:0:
256,192,48545,1,8,0:0:0:0:
256,192,48616,1,0,0:0:0:0:
256,192,48688,1,0,0:0:0:0:
256,192,48759,1,8,0:0:0:0:
256,192,48902,1,8,0:0:0:0:
256,192,48973,1,0,0:0:0:0:
256,192,49045,1,8,0:0:0:0:
256,192,49116,1,8,0:0:0:0:
256,192,49188,1,0,0:0:0:0:
256,192,49330,1,0,0:0:0:0:
256,192,49473,1,8,0:0:0:0:
256,192,49616,1,0,0:0:0:0:
256,192,49688,1,8,0:0:0:0:
256,192,49759,1,0,0:0:0:0:
256,192,49831,1,0,0:0:0:0:
256,192,49902,1,8,0:0:0:0:
256,192,50045,1,0,0:0:0:0:
256,192,50116,1,8,0:0:0:0:
256,192,50259,1,8,0:0:0:0:
256,192,50330,1,0,0:0:0:0:
256,192,50473,1,0,0:0:0:0:
256,192,50616,1,8,0:0:0:0:
256,192,50759,1,0,0:0:0:0:
256,192,50902,1,8,0:0:0:0:
256,192,51045,1,0,0:0:0:0:
256,192,51116,1,8,0:0:0:0:
256,192,51331,1,0,0:0:0:0:
256,192,51473,1,8,0:0:0:0:
256,192,51616,1,0,0:0:0:0:
256,192,51759,1,8,0:0:0:0:
256,192,51831,1,8,0:0:0:0:
256,192,51902,1,0,0:0:0:0:
256,192,52045,1,0,0:0:0:0:
256,192,52116,1,0,0:0:0:0:
256,192,52188,1,8,0:0:0:0:
256,192,52331,1,0,0:0:0:0:
256,192,52402,1,0,0:0:0:0:
256,192,52473,1,8,0:0:0:0:
256,192,52545,1,8,0:0:0:0:
256,192,52616,1,0,0:0:0:0:
256,192,52688,1,8,0:0:0:0:
256,192,52759,1,0,0:0:0:0:
256,192,52831,1,0,0:0:0:0:
256,192,52902,1,8,0:0:0:0:
256,192,52973,1,8,0:0:0:0:
256,192,53045,1,0,0:0:0:0:
256,192,53116,1,8,0:0:0:0:
256,192,53188,1,0,0:0:0:0:
256,192,53259,1,0,0:0:0:0:
256,192,53331,1,8,0:0:0:0:
256,192,53402,1,8,0:0:0:0:
256,192,53473,1,0,0:0:0:0:
256,192,53545,1,0,0:0:0:0:
256,192,53616,1,0,0:0:0:0:
256,192,53688,1,0,0:0:0:0:
256,192,53759,1,8,0:0:0:0:
256,192,54045,1,8,0:0:0:0:
256,192,54331,1,8,0:0:0:0:
256,192,54616,1,8,0:0:0:0:
256,192,54902,5,4,0:0:0:0:
256,192,55045,1,0,0:0:0:0:
256,192,55188,1,8,0:0:0:0:
256,192,55473,1,0,0:0:0:0:
256,192,55545,1,0,0:0:0:0:
256,192,55616,1,0,0:0:0:0:
256,192,55759,1,8,0:0:0:0:
256,192,55902,1,0,0:0:0:0:
256,192,55973,1,8,0:0:0:0:
256,192,56045,1,0,0:0:0:0:
256,192,56116,1,8,0:0:0:0:
256,192,56188,1,0,0:0:0:0:
256,192,56331,1,8,0:0:0:0:
256,192,56473,1,0,0:0:0:0:
256,192,56616,1,8,0:0:0:0:
256,192,56688,1,8,0:0:0:0:
256,192,56759,1,0,0:0:0:0:
256,192,56902,1,8,0:0:0:0:
256,192,56973,1,0,0:0:0:0:
256,192,57045,1,0,0:0:0:0:
256,192,57116,1,0,0:0:0:0:
256,192,57188,1,8,0:0:0:0:
256,192,57331,1,8,0:0:0:0:
256,192,57402,1,8,0:0:0:0:
256,192,57473,1,8,0:0:0:0:
256,192,57616,1,0,0:0:0:0:
256,192,57759,1,8,0:0:0:0:
256,192,57902,1,8,0:0:0:0:
256,192,57973,1,0,0:0:0:0:
256,192,58045,1,8,0:0:0:0:
256,192,58116,1,8,0:0:0:0:
256,192,58188,1,8,0:0:0:0:
256,192,58331,1,0,0:0:0:0:
256,192,58473,1,0,0:0:0:0:
256,192,58616,1,8,0:0:0:0:
256,192,58688,1,8,0:0:0:0:
256,192,58759,1,0,0:0:0:0:
256,192,58902,1,8,0:0:0:0:
256,192,59045,1,8,0:0:0:0:
256,192,59188,1,0,0:0:0:0:
256,192,59259,1,0,0:0:0:0:
256,192,59331,1,8,0:0:0:0:
256,192,59473,1,8,0:0:0:0:
256,192,59759,1,8,0:0:0:0:
256,192,59831,1,0,0:0:0:0:
256,192,59902,1,8,0:0:0:0:
256,192,60045,1,0,0:0:0:0:
256,192,60188,1,0,0:0:0:0:
256,192,60259,1,0,0:0:0:0:
256,192,60331,1,8,0:0:0:0:
256,192,60402,1,8,0:0:0:0:
256,192,60473,1,0,0:0:0:0:
256,192,60616,1,8,0:0:0:0:
256,192,60688,1,8,0:0:0:0:
256,192,60759,1,0,0:0:0:0:
256,192,60831,1,0,0:0:0:0:
256,192,60902,1,8,0:0:0:0:
256,192,61045,1,0,0:0:0:0:
256,192,61116,1,0,0:0:0:0:
256,192,61188,1,8,0:0:0:0:
256,192,61331,1,8,0:0:0:0:
256,192,61473,1,0,0:0:0:0:
256,192,61616,1,8,0:0:0:0:
256,192,61664,1,8,0:0:0:0:
256,192,61711,1,8,0:0:0:0:
256,192,61759,1,0,0:0:0:0:
256,192,61902,1,0,0:0:0:0:
256,192,62045,1,8,0:0:0:0:
256,192,62188,1,0,0:0:0:0:
256,192,62259,1,0,0:0:0:0:
256,192,62331,1,8,0:0:0:0:
256,192,62402,1,8,0:0:0:0:
256,192,62473,1,0,0:0:0:0:
256,192,62545,1,0,0:0:0:0:
256,192,62616,1,8,0:0:0:0:
256,192,62759,1,0,0:0:0:0:
256,192,62831,1,0,0:0:0:0:
256,192,62902,1,0,0:0:0:0:
256,192,63045,1,8,0:0:0:0:
256,192,63188,1,8,0:0:0:0:
256,192,63259,1,8,0:0:0:0:
256,192,63331,1,8,0:0:0:0:
256,192,63402,1,8,0:0:0:0:
256,192,63473,1,0,0:0:0:0:
256,192,63616,1,0,0:0:0:0:
256,192,63759,1,8,0:0:0:0:
256,192,63902,1,8,0:0:0:0:
256,192,64045,1,4,0:0:0:0:
256,192,64331,1,8,0:0:0:0:
256,192,64473,1,8,0:0:0:0:
256,192,64616,1,0,0:0:0:0:
256,192,64688,1,0,0:0:0:0:
256,192,64759,1,0,0:0:0:0:
256,192,64902,1,8,0:0:0:0:
256,192,65045,1,0,0:0:0:0:
256,192,65188,1,8,0:0:0:0:
256,192,65259,1,0,0:0:0:0:
256,192,65331,1,0,0:0:0:0:
256,192,65402,1,0,0:0:0:0:
256,192,65473,1,8,0:0:0:0:
256,192,65545,1,8,0:0:0:0:
256,192,65616,1,0,0:0:0:0:
256,192,65688,1,8,0:0:0:0:
256,192,65759,1,0,0:0:0:0:
256,192,65831,1,0,0:0:0:0:
256,192,65902,1,8,0:0:0:0:
256,192,65973,1,8,0:0:0:0:
256,192,66045,1,0,0:0:0:0:
256,192,66188,1,8,0:0:0:0:
256,192,66331,1,8,0:0:0:0:
256,192,66402,1,8,0:0:0:0:
256,192,66473,1,0,0:0:0:0:
256,192,66545,1,0,0:0:0:0:
256,192,66616,1,8,0:0:0:0:
256,192,66759,1,8,0:0:0:0:
256,192,66902,1,0,0:0:0:0:
256,192,66973,1,0,0:0:0:0:
256,192,67045,1,0,0:0:0:0:
256,192,67188,1,8,0:0:0:0:
256,192,67331,1,0,0:0:0:0:
256,192,67474,1,0,0:0:0:0:
256,192,67545,1,0,0:0:0:0:
256,192,67616,1,8,0:0:0:0:
256,192,67688,1,8,0:0:0:0:
256,192,67759,1,0,0:0:0:0:
256,192,67902,1,8,0:0:0:0:
256,192,68045,1,0,0:0:0:0:
256,192,68092,1,0,0:0:0:0:
256,192,68140,1,0,0:0:0:0:
256,192,68188,1,8,0:0:0:0:
256,192,68331,1,8,0:0:0:0:
256,192,68473,1,0,0:0:0:0:
256,192,68617,1,8,0:0:0:0:
256,192,68759,1,0,0:0:0:0:
256,192,68831,1,0,0:0:0:0:
256,192,68902,1,8,0:0:0:0:
256,192,69045,1,0,0:0:0:0:
256,192,69188,1,8,0:0:0:0:
256,192,69259,1,0,0:0:0:0:
256,192,69331,1,8,0:0:0:0:
256,192,69473,1,8,0:0:0:0:
256,192,69545,1,8,0:0:0:0:
256,192,69616,1,0,0:0:0:0:
256,192,69759,1,8,0:0:0:0:
256,192,69902,1,0,0:0:0:0:
256,192,69973,1,0,0:0:0:0:
256,192,70044,1,8,0:0:0:0:
256,192,70188,1,0,0:0:0:0:
256,192,70259,1,8,0:0:0:0:
256,192,70330,1,0,0:0:0:0:
256,192,70402,1,0,0:0:0:0:
256,192,70473,1,8,0:0:0:0:
256,192,70616,1,8,0:0:0:0:
256,192,70759,1,8,0:0:0:0:
256,192,70831,1,0,0:0:0:0:
256,192,70902,1,0,0:0:0:0:
256,192,71045,1,0,0:0:0:0:
256,192,71116,1,0,0:0:0:0:
256,192,71187,1,8,0:0:0:0:
256,192,71331,1,8,0:0:0:0:
256,192,71402,1,8,0:0:0:0:
256,192,71473,1,0,0:0:0:0:
256,192,71545,1,0,0:0:0:0:
256,192,71616,1,8,0:0:0:0:
256,192,71759,1,8,0:0:0:0:
256,192,71831,1,8,0:0:0:0:
256,192,71902,1,8,0:0:0:0:
256,192,72045,1,4,0:0:0:0:
256,192,72331,1,8,0:0:0:0:
256,192,72473,1,0,0:0:0:0:
256,192,72616,1,8,0:0:0:0:
256,192,72711,1,0,0:0:0:0:
256,192,72807,1,8,0:0:0:0:
256,192,72902,1,0,0:0:0:0:
256,192,72973,1,0,0:0:0:0:
256,192,73045,1,8,0:0:0:0:
256,192,73188,5,8,0:0:0:0:
256,192,73331,1,0,0:0:0:0:
256,192,73473,1,8,0:0:0:0:
256,192,73616,1,8,0:0:0:0:
256,192,73759,1,8,0:0:0:0:
256,192,73902,1,0,0:0:0:0:
256,192,74045,1,8,0:0:0:0:
256,192,74188,1,0,0:0:0:0:
256,192,74331,1,8,0:0:0:0:
256,192,74473,1,8,0:0:0:0:
256,192,74616,1,8,0:0:0:0:
256,192,74759,1,0,0:0:0:0:
256,192,74902,1,8,0:0:0:0:
256,192,75045,1,8,0:0:0:0:
256,192,75188,1,0,0:0:0:0:
256,192,75331,1,8,0:0:0:0:
256,192,75473,1,8,0:0:0:0:
256,192,75616,1,8,0:0:0:0:
256,192,75759,1,0,0:0:0:0:
256,192,75902,1,8,0:0:0:0:
256,192,76045,1,8,0:0:0:0:
256,192,76188,1,0,0:0:0:0:
256,192,76259,1,8,0:0:0:0:
256,192,76402,1,8,0:0:0:0:
256,192,76473,1,0,0:0:0:0:
256,192,76616,1,8,0:0:0:0:
256,192,76688,1,8,0:0:0:0:
256,192,76759,1,0,0:0:0:0:
256,192,76831,1,0,0:0:0:0:
256,192,76902,1,8,0:0:0:0:
256,192,77045,1,0,0:0:0:0:
256,192,77188,1,0,0:0:0:0:
256,192,77759,1,8,0:0:0:0:
256,192,77902,1,0,0:0:0:0:
256,192,78044,1,8,0:0:0:0:
256,192,78116,1,8,0:0:0:0:
256,192,78187,1,0,0:0:0:0:
256,192,78330,1,8,0:0:0:0:
256,192,78402,1,8,0:0:0:0:
256,192,78473,1,0,0:0:0:0:
256,192,78544,1,8,0:0:0:0:
256,192,78616,1,0,0:0:0:0:
256,192,78759,1,0,0:0:0:0:
256,192,78902,1,8,0:0:0:0:
256,192,78973,1,8,0:0:0:0:
256,192,79044,1,0,0:0:0:0:
256,192,79116,1,0,0:0:0:0:
256,192,79187,1,8,0:0:0:0:
256,192,79330,1,0,0:0:0:0:
256,192,79473,1,8,0:0:0:0:
256,192,79544,1,0,0:0:0:0:
256,192,79616,1,0,0:0:0:0:
256,192,79687,1,0,0:0:0:0:
256,192,79759,1,8,0:0:0:0:
256,192,79902,1,8,0:0:0:0:
256,192,79973,1,8,0:0:0:0:
256,192,80044,1,8,0:0:0:0:
256,192,80187,1,0,0:0:0:0:
256,192,80330,1,8,0:0:0:0:
256,192,80473,1,8,0:0:0:0:
256,192,80544,1,0,0:0:0:0:
256,192,80616,1,0,0:0:0:0:
256,192,80687,1,0,0:0:0:0:
256,192,80759,1,8,0:0:0:0:
256,192,80902,1,8,0:0:0:0:
256,192,81044,1,0,0:0:0:0:
256,192,81187,1,8,0:0:0:0:
256,192,81259,1,8,0:0:0:0:
256,192,81330,1,0,0:0:0:0:
256,192,81473,1,0,0:0:0:0:
256,192,81545,1,0,0:0:0:0:
256,192,81616,1,8,0:0:0:0:
256,192,81688,1,0,0:0:0:0:
256,192,81759,1,8,0:0:0:0:
256,192,81830,1,8,0:0:0:0:
256,192,81902,1,8,0:0:0:0:
256,192,81973,1,8,0:0:0:0:
256,192,82044,1,0,0:0:0:0:
256,192,82188,1,0,0:0:0:0:
256,192,82330,1,8,0:0:0:0:
256,192,82473,1,0,0:0:0:0:
256,192,82545,1,0,0:0:0:0:
256,192,82616,1,8,0:0:0:0:
256,192,82759,1,0,0:0:0:0:
256,192,82902,1,8,0:0:0:0:
256,192,83045,1,0,0:0:0:0:
256,192,83116,1,0,0:0:0:0:
256,192,83188,1,8,0:0:0:0:
256,192,83259,1,8,0:0:0:0:
256,192,83331,1,0,0:0:0:0:
256,192,83473,1,8,0:0:0:0:
256,192,83545,1,8,0:0:0:0:
256,192,83616,1,0,0:0:0:0:
256,192,83759,1,8,0:0:0:0:
256,192,83830,1,8,0:0:0:0:
256,192,83902,1,8,0:0:0:0:
256,192,84045,1,0,0:0:0:0:
256,192,84117,1,0,0:0:0:0:
256,192,84187,1,8,0:0:0:0:
256,192,84331,1,0,0:0:0:0:
256,192,84403,1,0,0:0:0:0:
256,192,84474,1,0,0:0:0:0:
256,192,84616,1,0,0:0:0:0:
256,192,84688,1,0,0:0:0:0:
256,192,84759,1,8,0:0:0:0:
256,192,84902,1,8,0:0:0:0:
256,192,84974,1,0,0:0:0:0:
256,192,85044,1,8,0:0:0:0:
256,192,85188,1,0,0:0:0:0:
256,192,85260,1,0,0:0:0:0:
256,192,85331,1,8,0:0:0:0:
256,192,85473,1,8,0:0:0:0:
256,192,85545,1,8,0:0:0:0:
256,192,85616,1,0,0:0:0:0:
256,192,85759,1,0,0:0:0:0:
256,192,85830,1,0,0:0:0:0:
256,192,85902,1,8,0:0:0:0:
256,192,86044,1,8,0:0:0:0:
256,192,86117,1,8,0:0:0:0:
256,192,86187,1,8,0:0:0:0:
256,192,86331,1,0,0:0:0:0:
256,192,86402,1,0,0:0:0:0:
256,192,86473,1,8,0:0:0:0:
256,192,86545,1,8,0:0:0:0:
256,192,86616,1,0,0:0:0:0:
256,192,86689,1,8,0:0:0:0:
256,192,86760,1,0,0:0:0:0:
256,192,86831,1,0,0:0:0:0:
256,192,86902,1,8,0:0:0:0:
256,192,86973,1,8,0:0:0:0:
256,192,87045,1,0,0:0:0:0:
256,192,87188,1,8,0:0:0:0:
256,192,87260,1,8,0:0:0:0:
256,192,87331,1,0,0:0:0:0:
256,192,87473,1,0,0:0:0:0:
256,192,87545,1,0,0:0:0:0:
256,192,87616,1,0,0:0:0:0:
256,192,87759,1,8,0:0:0:0:
256,192,87831,1,8,0:0:0:0:
256,192,87902,1,0,0:0:0:0:
256,192,88045,1,8,0:0:0:0:
256,192,88116,1,0,0:0:0:0:
256,192,88188,1,0,0:0:0:0:
256,192,88259,1,0,0:0:0:0:
256,192,88331,1,8,0:0:0:0:
256,192,88402,1,8,0:0:0:0:
256,192,88473,1,0,0:0:0:0:
256,192,88545,1,0,0:0:0:0:
256,192,88616,1,8,0:0:0:0:
256,192,88688,1,8,0:0:0:0:
256,192,88759,1,0,0:0:0:0:
256,192,88831,1,8,0:0:0:0:
256,192,88902,1,8,0:0:0:0:
256,192,88974,1,8,0:0:0:0:
256,192,89045,1,0,0:0:0:0:
256,192,89188,1,0,0:0:0:0:
256,192,89260,1,0,0:0:0:0:
256,192,89331,1,8,0:0:0:0:
256,192,89402,1,8,0:0:0:0:
256,192,89474,1,8,0:0:0:0:
256,192,89546,1,8,0:0:0:0:
256,192,89617,1,0,0:0:0:0:
256,192,89759,1,8,0:0:0:0:
256,192,89831,1,0,0:0:0:0:
256,192,89902,1,0,0:0:0:0:
256,192,89973,1,0,0:0:0:0:
256,192,90045,1,8,0:0:0:0:
256,192,90117,1,8,0:0:0:0:
256,192,90188,1,0,0:0:0:0:
256,192,90331,1,12,0:0:0:0:
256,192,90902,1,8,0:0:0:0:
256,192,91188,1,0,0:0:0:0:
256,192,91259,1,0,0:0:0:0:
256,192,91331,1,8,0:0:0:0:
256,192,91473,5,12,0:0:0:0:
256,192,91759,1,8,0:0:0:0:
256,192,91831,1,8,0:0:0:0:
256,192,91902,1,0,0:0:0:0:
256,192,92045,1,8,0:0:0:0:
256,192,92188,1,0,0:0:0:0:
256,192,92331,1,8,0:0:0:0:
256,192,92402,1,8,0:0:0:0:
256,192,92473,1,0,0:0:0:0:
256,192,92545,1,0,0:0:0:0:
256,192,92616,1,8,0:0:0:0:
256,192,92759,1,0,0:0:0:0:
256,192,92902,1,8,0:0:0:0:
256,192,92973,1,8,0:0:0:0:
256,192,93045,1,0,0:0:0:0:
256,192,93188,1,8,0:0:0:0:
256,192,93331,1,8,0:0:0:0:
256,192,93473,1,0,0:0:0:0:
256,192,93616,1,0,0:0:0:0:
256,192,93688,1,0,0:0:0:0:
256,192,93759,1,8,0:0:0:0:
256,192,93902,1,0,0:0:0:0:
256,192,94045,1,8,0:0:0:0:
256,192,94188,1,0,0:0:0:0:
256,192,94259,1,0,0:0:0:0:
256,192,94331,1,8,0:0:0:0:
256,192,94473,1,0,0:0:0:0:
256,192,94616,1,8,0:0:0:0:
256,192,94664,1,8,0:0:0:0:
256,192,94711,1,8,0:0:0:0:
256,192,94759,1,0,0:0:0:0:
256,192,94902,1,8,0:0:0:0:
256,192,95045,1,0,0:0:0:0:
256,192,95188,1,8,0:0:0:0:
256,192,95331,1,8,0:0:0:0:
256,192,95473,1,0,0:0:0:0:
256,192,95545,1,8,0:0:0:0:
256,192,95616,1,0,0:0:0:0:
256,192,95688,1,0,0:0:0:0:
256,192,95759,1,8,0:0:0:0:
256,192,95902,1,0,0:0:0:0:
256,192,96045,1,8,0:0:0:0:
256,192,96188,1,0,0:0:0:0:
256,192,96331,1,8,0:0:0:0:
256,192,96402,1,8,0:0:0:0:
256,192,96473,1,0,0:0:0:0:
256,192,96616,1,8,0:0:0:0:
256,192,96759,1,0,0:0:0:0:
256,192,96902,1,8,0:0:0:0:
256,192,96973,1,8,0:0:0:0:
256,192,97045,1,0,0:0:0:0:
256,192,97116,1,0,0:0:0:0:
256,192,97188,1,8,0:0:0:0:
256,192,97331,1,0,0:0:0:0:
256,192,97473,1,8,0:0:0:0:
256,192,97545,1,8,0:0:0:0:
256,192,97616,1,0,0:0:0:0:
256,192,97759,1,8,0:0:0:0:
256,192,97902,1,0,0:0:0:0:
256,192,98045,1,8,0:0:0:0:
256,192,98116,1,0,0:0:0:0:
256,192,98188,1,8,0:0:0:0:
256,192,98331,1,0,0:0:0:0:
256,192,98473,1,0,0:0:0:0:
256,192,98616,1,8,0:0:0:0:
256,192,98688,1,8,0:0:0:0:
256,192,98759,1,0,0:0:0:0:
256,192,98902,1,8,0:0:0:0:
256,192,99188,1,0,0:0:0:0:
256,192,99473,1,12,0:0:0:0:
256,192,99616,1,0,0:0:0:0:
256,192,99759,1,8,0:0:0:0:
256,192,99902,1,0,0:0:0:0:
256,192,99973,1,0,0:0:0:0:
256,192,100045,1,8,0:0:0:0:
256,192,100188,1,0,0:0:0:0:
256,192,100331,1,8,0:0:0:0:
256,192,100473,1,0,0:0:0:0:
256,192,100616,1,12,0:0:0:0:
256,192,100902,1,8,0:0:0:0:
256,192,100974,1,8,0:0:0:0:
256,192,101045,1,0,0:0:0:0:
256,192,101188,1,8,0:0:0:0:
256,192,101331,1,0,0:0:0:0:
256,192,101474,1,8,0:0:0:0:
256,192,101545,1,8,0:0:0:0:
256,192,101616,1,0,0:0:0:0:
256,192,101688,1,0,0:0:0:0:
256,192,101759,1,8,0:0:0:0:
256,192,101902,1,0,0:0:0:0:
256,192,102045,1,8,0:0:0:0:
256,192,102116,1,8,0:0:0:0:
256,192,102188,1,0,0:0:0:0:
256,192,102259,1,0,0:0:0:0:
256,192,102331,1,8,0:0:0:0:
256,192,102474,1,0,0:0:0:0:
256,192,102616,1,0,0:0:0:0:
256,192,102688,1,0,0:0:0:0:
256,192,102759,1,8,0:0:0:0:
256,192,102807,1,8,0:0:0:0:
256,192,102854,1,8,0:0:0:0:
256,192,102902,1,0,0:0:0:0:
256,192,103045,1,0,0:0:0:0:
256,192,103188,1,8,0:0:0:0:
256,192,103331,1,0,0:0:0:0:
256,192,103402,1,0,0:0:0:0:
256,192,103474,1,8,0:0:0:0:
256,192,103616,1,0,0:0:0:0:
256,192,103759,1,8,0:0:0:0:
256,192,103831,1,8,0:0:0:0:
256,192,103902,1,0,0:0:0:0:
256,192,104045,1,8,0:0:0:0:
256,192,104116,1,8,0:0:0:0:
256,192,104188,1,0,0:0:0:0:
256,192,104259,1,0,0:0:0:0:
256,192,104331,1,8,0:0:0:0:
256,192,104474,1,8,0:0:0:0:
256,192,104616,1,8,0:0:0:0:
256,192,104688,1,8,0:0:0:0:
256,192,104759,1,0,0:0:0:0:
256,192,104831,1,0,0:0:0:0:
256,192,104902,1,8,0:0:0:0:
256,192,104973,1,8,0:0:0:0:
256,192,105045,1,0,0:0:0:0:
256,192,105188,1,8,0:0:0:0:
256,192,105331,1,0,0:0:0:0:
256,192,105474,1,8,0:0:0:0:
256,192,105545,1,8,0:0:0:0:
256,192,105616,1,0,0:0:0:0:
256,192,105759,1,8,0:0:0:0:
256,192,105902,1,0,0:0:0:0:
256,192,106045,1,8,0:0:0:0:
256,192,106116,1,8,0:0:0:0:
256,192,106188,1,0,0:0:0:0:
256,192,106259,1,0,0:0:0:0:
256,192,106331,1,8,0:0:0:0:
256,192,106474,1,0,0:0:0:0:
256,192,106616,1,8,0:0:0:0:
256,192,106688,1,8,0:0:0:0:
256,192,106759,1,0,0:0:0:0:
256,192,106902,1,8,0:0:0:0:
256,192,107045,1,0,0:0:0:0:
256,192,107188,1,8,0:0:0:0:
256,192,107259,1,0,0:0:0:0:
256,192,107331,1,8,0:0:0:0:
256,192,107474,1,0,0:0:0:0:
256,192,107616,1,0,0:0:0:0:
256,192,107759,1,8,0:0:0:0:
256,192,107831,1,0,0:0:0:0:
256,192,107902,1,0,0:0:0:0:
256,192,108045,1,8,0:0:0:0:
256,192,108116,1,8,0:0:0:0:
256,192,108188,1,0,0:0:0:0:
256,192,108259,1,0,0:0:0:0:
256,192,108331,1,8,0:0:0:0:
256,192,108402,1,8,0:0:0:0:
256,192,108473,1,0,0:0:0:0:
256,192,108545,1,8,0:0:0:0:
256,192,108616,1,0,0:0:0:0:
256,192,108759,12,0,109616,0:0:0:0:
256,192,109759,5,0,0:0:0:0:
256,192,110045,1,0,0:0:0:0:
256,192,110331,1,8,0:0:0:0:
256,192,110616,1,0,0:0:0:0:
256,192,111045,1,8,0:0:0:0:
256,192,111188,1,0,0:0:0:0:
256,192,111331,1,8,0:0:0:0:
256,192,111473,1,0,0:0:0:0:
256,192,111759,1,8,0:0:0:0:
256,192,112045,1,0,0:0:0:0:
256,192,112331,1,0,0:0:0:0:
256,192,112616,1,8,0:0:0:0:
256,192,112902,1,8,0:0:0:0:
256,192,113045,1,0,0:0:0:0:
256,192,113331,1,8,0:0:0:0:
256,192,113473,1,8,0:0:0:0:
256,192,113616,1,0,0:0:0:0:
256,192,113902,1,8,0:0:0:0:
256,192,114045,1,0,0:0:0:0:
256,192,114331,1,0,0:0:0:0:
256,192,114616,1,0,0:0:0:0:
256,192,114902,1,8,0:0:0:0:
256,192,115188,1,0,0:0:0:0:
256,192,115331,1,8,0:0:0:0:
256,192,115616,1,8,0:0:0:0:
256,192,115759,1,0,0:0:0:0:
256,192,115902,1,0,0:0:0:0:
256,192,116045,1,8,0:0:0:0:
256,192,116331,1,8,0:0:0:0:
256,192,116473,1,8,0:0:0:0:
256,192,116616,1,0,0:0:0:0:
256,192,116902,1,0,0:0:0:0:
256,192,117188,1,8,0:0:0:0:
256,192,117473,1,0,0:0:0:0:
256,192,117759,1,0,0:0:0:0:
256,192,117902,1,8,0:0:0:0:
256,192,118045,1,8,0:0:0:0:
256,192,118331,1,8,0:0:0:0:
256,192,118473,1,0,0:0:0:0:
256,192,118759,1,8,0:0:0:0:
256,192,118902,1,0,0:0:0:0:
256,192,119188,1,0,0:0:0:0:
256,192,119473,1,8,0:0:0:0:
256,192,119759,1,0,0:0:0:0:
256,192,119902,1,8,0:0:0:0:
256,192,120188,1,8,0:0:0:0:
256,192,120331,1,0,0:0:0:0:
256,192,120473,1,0,0:0:0:0:
256,192,120616,1,8,0:0:0:0:
256,192,120902,1,8,0:0:0:0:
256,192,121045,1,8,0:0:0:0:
256,192,121188,1,0,0:0:0:0:
256,192,121473,1,0,0:0:0:0:
256,192,121759,1,8,0:0:0:0:
256,192,122045,1,0,0:0:0:0:
256,192,122188,1,8,0:0:0:0:
256,192,122331,1,0,0:0:0:0:
256,192,122473,1,0,0:0:0:0:
256,192,122616,1,8,0:0:0:0:
256,192,122902,1,0,0:0:0:0:
256,192,123045,1,8,0:0:0:0:
256,192,123331,1,8,0:0:0:0:
256,192,123473,1,0,0:0:0:0:
256,192,123759,1,0,0:0:0:0:
256,192,123902,1,0,0:0:0:0:
256,192,124045,1,8,0:0:0:0:
256,192,124188,1,0,0:0:0:0:
256,192,124473,1,0,0:0:0:0:
256,192,124616,1,8,0:0:0:0:
256,192,124759,1,8,0:0:0:0:
256,192,124902,1,0,0:0:0:0:
256,192,125045,1,0,0:0:0:0:
256,192,125188,1,8,0:0:0:0:
256,192,125473,1,8,0:0:0:0:
256,192,125616,1,8,0:0:0:0:
256,192,125759,1,0,0:0:0:0:
256,192,126045,1,0,0:0:0:0:
256,192,126331,1,8,0:0:0:0:
256,192,126616,1,0,0:0:0:0:
256,192,126759,1,8,0:0:0:0:
256,192,126902,1,0,0:0:0:0:
256,192,127045,1,0,0:0:0:0:
256,192,127188,1,8,0:0:0:0:
256,192,127473,1,0,0:0:0:0:
256,192,127616,1,0,0:0:0:0:
256,192,127759,1,8,0:0:0:0:
256,192,128045,1,0,0:0:0:0:
256,192,128331,1,0,0:0:0:0:
256,192,128616,1,8,0:0:0:0:
256,192,128902,1,8,0:0:0:0:
256,192,129188,1,8,0:0:0:0:
256,192,129473,1,8,0:0:0:0:
256,192,129759,1,8,0:0:0:0:
256,192,130045,1,8,0:0:0:0:
256,192,130331,1,0,0:0:0:0:
256,192,130616,1,0,0:0:0:0:
256,192,130902,1,8,0:0:0:0:
256,192,131188,1,8,0:0:0:0:
256,192,131473,1,8,0:0:0:0:
256,192,131759,1,8,0:0:0:0:
256,192,132045,1,8,0:0:0:0:
256,192,132331,1,8,0:0:0:0:
256,192,132616,1,0,0:0:0:0:
256,192,132902,1,0,0:0:0:0:
256,192,133188,1,8,0:0:0:0:
256,192,133473,1,8,0:0:0:0:
256,192,133759,1,8,0:0:0:0:
256,192,134045,1,8,0:0:0:0:
256,192,134331,1,8,0:0:0:0:
256,192,134616,1,8,0:0:0:0:
256,192,134902,1,0,0:0:0:0:
256,192,135188,1,0,0:0:0:0:
256,192,135473,1,8,0:0:0:0:
256,192,135759,1,8,0:0:0:0:
256,192,136045,1,8,0:0:0:0:
256,192,136331,1,8,0:0:0:0:
256,192,136616,1,8,0:0:0:0:
256,192,136902,1,8,0:0:0:0:
256,192,137045,1,8,0:0:0:0:
256,192,137188,1,0,0:0:0:0:
256,192,137473,1,0,0:0:0:0:
256,192,137616,1,8,0:0:0:0:
256,192,137759,1,8,0:0:0:0:
256,192,138045,1,8,0:0:0:0:
256,192,138188,1,8,0:0:0:0:
256,192,138473,1,8,0:0:0:0:
256,192,138616,1,8,0:0:0:0:
256,192,138759,1,8,0:0:0:0:
256,192,138902,1,8,0:0:0:0:
256,192,139188,1,8,0:0:0:0:
256,192,139331,1,8,0:0:0:0:
256,192,139473,1,0,0:0:0:0:
256,192,139616,1,8,0:0:0:0:
256,192,139759,1,0,0:0:0:0:
256,192,139902,1,8,0:0:0:0:
256,192,140045,1,8,0:0:0:0:
256,192,140331,1,8,0:0:0:0:
256,192,140473,1,8,0:0:0:0:
256,192,140759,1,8,0:0:0:0:
256,192,140902,1,8,0:0:0:0:
256,192,141045,1,8,0:0:0:0:
256,192,141188,1,8,0:0:0:0:
256,192,141473,1,8,0:0:0:0:
256,192,141616,1,8,0:0:0:0:
256,192,141759,1,0,0:0:0:0:
256,192,142045,1,0,0:0:0:0:
256,192,142188,1,8,0:0:0:0:
256,192,142331,1,8,0:0:0:0:
256,192,142616,1,8,0:0:0:0:
256,192,142759,1,8,0:0:0:0:
256,192,143045,1,8,0:0:0:0:
256,192,143188,1,8,0:0:0:0:
256,192,143331,1,8,0:0:0:0:
256,192,143473,1,8,0:0:0:0:
256,192,143759,1,8,0:0:0:0:
256,192,143902,1,8,0:0:0:0:
256,192,144045,1,0,0:0:0:0:
256,192,144188,1,8,0:0:0:0:
256,192,144331,1,0,0:0:0:0:
256,192,144616,1,8,0:0:0:0:
256,192,144759,1,8,0:0:0:0:
256,192,144902,1,0,0:0:0:0:
256,192,144973,1,0,0:0:0:0:
256,192,145045,1,8,0:0:0:0:
256,192,145116,1,8,0:0:0:0:
256,192,145188,1,0,0:0:0:0:
256,192,145616,1,8,0:0:0:0:
256,192,145902,1,0,0:0:0:0:
256,192,146045,1,0,0:0:0:0:
256,192,146188,1,8,0:0:0:0:
256,192,146331,1,0,0:0:0:0:
256,192,146402,1,0,0:0:0:0:
256,192,146473,1,8,0:0:0:0:
256,192,146545,1,8,0:0:0:0:
256,192,146616,1,0,0:0:0:0:
256,192,146688,1,0,0:0:0:0:
256,192,146759,1,8,0:0:0:0:
256,192,146902,1,0,0:0:0:0:
256,192,147045,1,8,0:0:0:0:
256,192,147116,1,8,0:0:0:0:
256,192,147188,1,8,0:0:0:0:
256,192,147331,1,0,0:0:0:0:
256,192,147473,1,8,0:0:0:0:
256,192,147545,1,0,0:0:0:0:
256,192,147616,1,8,0:0:0:0:
256,192,147688,1,8,0:0:0:0:
256,192,147759,1,0,0:0:0:0:
256,192,147831,1,0,0:0:0:0:
256,192,147902,1,8,0:0:0:0:
256,192,148045,1,0,0:0:0:0:
256,192,148188,1,8,0:0:0:0:
256,192,148259,1,8,0:0:0:0:
256,192,148331,1,8,0:0:0:0:
256,192,148473,1,0,0:0:0:0:
256,192,148616,1,8,0:0:0:0:
256,192,148759,1,0,0:0:0:0:
256,192,148831,1,0,0:0:0:0:
256,192,148902,1,8,0:0:0:0:
256,192,149045,1,0,0:0:0:0:
256,192,149188,1,8,0:0:0:0:
256,192,149259,1,8,0:0:0:0:
256,192,149330,1,0,0:0:0:0:
256,192,149402,1,0,0:0:0:0:
256,192,149473,1,8,0:0:0:0:
256,192,149616,1,8,0:0:0:0:
256,192,149759,1,0,0:0:0:0:
256,192,149902,1,0,0:0:0:0:
256,192,150045,1,8,0:0:0:0:
256,192,150188,1,8,0:0:0:0:
256,192,150259,1,8,0:0:0:0:
256,192,150331,1,0,0:0:0:0:
256,192,150402,1,8,0:0:0:0:
256,192,150473,1,0,0:0:0:0:
256,192,150616,1,8,0:0:0:0:
256,192,150759,1,0,0:0:0:0:
256,192,150902,1,8,0:0:0:0:
256,192,150973,1,8,0:0:0:0:
256,192,151045,1,0,0:0:0:0:
256,192,151116,1,0,0:0:0:0:
256,192,151188,1,8,0:0:0:0:
256,192,151259,1,0,0:0:0:0:
256,192,151331,1,8,0:0:0:0:
256,192,151473,1,0,0:0:0:0:
256,192,151616,1,8,0:0:0:0:
256,192,151759,1,8,0:0:0:0:
256,192,151831,1,8,0:0:0:0:
256,192,151902,1,0,0:0:0:0:
256,192,152045,1,8,0:0:0:0:
256,192,152116,1,8,0:0:0:0:
256,192,152188,1,0,0:0:0:0:
256,192,152259,1,0,0:0:0:0:
256,192,152331,1,8,0:0:0:0:
256,192,152402,1,8,0:0:0:0:
256,192,152473,1,0,0:0:0:0:
256,192,152616,1,8,0:0:0:0:
256,192,152759,1,0,0:0:0:0:
256,192,152831,1,0,0:0:0:0:
256,192,152902,1,8,0:0:0:0:
256,192,153045,1,0,0:0:0:0:
256,192,153188,1,8,0:0:0:0:
256,192,153259,1,8,0:0:0:0:
256,192,153331,1,0,0:0:0:0:
256,192,153402,1,0,0:0:0:0:
256,192,153473,1,8,0:0:0:0:
256,192,153616,1,8,0:0:0:0:
256,192,153759,1,0,0:0:0:0:
256,192,153902,1,8,0:0:0:0:
256,192,154045,1,8,0:0:0:0:
256,192,154188,1,0,0:0:0:0:
256,192,154331,1,8,0:0:0:0:
256,192,154402,1,0,0:0:0:0:
256,192,154473,1,0,0:0:0:0:
256,192,154545,1,0,0:0:0:0:
256,192,154616,1,8,0:0:0:0:
256,192,154759,1,0,0:0:0:0:
256,192,154902,1,8,0:0:0:0:
256,192,155473,1,4,0:0:0:0:
256,192,155616,1,0,0:0:0:0:
256,192,155759,1,8,0:0:0:0:
256,192,155831,1,8,0:0:0:0:
256,192,155902,1,8,0:0:0:0:
256,192,156045,1,0,0:0:0:0:
256,192,156188,1,8,0:0:0:0:
256,192,156259,1,0,0:0:0:0:
256,192,156331,1,8,0:0:0:0:
256,192,156402,1,8,0:0:0:0:
256,192,156473,1,0,0:0:0:0:
256,192,156616,1,0,0:0:0:0:
256,192,156759,1,8,0:0:0:0:
256,192,156831,1,0,0:0:0:0:
256,192,156902,1,8,0:0:0:0:
256,192,156973,1,8,0:0:0:0:
256,192,157045,1,0,0:0:0:0:
256,192,157116,1,8,0:0:0:0:
256,192,157188,1,0,0:0:0:0:
256,192,157331,1,0,0:0:0:0:
256,192,157473,1,8,0:0:0:0:
256,192,157545,1,8,0:0:0:0:
256,192,157616,1,8,0:0:0:0:
256,192,157759,1,0,0:0:0:0:
256,192,158045,1,8,0:0:0:0:
256,192,158188,1,8,0:0:0:0:
256,192,158331,1,0,0:0:0:0:
256,192,158402,1,0,0:0:0:0:
256,192,158473,1,0,0:0:0:0:
256,192,158616,1,8,0:0:0:0:
256,192,158688,1,8,0:0:0:0:
256,192,158759,1,0,0:0:0:0:
256,192,158831,1,0,0:0:0:0:
256,192,158902,1,8,0:0:0:0:
256,192,159045,1,0,0:0:0:0:
256,192,159188,1,8,0:0:0:0:
256,192,159331,1,8,0:0:0:0:
256,192,159402,1,8,0:0:0:0:
256,192,159473,1,0,0:0:0:0:
256,192,159616,1,0,0:0:0:0:
256,192,159759,1,8,0:0:0:0:
256,192,159831,1,8,0:0:0:0:
256,192,159902,1,0,0:0:0:0:
256,192,159973,1,8,0:0:0:0:
256,192,160045,1,0,0:0:0:0:
256,192,160331,1,8,0:0:0:0:
256,192,160473,1,8,0:0:0:0:
256,192,160545,1,8,0:0:0:0:
256,192,160616,1,0,0:0:0:0:
256,192,160759,1,0,0:0:0:0:
256,192,160831,1,0,0:0:0:0:
256,192,160902,1,8,0:0:0:0:
256,192,160973,1,8,0:0:0:0:
256,192,161045,1,0,0:0:0:0:
256,192,161188,1,8,0:0:0:0:
256,192,161331,1,0,0:0:0:0:
256,192,161473,1,8,0:0:0:0:
256,192,161545,1,8,0:0:0:0:
256,192,161616,1,8,0:0:0:0:
256,192,161759,1,0,0:0:0:0:
256,192,161902,1,8,0:0:0:0:
256,192,161973,1,0,0:0:0:0:
256,192,162045,1,8,0:0:0:0:
256,192,162116,1,8,0:0:0:0:
256,192,162188,1,0,0:0:0:0:
256,192,162331,1,0,0:0:0:0:
256,192,162616,1,8,0:0:0:0:
256,192,162759,1,0,0:0:0:0:
256,192,162902,1,8,0:0:0:0:
256,192,162973,1,0,0:0:0:0:
256,192,163045,1,0,0:0:0:0:
256,192,163188,1,8,0:0:0:0:
256,192,163331,1,0,0:0:0:0:
256,192,163473,1,8,0:0:0:0:
256,192,163545,1,8,0:0:0:0:
256,192,163616,1,0,0:0:0:0:
256,192,163759,1,8,0:0:0:0:
256,192,163831,1,8,0:0:0:0:
256,192,163902,1,0,0:0:0:0:
256,192,163973,1,0,0:0:0:0:
256,192,164045,1,8,0:0:0:0:
256,192,164116,1,8,0:0:0:0:
256,192,164188,1,0,0:0:0:0:
256,192,164259,1,0,0:0:0:0:
256,192,164331,1,8,0:0:0:0:
256,192,164366,1,8,0:0:0:0:
256,192,164473,1,8,0:0:0:0:
256,192,164509,1,8,0:0:0:0:
256,192,164616,1,4,0:0:0:0:
256,192,164759,1,0,0:0:0:0:
256,192,164902,1,8,0:0:0:0:
256,192,165045,1,8,0:0:0:0:
256,192,165116,1,8,0:0:0:0:
256,192,165188,1,0,0:0:0:0:
256,192,165331,1,0,0:0:0:0:
256,192,165402,1,0,0:0:0:0:
256,192,165473,1,8,0:0:0:0:
256,192,165545,1,8,0:0:0:0:
256,192,165616,1,0,0:0:0:0:
256,192,165688,1,8,0:0:0:0:
256,192,165759,1,0,0:0:0:0:
256,192,165902,1,8,0:0:0:0:
256,192,166045,1,0,0:0:0:0:
256,192,166188,1,8,0:0:0:0:
256,192,166259,1,8,0:0:0:0:
256,192,166331,1,0,0:0:0:0:
256,192,166402,1,8,0:0:0:0:
256,192,166473,1,0,0:0:0:0:
256,192,166616,1,8,0:0:0:0:
256,192,166759,1,0,0:0:0:0:
256,192,166902,1,8,0:0:0:0:
256,192,167045,1,8,0:0:0:0:
256,192,167116,1,8,0:0:0:0:
256,192,167188,1,0,0:0:0:0:
256,192,167331,1,8,0:0:0:0:
256,192,167473,1,0,0:0:0:0:
256,192,167616,1,8,0:0:0:0:
256,192,167688,1,8,0:0:0:0:
256,192,167759,1,0,0:0:0:0:
256,192,167902,1,0,0:0:0:0:
256,192,167973,1,0,0:0:0:0:
256,192,168045,1,8,0:0:0:0:
256,192,168188,1,0,0:0:0:0:
256,192,168259,1,0,0:0:0:0:
256,192,168331,1,8,0:0:0:0:
256,192,168402,1,8,0:0:0:0:
256,192,168473,1,0,0:0:0:0:
256,192,168616,1,8,0:0:0:0:
256,192,168759,1,0,0:0:0:0:
256,192,168902,1,8,0:0:0:0:
256,192,168973,1,8,0:0:0:0:
256,192,169045,1,0,0:0:0:0:
256,192,169188,1,12,0:0:0:0:
256,192,169473,1,8,0:0:0:0:
256,192,169616,1,0,0:0:0:0:
256,192,169688,1,0,0:0:0:0:
256,192,169759,1,0,0:0:0:0:
256,192,169902,1,8,0:0:0:0:
256,192,170045,1,0,0:0:0:0:
256,192,170116,1,8,0:0:0:0:
256,192,170259,1,8,0:0:0:0:
256,192,170331,1,0,0:0:0:0:
256,192,170473,1,0,0:0:0:0:
256,192,170616,1,8,0:0:0:0:
256,192,170688,1,8,0:0:0:0:
256,192,170759,1,0,0:0:0:0:
256,192,170831,1,8,0:0:0:0:
256,192,170902,1,0,0:0:0:0:
256,192,171045,1,8,0:0:0:0:
256,192,171188,1,8,0:0:0:0:
256,192,171259,1,8,0:0:0:0:
256,192,171331,1,8,0:0:0:0:
256,192,171402,1,8,0:0:0:0:
256,192,171473,1,0,0:0:0:0:
256,192,171616,1,0,0:0:0:0:
256,192,171759,1,8,0:0:0:0:
256,192,171902,1,0,0:0:0:0:
256,192,171973,1,8,0:0:0:0:
256,192,172045,1,0,0:0:0:0:
256,192,172116,1,8,0:0:0:0:
256,192,172188,1,0,0:0:0:0:
256,192,172331,1,8,0:0:0:0:
256,192,172473,1,0,0:0:0:0:
256,192,172545,1,8,0:0:0:0:
256,192,172616,1,8,0:0:0:0:
256,192,172688,1,8,0:0:0:0:
256,192,172759,1,0,0:0:0:0:
256,192,172831,1,0,0:0:0:0:
256,192,172902,1,8,0:0:0:0:
256,192,173045,1,0,0:0:0:0:
256,192,173188,1,8,0:0:0:0:
256,192,173259,1,8,0:0:0:0:
256,192,173331,1,0,0:0:0:0:
256,192,173402,1,0,0:0:0:0:
256,192,173473,1,8,0:0:0:0:
256,192,173521,1,8,0:0:0:0:
256,192,173569,1,8,0:0:0:0:
256,192,173616,1,0,0:0:0:0:
256,192,173759,1,12,0:0:0:0:
256,192,174045,1,0,0:0:0:0:
256,192,174188,1,0,0:0:0:0:
256,192,174331,1,8,0:0:0:0:
256,192,174473,1,0,0:0:0:0:
256,192,174616,1,8,0:0:0:0:
256,192,174688,1,8,0:0:0:0:
256,192,174759,1,8,0:0:0:0:
256,192,174831,1,8,0:0:0:0:
256,192,174902,1,0,0:0:0:0:
256,192,175188,1,8,0:0:0:0:
256,192,175331,1,8,0:0:0:0:
256,192,175473,1,0,0:0:0:0:
256,192,175616,1,0,0:0:0:0:
256,192,175759,1,8,0:0:0:0:
256,192,175831,1,8,0:0:0:0:
256,192,175902,1,8,0:0:0:0:
256,192,175973,1,8,0:0:0:0:
256,192,176045,1,0,0:0:0:0:
256,192,176331,1,8,0:0:0:0:
256,192,176473,1,0,0:0:0:0:
256,192,176616,1,0,0:0:0:0:
256,192,176759,1,8,0:0:0:0:
256,192,176902,1,8,0:0:0:0:
256,192,176973,1,0,0:0:0:0:
256,192,177045,1,8,0:0:0:0:
256,192,177116,1,8,0:0:0:0:
256,192,177188,1,0,0:0:0:0:
256,192,177473,1,8,0:0:0:0:
256,192,177616,1,0,0:0:0:0:
256,192,177759,1,8,0:0:0:0:
256,192,177831,1,8,0:0:0:0:
256,192,177902,1,8,0:0:0:0:
256,192,177973,1,8,0:0:0:0:
256,192,178045,1,0,0:0:0:0:
256,192,178116,1,0,0:0:0:0:
256,192,178188,1,0,0:0:0:0:
256,192,178259,1,0,0:0:0:0:
256,192,178331,1,8,0:0:0:0:
256,192,178473,1,0,0:0:0:0:
256,192,178616,1,8,0:0:0:0:
256,192,178688,1,8,0:0:0:0:
256,192,178759,1,8,0:0:0:0:
256,192,178902,1,0,0:0:0:0:
256,192,179045,1,0,0:0:0:0:
256,192,179116,1,0,0:0:0:0:
256,192,179188,1,8,0:0:0:0:
256,192,179259,1,8,0:0:0:0:
256,192,179331,1,0,0:0:0:0:
256,192,179473,1,8,0:0:0:0:
256,192,179616,1,0,0:0:0:0:
256,192,179688,1,0,0:0:0:0:
256,192,179759,1,8,0:0:0:0:
256,192,179831,1,8,0:0:0:0:
256,192,179902,1,8,0:0:0:0:
256,192,180045,1,0,0:0:0:0:
256,192,180188,1,0,0:0:0:0:
256,192,180259,1,8,0:0:0:0:
256,192,180331,1,8,0:0:0:0:
256,192,180402,1,8,0:0:0:0:
256,192,180473,1,0,0:0:0:0:
256,192,180616,1,8,0:0:0:0:
256,192,180759,1,0,0:0:0:0:
256,192,180831,1,0,0:0:0:0:
256,192,180902,1,8,0:0:0:0:
256,192,180973,1,8,0:0:0:0:
256,192,181045,1,0,0:0:0:0:
256,192,181188,1,0,0:0:0:0:
256,192,181331,1,8,0:0:0:0:
256,192,181402,1,8,0:0:0:0:
256,192,181473,1,0,0:0:0:0:
256,192,181545,1,0,0:0:0:0:
256,192,181616,1,8,0:0:0:0:
256,192,181759,1,4,0:0:0:0:
256,192,181973,1,4,0:0:0:0:
256,192,182188,1,12,0:0:0:0:
256,192,182402,1,12,0:0:0:0:
256,192,182616,1,0,0:0:0:0:
256,192,182902,1,12,0:0:0:0:
256,192,183045,1,0,0:0:0:0:
256,192,183188,1,8,0:0:0:0:
256,192,183331,1,8,0:0:0:0:
256,192,183402,1,8,0:0:0:0:
256,192,183473,1,0,0:0:0:0:
256,192,183545,1,0,0:0:0:0:
256,192,183616,1,8,0:0:0:0:
256,192,183759,1,8,0:0:0:0:
256,192,183902,1,0,0:0:0:0:
256,192,183973,1,8,0:0:0:0:
256,192,184045,1,0,0:0:0:0:
256,192,184188,1,0,0:0:0:0:
256,192,184331,1,8,0:0:0:0:
256,192,184473,1,0,0:0:0:0:
256,192,184545,1,8,0:0:0:0:
256,192,184616,1,0,0:0:0:0:
256,192,184688,1,0,0:0:0:0:
256,192,184759,1,8,0:0:0:0:
256,192,184831,1,0,0:0:0:0:
256,192,184902,1,8,0:0:0:0:
256,192,185045,1,8,0:0:0:0:
256,192,185188,1,4,0:0:0:0:
256,192,185759,1,0,0:0:0:0:
256,192,185831,1,0,0:0:0:0:
256,192,185902,1,0,0:0:0:0:
256,192,186045,1,8,0:0:0:0:
256,192,186116,1,0,0:0:0:0:
256,192,186331,1,0,0:0:0:0:
256,192,186402,1,8,0:0:0:0:
256,192,186473,1,0,0:0:0:0:
256,192,186616,1,8,0:0:0:0:
256,192,186759,1,0,0:0:0:0:
256,192,186831,1,8,0:0:0:0:
256,192,186902,1,0,0:0:0:0:
256,192,186973,1,0,0:0:0:0:
256,192,187045,1,8,0:0:0:0:
256,192,187188,1,8,0:0:0:0:
256,192,187331,1,0,0:0:0:0:
256,192,187473,5,12,0:0:0:0:
256,192,187616,1,4,0:0:0:0:
256,192,187759,1,12,0:0:0:0:
256,192,187902,1,4,0:0:0:0:
256,192,188188,1,8,0:0:0:0:
256,192,188259,1,8,0:0:0:0:
256,192,188331,1,8,0:0:0:0:
256,192,188473,1,0,0:0:0:0:
256,192,188616,1,8,0:0:0:0:
256,192,188688,1,8,0:0:0:0:
256,192,188759,1,0,0:0:0:0:
256,192,188831,1,0,0:0:0:0:
256,192,188902,1,8,0:0:0:0:
256,192,188973,1,8,0:0:0:0:
256,192,189045,1,0,0:0:0:0:
256,192,189188,1,0,0:0:0:0:
256,192,189331,1,8,0:0:0:0:
256,192,189402,1,0,0:0:0:0:
256,192,189473,1,8,0:0:0:0:
256,192,189616,1,0,0:0:0:0:
256,192,189759,1,8,0:0:0:0:
256,192,189902,1,0,0:0:0:0:
256,192,189973,1,0,0:0:0:0:
256,192,190045,1,8,0:0:0:0:
256,192,190116,1,0,0:0:0:0:
256,192,190188,1,8,0:0:0:0:
256,192,190331,1,0,0:0:0:0:
256,192,190473,1,8,0:0:0:0:
256,192,190545,1,0,0:0:0:0:
256,192,190616,1,8,0:0:0:0:
256,192,190688,1,8,0:0:0:0:
256,192,190759,1,0,0:0:0:0:
256,192,190902,1,0,0:0:0:0:
256,192,191045,1,8,0:0:0:0:
256,192,191188,1,8,0:0:0:0:
256,192,191259,1,8,0:0:0:0:
256,192,191331,1,0,0:0:0:0:
256,192,191473,1,0,0:0:0:0:
256,192,191616,1,8,0:0:0:0:
256,192,191664,1,8,0:0:0:0:
256,192,191711,1,8,0:0:0:0:
256,192,191759,1,0,0:0:0:0:
256,192,191902,1,8,0:0:0:0:
256,192,192045,1,0,0:0:0:0:
256,192,192116,1,0,0:0:0:0:
256,192,192188,1,8,0:0:0:0:
256,192,192259,1,8,0:0:0:0:
256,192,192331,1,0,0:0:0:0:
256,192,192402,1,0,0:0:0:0:
256,192,192473,1,8,0:0:0:0:
256,192,192616,1,0,0:0:0:0:
256,192,192759,1,8,0:0:0:0:
256,192,192902,1,8,0:0:0:0:
256,192,192973,1,8,0:0:0:0:
256,192,193045,1,0,0:0:0:0:
256,192,193188,1,8,0:0:0:0:
256,192,193259,1,8,0:0:0:0:
256,192,193331,1,0,0:0:0:0:
256,192,193402,1,0,0:0:0:0:
256,192,193473,1,8,0:0:0:0:
256,192,193616,1,0,0:0:0:0:
256,192,193688,1,0,0:0:0:0:
256,192,193759,1,8,0:0:0:0:
256,192,193902,1,0,0:0:0:0:
256,192,194045,1,8,0:0:0:0:
256,192,194116,1,8,0:0:0:0:
256,192,194188,1,0,0:0:0:0:
256,192,194259,1,0,0:0:0:0:
256,192,194331,1,8,0:0:0:0:
256,192,194473,1,0,0:0:0:0:
256,192,194616,1,8,0:0:0:0:
256,192,194688,1,0,0:0:0:0:
256,192,194759,1,8,0:0:0:0:
256,192,194902,1,0,0:0:0:0:
256,192,195045,1,0,0:0:0:0:
256,192,195188,1,8,0:0:0:0:
256,192,195259,1,8,0:0:0:0:
256,192,195331,1,8,0:0:0:0:
256,192,195402,1,8,0:0:0:0:
256,192,195473,1,0,0:0:0:0:
256,192,195616,1,0,0:0:0:0:
256,192,195759,1,8,0:0:0:0:
256,192,195831,1,8,0:0:0:0:
256,192,195902,1,0,0:0:0:0:
256,192,196045,1,0,0:0:0:0:
256,192,196188,1,8,0:0:0:0:
256,192,196331,1,8,0:0:0:0:
256,192,196402,1,8,0:0:0:0:
256,192,196473,1,8,0:0:0:0:
256,192,196616,1,0,0:0:0:0:
256,192,196902,1,8,0:0:0:0:
256,192,197045,1,0,0:0:0:0:
256,192,197188,1,8,0:0:0:0:
256,192,197259,1,8,0:0:0:0:
256,192,197331,1,0,0:0:0:0:
256,192,197473,1,8,0:0:0:0:
256,192,197545,1,8,0:0:0:0:
256,192,197616,1,0,0:0:0:0:
256,192,197688,1,8,0:0:0:0:
256,192,197759,1,0,0:0:0:0:
256,192,197831,1,0,0:0:0:0:
256,192,197902,1,8,0:0:0:0:
256,192,198045,1,8,0:0:0:0:
256,192,198188,1,0,0:0:0:0:
256,192,198259,1,0,0:0:0:0:
256,192,198331,1,8,0:0:0:0:
256,192,198473,1,0,0:0:0:0:
256,192,198545,1,0,0:0:0:0:
256,192,198616,1,8,0:0:0:0:
256,192,198688,1,0,0:0:0:0:
256,192,198759,1,8,0:0:0:0:
256,192,198831,1,8,0:0:0:0:
256,192,198902,1,0,0:0:0:0:
256,192,198973,1,0,0:0:0:0:
256,192,199045,1,8,0:0:0:0:
256,192,199188,1,0,0:0:0:0:
256,192,199331,1,8,0:0:0:0:
256,192,199402,1,8,0:0:0:0:
256,192,199473,1,0,0:0:0:0:
256,192,199616,1,8,0:0:0:0:
256,192,199759,1,0,0:0:0:0:
256,192,199831,1,0,0:0:0:0:
256,192,199902,1,8,0:0:0:0:
256,192,199973,1,8,0:0:0:0:
256,192,200045,1,0,0:0:0:0:
256,192,200188,1,8,0:0:0:0:
256,192,200259,1,8,0:0:0:0:
256,192,200331,1,0,0:0:0:0:
256,192,200402,1,0,0:0:0:0:
256,192,200473,1,8,0:0:0:0:
256,192,200545,1,8,0:0:0:0:
256,192,200616,1,0,0:0:0:0:
256,192,200759,1,0,0:0:0:0:
256,192,200902,1,8,0:0:0:0:
256,192,200973,1,8,0:0:0:0:
256,192,201045,1,8,0:0:0:0:
256,192,201188,1,0,0:0:0:0:
256,192,201473,1,8,0:0:0:0:
256,192,201616,1,0,0:0:0:0:
256,192,201759,1,8,0:0:0:0:
256,192,201831,1,8,0:0:0:0:
256,192,201902,1,0,0:0:0:0:
256,192,202045,1,0,0:0:0:0:
256,192,202116,1,8,0:0:0:0:
256,192,202188,1,0,0:0:0:0:
256,192,202259,1,8,0:0:0:0:
256,192,202331,1,8,0:0:0:0:
256,192,202402,1,0,0:0:0:0:
256,192,202473,1,0,0:0:0:0:
256,192,202616,1,8,0:0:0:0:
256,192,202759,1,0,0:0:0:0:
256,192,202902,1,8,0:0:0:0:
256,192,202973,1,8,0:0:0:0:
256,192,203045,1,0,0:0:0:0:
256,192,203188,1,8,0:0:0:0:
256,192,203259,1,8,0:0:0:0:
256,192,203331,1,0,0:0:0:0:
256,192,203402,1,8,0:0:0:0:
256,192,203473,1,0,0:0:0:0:
256,192,203545,1,0,0:0:0:0:
256,192,203616,1,8,0:0:0:0:
256,192,203759,1,8,0:0:0:0:
256,192,203902,1,8,0:0:0:0:
256,192,203973,1,8,0:0:0:0:
256,192,204045,1,0,0:0:0:0:
256,192,204116,1,8,0:0:0:0:
256,192,204188,1,0,0:0:0:0:
256,192,204331,1,8,0:0:0:0:
256,192,204473,1,8,0:0:0:0:
256,192,204616,1,0,0:0:0:0:
256,192,204688,1,0,0:0:0:0:
256,192,204759,1,0,0:0:0:0:
256,192,204831,1,0,0:0:0:0:
256,192,204902,1,8,0:0:0:0:
256,192,205045,1,0,0:0:0:0:
256,192,205188,1,8,0:0:0:0:
256,192,205331,1,8,0:0:0:0:
256,192,205473,1,0,0:0:0:0:
256,192,205616,1,0,0:0:0:0:
256,192,205759,1,12,0:0:0:0:
256,192,206045,1,8,0:0:0:0:
256,192,206188,1,0,0:0:0:0:
256,192,206331,1,0,0:0:0:0:
256,192,206402,1,8,0:0:0:0:
256,192,206545,1,8,0:0:0:0:
256,192,206616,1,0,0:0:0:0:
256,192,206688,1,0,0:0:0:0:
256,192,206759,1,8,0:0:0:0:
256,192,206902,1,0,0:0:0:0:
256,192,206973,1,8,0:0:0:0:
256,192,207045,1,8,0:0:0:0:
256,192,207116,1,8,0:0:0:0:
256,192,207188,1,0,0:0:0:0:
256,192,207259,1,0,0:0:0:0:
256,192,207331,1,8,0:0:0:0:
256,192,207402,1,8,0:0:0:0:
256,192,207473,1,0,0:0:0:0:
256,192,207616,1,8,0:0:0:0:
256,192,207759,1,8,0:0:0:0:
256,192,207902,1,8,0:0:0:0:
256,192,208045,1,4,0:0:0:0:
256,192,208331,1,8,0:0:0:0:
256,192,208473,1,0,0:0:0:0:
256,192,208545,1,0,0:0:0:0:
256,192,208616,1,8,0:0:0:0:
256,192,208688,1,8,0:0:0:0:
256,192,208759,1,0,0:0:0:0:
256,192,208831,1,8,0:0:0:0:
256,192,208902,1,0,0:0:0:0:
256,192,208973,1,0,0:0:0:0:
256,192,209045,1,8,0:0:0:0:
256,192,209188,1,12,0:0:0:0:
256,192,209473,1,12,0:0:0:0:
256,192,209759,1,0,0:0:0:0:
256,192,209831,1,0,0:0:0:0:
256,192,209902,1,8,0:0:0:0:
256,192,209973,1,0,0:0:0:0:
256,192,210045,1,8,0:0:0:0:
256,192,210116,1,8,0:0:0:0:
256,192,210188,1,0,0:0:0:0:
256,192,210331,1,12,0:0:0:0:
256,192,210473,1,0,0:0:0:0:
256,192,210616,1,8,0:0:0:0:
256,192,210759,1,0,0:0:0:0:
256,192,210831,1,8,0:0:0:0:
256,192,210902,1,0,0:0:0:0:
256,192,210973,1,0,0:0:0:0:
256,192,211045,1,8,0:0:0:0:
256,192,211188,1,8,0:0:0:0:
256,192,211331,1,0,0:0:0:0:
256,192,211402,1,0,0:0:0:0:
256,192,211473,1,0,0:0:0:0:
256,192,211616,1,0,0:0:0:0:
256,192,211759,1,8,0:0:0:0:
256,192,211902,1,8,0:0:0:0:
256,192,211973,1,8,0:0:0:0:
256,192,212045,1,0,0:0:0:0:
256,192,212188,1,0,0:0:0:0:
256,192,212331,1,8,0:0:0:0:
256,192,212473,1,0,0:0:0:0:
256,192,212545,1,0,0:0:0:0:
256,192,212616,1,8,0:0:0:0:
256,192,212688,1,8,0:0:0:0:
256,192,212759,1,0,0:0:0:0:
256,192,212902,1,8,0:0:0:0:
256,192,213045,1,8,0:0:0:0:
256,192,213116,1,8,0:0:0:0:
256,192,213188,1,0,0:0:0:0:
256,192,213331,1,0,0:0:0:0:
256,192,213474,1,8,0:0:0:0:
256,192,213616,1,0,0:0:0:0:
256,192,213688,1,0,0:0:0:0:
256,192,213759,1,8,0:0:0:0:
256,192,213902,1,8,0:0:0:0:
256,192,213973,1,0,0:0:0:0:
256,192,214045,1,8,0:0:0:0:
256,192,214116,1,8,0:0:0:0:
256,192,214188,1,0,0:0:0:0:
256,192,214331,1,0,0:0:0:0:
256,192,214473,1,8,0:0:0:0:
256,192,214545,1,8,0:0:0:0:
256,192,214617,1,8,0:0:0:0:
256,192,214759,1,0,0:0:0:0:
256,192,214902,1,0,0:0:0:0:
256,192,214973,1,8,0:0:0:0:
256,192,215045,1,0,0:0:0:0:
256,192,215188,1,8,0:0:0:0:
256,192,215331,1,8,0:0:0:0:
256,192,215474,1,0,0:0:0:0:
256,192,215545,1,0,0:0:0:0:
256,192,215616,1,0,0:0:0:0:
256,192,215760,1,8,0:0:0:0:
256,192,215902,1,0,0:0:0:0:
256,192,216045,1,0,0:0:0:0:
256,192,216116,1,8,0:0:0:0:
256,192,216188,1,0,0:0:0:0:
256,192,216259,1,0,0:0:0:0:
256,192,216331,1,8,0:0:0:0:
256,192,216473,1,8,0:0:0:0:
256,192,216617,1,8,0:0:0:0:
256,192,216688,1,0,0:0:0:0:
256,192,216831,1,0,0:0:0:0:
256,192,216903,1,8,0:0:0:0:
256,192,217045,1,0,0:0:0:0:
256,192,217188,1,8,0:0:0:0:
256,192,217331,1,0,0:0:0:0:
256,192,217402,1,8,0:0:0:0:
256,192,217473,1,8,0:0:0:0:
256,192,217545,1,0,0:0:0:0:
256,192,217688,1,0,0:0:0:0:
256,192,217759,1,8,0:0:0:0:
256,192,217902,1,0,0:0:0:0:
256,192,218045,1,8,0:0:0:0:
256,192,218188,1,0,0:0:0:0:
256,192,218330,1,8,0:0:0:0:
256,192,218366,1,8,0:0:0:0:
256,192,218473,1,8,0:0:0:0:
256,192,218509,1,8,0:0:0:0:
256,192,218616,1,0,0:0:0:0:
256,192,218759,1,8,0:0:0:0:
256,192,218831,1,8,0:0:0:0:
256,192,218902,1,0,0:0:0:0:
256,192,219045,1,8,0:0:0:0:
256,192,219116,1,8,0:0:0:0:
256,192,219188,1,8,0:0:0:0:
256,192,219331,1,0,0:0:0:0:
256,192,219473,1,12,0:0:0:0:
256,192,219759,1,8,0:0:0:0:
256,192,219902,1,8,0:0:0:0:
256,192,219973,1,8,0:0:0:0:
256,192,220045,1,0,0:0:0:0:
256,192,220116,1,8,0:0:0:0:
256,192,220188,1,0,0:0:0:0:
256,192,220331,1,8,0:0:0:0:
256,192,220473,1,0,0:0:0:0:
256,192,220616,1,0,0:0:0:0:
256,192,220688,1,0,0:0:0:0:
256,192,220759,1,0,0:0:0:0:
256,192,220902,1,8,0:0:0:0:
256,192,221045,1,8,0:0:0:0:
256,192,221116,1,8,0:0:0:0:
256,192,221188,1,0,0:0:0:0:
256,192,221331,1,0,0:0:0:0:
256,192,221474,1,8,0:0:0:0:
256,192,221616,1,8,0:0:0:0:
256,192,221688,1,8,0:0:0:0:
256,192,221759,1,0,0:0:0:0:
256,192,221831,1,8,0:0:0:0:
256,192,221902,1,0,0:0:0:0:
256,192,222045,1,8,0:0:0:0:
256,192,222188,1,0,0:0:0:0:
256,192,222259,1,8,0:0:0:0:
256,192,222331,1,0,0:0:0:0:
256,192,222473,1,0,0:0:0:0:
256,192,222617,1,8,0:0:0:0:
256,192,222759,1,8,0:0:0:0:
256,192,222831,1,8,0:0:0:0:
256,192,222902,1,0,0:0:0:0:
256,192,223045,1,0,0:0:0:0:
256,192,223188,1,8,0:0:0:0:
256,192,223331,1,8,0:0:0:0:
256,192,223402,1,8,0:0:0:0:
256,192,223474,1,0,0:0:0:0:
256,192,223545,1,8,0:0:0:0:
256,192,223616,1,0,0:0:0:0:
256,192,223760,1,8,0:0:0:0:
256,192,223831,1,8,0:0:0:0:
256,192,223902,1,8,0:0:0:0:
256,192,224045,1,0,0:0:0:0:
256,192,224188,1,0,0:0:0:0:
256,192,224259,1,0,0:0:0:0:
256,192,224331,1,8,0:0:0:0:
256,192,224473,1,8,0:0:0:0:
256,192,224545,1,8,0:0:0:0:
256,192,224617,1,0,0:0:0:0:
256,192,224759,1,0,0:0:0:0:
256,192,224903,1,8,0:0:0:0:
256,192,225045,1,8,0:0:0:0:
256,192,225116,1,8,0:0:0:0:
256,192,225188,1,0,0:0:0:0:
256,192,225259,1,8,0:0:0:0:
256,192,225331,1,0,0:0:0:0:
256,192,225402,1,0,0:0:0:0:
256,192,225474,1,8,0:0:0:0:
256,192,225616,1,8,0:0:0:0:
256,192,225760,1,0,0:0:0:0:
256,192,225831,1,0,0:0:0:0:
256,192,225902,1,0,0:0:0:0:
256,192,226046,1,8,0:0:0:0:
256,192,226188,1,8,0:0:0:0:
256,192,226259,1,8,0:0:0:0:
256,192,226331,1,0,0:0:0:0:
256,192,226402,1,8,0:0:0:0:
256,192,226473,1,0,0:0:0:0:
256,192,226616,1,8,0:0:0:0:
256,192,226759,1,0,0:0:0:0:
256,192,226902,1,0,0:0:0:0:
256,192,226973,1,0,0:0:0:0:
256,192,227045,1,0,0:0:0:0:
256,192,227188,1,8,0:0:0:0:
256,192,227331,1,8,0:0:0:0:
256,192,227473,1,0,0:0:0:0:
256,192,227545,1,0,0:0:0:0:
256,192,227616,1,8,0:0:0:0:
256,192,227759,1,8,0:0:0:0:
256,192,227902,1,8,0:0:0:0:
256,192,228045,1,0,0:0:0:0:
256,192,228188,1,0,0:0:0:0:
256,192,228331,1,8,0:0:0:0:
256,192,228473,1,8,0:0:0:0:
256,192,228616,1,4,0:0:0:0:
256,192,237759,5,4,0:0:0:0:
256,192,238045,1,0,0:0:0:0:
256,192,238331,1,0,0:0:0:0:
256,192,238616,1,0,0:0:0:0:
256,192,238902,1,0,0:0:0:0:
256,192,239188,1,0,0:0:0:0:
256,192,239473,1,0,0:0:0:0:
256,192,239759,1,0,0:0:0:0:
256,192,240045,1,0,0:0:0:0:
256,192,240331,1,0,0:0:0:0:
256,192,240616,1,0,0:0:0:0:
256,192,240902,1,0,0:0:0:0:
256,192,241188,1,0,0:0:0:0:
256,192,241473,1,0,0:0:0:0:
256,192,241759,1,0,0:0:0:0:
256,192,242045,1,0,0:0:0:0:
256,192,242331,1,0,0:0:0:0:
256,192,242616,1,0,0:0:0:0:
256,192,242902,1,0,0:0:0:0:
256,192,243188,1,0,0:0:0:0:
256,192,243473,1,0,0:0:0:0:
256,192,243759,1,0,0:0:0:0:
256,192,244045,1,0,0:0:0:0:
256,192,244331,1,0,0:0:0:0:
256,192,244616,1,0,0:0:0:0:
256,192,244902,1,0,0:0:0:0:
256,192,245188,1,8,0:0:0:0:
256,192,245331,1,0,0:0:0:0:
256,192,245473,1,8,0:0:0:0:
256,192,246902,1,12,0:0:0:0:
256,192,247188,1,8,0:0:0:0:
256,192,247331,1,0,0:0:0:0:
256,192,247474,1,0,0:0:0:0:
256,192,247545,1,0,0:0:0:0:
256,192,247617,1,8,0:0:0:0:
256,192,247760,1,8,0:0:0:0:
256,192,247831,1,8,0:0:0:0:
256,192,247903,1,0,0:0:0:0:
256,192,247973,1,8,0:0:0:0:
256,192,248045,1,0,0:0:0:0:
256,192,248188,1,0,0:0:0:0:
256,192,248331,1,8,0:0:0:0:
256,192,248474,1,8,0:0:0:0:
256,192,248545,1,8,0:0:0:0:
256,192,248617,1,0,0:0:0:0:
256,192,248688,1,8,0:0:0:0:
256,192,248760,1,0,0:0:0:0:
256,192,248831,1,0,0:0:0:0:
256,192,248903,1,8,0:0:0:0:
256,192,249045,1,0,0:0:0:0:
256,192,249117,1,0,0:0:0:0:
256,192,249188,1,8,0:0:0:0:
256,192,249331,1,8,0:0:0:0:
256,192,249474,1,0,0:0:0:0:
256,192,249545,1,0,0:0:0:0:
256,192,249617,1,8,0:0:0:0:
256,192,249688,1,8,0:0:0:0:
256,192,249760,1,0,0:0:0:0:
256,192,249903,1,0,0:0:0:0:
256,192,250046,1,8,0:0:0:0:
256,192,250188,1,0,0:0:0:0:
256,192,250260,1,0,0:0:0:0:
256,192,250331,1,8,0:0:0:0:
256,192,250474,1,8,0:0:0:0:
256,192,250545,1,0,0:0:0:0:
256,192,250617,1,8,0:0:0:0:
256,192,250688,1,8,0:0:0:0:
256,192,250760,1,0,0:0:0:0:
256,192,250903,1,0,0:0:0:0:
256,192,251045,1,8,0:0:0:0:
256,192,251117,1,8,0:0:0:0:
256,192,251189,1,8,0:0:0:0:
256,192,251331,1,0,0:0:0:0:
256,192,251474,1,8,0:0:0:0:
256,192,251617,1,0,0:0:0:0:
256,192,251688,1,0,0:0:0:0:
256,192,251760,1,8,0:0:0:0:
256,192,251903,1,8,0:0:0:0:
256,192,252046,1,0,0:0:0:0:
256,192,252117,1,0,0:0:0:0:
256,192,252188,1,0,0:0:0:0:
256,192,252332,1,8,0:0:0:0:
256,192,252474,1,0,0:0:0:0:
256,192,252617,1,0,0:0:0:0:
256,192,252688,1,8,0:0:0:0:
256,192,252760,1,0,0:0:0:0:
256,192,252831,1,0,0:0:0:0:
256,192,252903,1,8,0:0:0:0:
256,192,253045,1,8,0:0:0:0:
256,192,253189,1,8,0:0:0:0:
256,192,253331,1,0,0:0:0:0:
256,192,253403,1,0,0:0:0:0:
256,192,253473,1,8,0:0:0:0:
256,192,253617,1,0,0:0:0:0:
256,192,253760,1,8,0:0:0:0:
256,192,253831,1,8,0:0:0:0:
256,192,253903,1,0,0:0:0:0:
256,192,253974,1,0,0:0:0:0:
256,192,254045,1,8,0:0:0:0:
256,192,254188,1,0,0:0:0:0:
256,192,254331,1,8,0:0:0:0:
256,192,254474,1,0,0:0:0:0:
256,192,254545,1,0,0:0:0:0:
256,192,254617,1,8,0:0:0:0:
256,192,254760,1,8,0:0:0:0:
256,192,254902,1,0,0:0:0:0:
256,192,254973,1,0,0:0:0:0:
256,192,255045,1,8,0:0:0:0:
256,192,255117,1,8,0:0:0:0:
256,192,255188,1,0,0:0:0:0:
256,192,255331,1,8,0:0:0:0:
256,192,255403,1,8,0:0:0:0:
256,192,255474,1,0,0:0:0:0:
256,192,255521,1,0,0:0:0:0:
256,192,255569,1,0,0:0:0:0:
256,192,255617,1,8,0:0:0:0:
256,192,255760,1,0,0:0:0:0:
256,192,255903,1,8,0:0:0:0:
256,192,256045,1,0,0:0:0:0:
256,192,256331,1,8,0:0:0:0:
256,192,256473,1,0,0:0:0:0:
256,192,256545,1,8,0:0:0:0:
256,192,256616,1,0,0:0:0:0:
256,192,256688,1,0,0:0:0:0:
256,192,256759,1,8,0:0:0:0:
256,192,256902,1,8,0:0:0:0:
256,192,257045,1,0,0:0:0:0:
256,192,257116,1,0,0:0:0:0:
256,192,257188,1,0,0:0:0:0:
256,192,257331,1,0,0:0:0:0:
256,192,257473,1,8,0:0:0:0:
256,192,257616,1,8,0:0:0:0:
256,192,257688,1,8,0:0:0:0:
256,192,257759,1,0,0:0:0:0:
256,192,257831,1,8,0:0:0:0:
256,192,257902,1,0,0:0:0:0:
256,192,258045,1,8,0:0:0:0:
256,192,258188,1,0,0:0:0:0:
256,192,258259,1,0,0:0:0:0:
256,192,258331,1,8,0:0:0:0:
256,192,258473,1,8,0:0:0:0:
256,192,258616,1,0,0:0:0:0:
256,192,258688,1,0,0:0:0:0:
256,192,258759,1,8,0:0:0:0:
256,192,258831,1,8,0:0:0:0:
256,192,258902,1,0,0:0:0:0:
256,192,259045,1,0,0:0:0:0:
256,192,259188,1,8,0:0:0:0:
256,192,259259,1,0,0:0:0:0:
256,192,259331,1,8,0:0:0:0:
256,192,259402,1,8,0:0:0:0:
256,192,259473,1,0,0:0:0:0:
256,192,259616,1,0,0:0:0:0:
256,192,259759,1,8,0:0:0:0:
256,192,259831,1,8,0:0:0:0:
256,192,259902,1,0,0:0:0:0:
256,192,260045,1,0,0:0:0:0:
256,192,260188,1,8,0:0:0:0:
256,192,260259,1,8,0:0:0:0:
256,192,260331,1,8,0:0:0:0:
256,192,260473,1,0,0:0:0:0:
256,192,260616,1,0,0:0:0:0:
256,192,260688,1,8,0:0:0:0:
256,192,260759,1,0,0:0:0:0:
256,192,260902,1,8,0:0:0:0:
256,192,261045,1,8,0:0:0:0:
256,192,261189,1,0,0:0:0:0:
256,192,261259,1,0,0:0:0:0:
256,192,261331,1,0,0:0:0:0:
256,192,261473,1,8,0:0:0:0:
256,192,261616,1,0,0:0:0:0:
256,192,261759,1,0,0:0:0:0:
256,192,261831,1,8,0:0:0:0:
256,192,261902,1,0,0:0:0:0:
256,192,261973,1,0,0:0:0:0:
256,192,262045,1,8,0:0:0:0:
256,192,262188,1,0,0:0:0:0:
256,192,262331,1,8,0:0:0:0:
256,192,262473,1,0,0:0:0:0:
256,192,262545,1,0,0:0:0:0:
256,192,262616,1,8,0:0:0:0:
256,192,262759,1,0,0:0:0:0:
256,192,262902,1,8,0:0:0:0:
256,192,262973,1,8,0:0:0:0:
256,192,263045,1,0,0:0:0:0:
256,192,263116,1,0,0:0:0:0:
256,192,263188,1,8,0:0:0:0:
256,192,263331,1,0,0:0:0:0:
256,192,263473,1,8,0:0:0:0:
256,192,263616,1,0,0:0:0:0:
256,192,263688,1,0,0:0:0:0:
256,192,263759,1,8,0:0:0:0:
256,192,263902,1,8,0:0:0:0:
256,192,264045,1,0,0:0:0:0:
256,192,264188,1,8,0:0:0:0:
256,192,264259,1,8,0:0:0:0:
256,192,264331,1,0,0:0:0:0:
256,192,264473,1,8,0:0:0:0:
256,192,264616,1,0,0:0:0:0:
256,192,264688,1,0,0:0:0:0:
256,192,264759,1,8,0:0:0:0:
256,192,264831,1,0,0:0:0:0:
256,192,264902,1,8,0:0:0:0:
256,192,265045,1,0,0:0:0:0:
256,192,265188,1,8,0:0:0:0:
256,192,265331,1,0,0:0:0:0:
256,192,265402,1,0,0:0:0:0:
256,192,265473,1,8,0:0:0:0:
256,192,265616,1,0,0:0:0:0:
256,192,265688,1,0,0:0:0:0:
256,192,265759,1,8,0:0:0:0:
256,192,265831,1,8,0:0:0:0:
256,192,265902,1,0,0:0:0:0:
256,192,266045,1,8,0:0:0:0:
256,192,266188,1,8,0:0:0:0:
256,192,266259,1,8,0:0:0:0:
256,192,266331,1,0,0:0:0:0:
256,192,266473,1,0,0:0:0:0:
256,192,266616,1,8,0:0:0:0:
256,192,266759,1,8,0:0:0:0:
256,192,266902,1,0,0:0:0:0:
256,192,267045,1,0,0:0:0:0:
256,192,267188,1,8,0:0:0:0:
256,192,267331,1,8,0:0:0:0:
256,192,267473,1,4,0:0:0:0:
256,192,267616,1,8,0:0:0:0:
256,192,268045,1,4,0:0:0:0:
256,192,268188,1,8,0:0:0:0:
256,192,268616,1,4,0:0:0:0:
256,192,269045,1,8,0:0:0:0:
256,192,269188,1,8,0:0:0:0:
256,192,269473,1,8,0:0:0:0:
256,192,269616,1,8,0:0:0:0:
256,192,269759,1,4,0:0:0:0:
256,192,270189,1,0,0:0:0:0:
256,192,270332,1,8,0:0:0:0:
256,192,270617,1,8,0:0:0:0:
256,192,270760,1,0,0:0:0:0:
256,192,271332,1,8,0:0:0:0:
256,192,271474,1,8,0:0:0:0:
256,192,271617,1,0,0:0:0:0:
256,192,271903,1,8,0:0:0:0:
256,192,272332,1,0,0:0:0:0:
256,192,272617,1,8,0:0:0:0:
256,192,272903,1,8,0:0:0:0:
256,192,273617,1,0,0:0:0:0:
256,192,273760,1,8,0:0:0:0:
256,192,274046,1,8,0:0:0:0:
256,192,274189,1,0,0:0:0:0:
256,192,274760,1,8,0:0:0:0:
256,192,274903,1,0,0:0:0:0:
256,192,275189,1,0,0:0:0:0:
256,192,275332,1,8,0:0:0:0:
256,192,275902,1,0,0:0:0:0:
256,192,276046,1,8,0:0:0:0:
256,192,276189,1,8,0:0:0:0:
256,192,276616,1,0,0:0:0:0:
256,192,276903,1,8,0:0:0:0:
256,192,277189,1,8,0:0:0:0:
256,192,277474,1,0,0:0:0:0:
256,192,277759,1,8,0:0:0:0:
256,192,278189,1,0,0:0:0:0:
256,192,278332,1,8,0:0:0:0:
256,192,278617,1,8,0:0:0:0:
256,192,278760,1,8,0:0:0:0:
256,192,278902,1,4,0:0:0:0:
256,192,279331,1,0,0:0:0:0:
256,192,279474,1,8,0:0:0:0:
256,192,279759,1,8,0:0:0:0:
256,192,279902,1,0,0:0:0:0:
256,192,280473,1,8,0:0:0:0:
256,192,280617,1,0,0:0:0:0:
256,192,280902,1,8,0:0:0:0:
256,192,281188,1,0,0:0:0:0:
256,192,281474,1,8,0:0:0:0:
256,192,281760,1,0,0:0:0:0:
256,192,282046,1,8,0:0:0:0:
256,192,282759,1,0,0:0:0:0:
256,192,282903,1,8,0:0:0:0:
256,192,283189,1,8,0:0:0:0:
256,192,283331,1,0,0:0:0:0:
256,192,283473,1,8,0:0:0:0:
256,192,283760,1,8,0:0:0:0:
256,192,284046,1,8,0:0:0:0:
256,192,284332,1,8,0:0:0:0:
256,192,284616,1,8,0:0:0:0:
256,192,284903,1,0,0:0:0:0:
256,192,285189,1,8,0:0:0:0:
256,192,285474,1,0,0:0:0:0:
256,192,285759,1,8,0:0:0:0:
256,192,285903,1,8,0:0:0:0:
256,192,286046,1,8,0:0:0:0:
256,192,286189,1,8,0:0:0:0:
256,192,286332,1,8,0:0:0:0:
256,192,286474,1,8,0:0:0:0:
256,192,286617,1,8,0:0:0:0:
256,192,286760,1,8,0:0:0:0:
256,192,286902,1,0,0:0:0:0:
256,192,288045,1,4,0:0:0:0:
256,192,288331,1,8,0:0:0:0:
256,192,288402,1,8,0:0:0:0:
256,192,288473,1,8,0:0:0:0:
256,192,288616,1,0,0:0:0:0:
256,192,288759,1,0,0:0:0:0:
256,192,288902,1,8,0:0:0:0:
256,192,289188,1,0,0:0:0:0:
256,192,289331,1,0,0:0:0:0:
256,192,289473,1,8,0:0:0:0:
256,192,289616,1,8,0:0:0:0:
256,192,289688,1,8,0:0:0:0:
256,192,289759,1,0,0:0:0:0:
256,192,289902,1,0,0:0:0:0:
256,192,290045,1,8,0:0:0:0:
256,192,290331,1,0,0:0:0:0:
256,192,290473,1,0,0:0:0:0:
256,192,290545,1,0,0:0:0:0:
256,192,290616,1,8,0:0:0:0:
256,192,290759,1,8,0:0:0:0:
256,192,290902,1,0,0:0:0:0:
256,192,291045,1,0,0:0:0:0:
256,192,291188,1,8,0:0:0:0:
256,192,291473,1,0,0:0:0:0:
256,192,291545,1,0,0:0:0:0:
256,192,291616,1,0,0:0:0:0:
256,192,291759,1,8,0:0:0:0:
256,192,291902,1,8,0:0:0:0:
256,192,292045,1,0,0:0:0:0:
256,192,292188,1,0,0:0:0:0:
256,192,292331,1,8,0:0:0:0:
256,192,292616,1,0,0:0:0:0:
256,192,292688,1,0,0:0:0:0:
256,192,292759,1,8,0:0:0:0:
256,192,292902,1,8,0:0:0:0:
256,192,293045,1,0,0:0:0:0:
256,192,293116,1,0,0:0:0:0:
256,192,293188,1,0,0:0:0:0:
256,192,293331,1,0,0:0:0:0:
256,192,293473,1,8,0:0:0:0:
256,192,293759,1,0,0:0:0:0:
256,192,293902,1,8,0:0:0:0:
256,192,294045,1,8,0:0:0:0:
256,192,294331,1,0,0:0:0:0:
256,192,294473,1,0,0:0:0:0:
256,192,294545,1,0,0:0:0:0:
256,192,294616,1,8,0:0:0:0:
256,192,294759,1,8,0:0:0:0:
256,192,294902,1,0,0:0:0:0:
256,192,294973,1,0,0:0:0:0:
256,192,295045,1,0,0:0:0:0:
256,192,295188,1,8,0:0:0:0:
256,192,295473,1,0,0:0:0:0:
256,192,295616,1,8,0:0:0:0:
256,192,295759,1,8,0:0:0:0:
256,192,296045,1,0,0:0:0:0:
256,192,296188,1,0,0:0:0:0:
256,192,296259,1,0,0:0:0:0:
256,192,296331,1,8,0:0:0:0:
256,192,296473,1,8,0:0:0:0:
256,192,296616,1,0,0:0:0:0:
256,192,296688,1,0,0:0:0:0:
256,192,296759,1,8,0:0:0:0:
256,192,296902,1,8,0:0:0:0:
256,192,297188,1,0,0:0:0:0:
256,192,297331,1,0,0:0:0:0:
256,192,297473,1,8,0:0:0:0:
256,192,297759,1,0,0:0:0:0:
256,192,297902,1,8,0:0:0:0:
256,192,297973,1,0,0:0:0:0:
256,192,298045,1,8,0:0:0:0:
256,192,298188,1,8,0:0:0:0:
256,192,298331,1,0,0:0:0:0:
256,192,298473,1,0,0:0:0:0:
256,192,298616,1,8,0:0:0:0:
256,192,298902,1,0,0:0:0:0:
256,192,298973,1,0,0:0:0:0:
256,192,299045,1,8,0:0:0:0:
256,192,299188,1,8,0:0:0:0:
256,192,299331,1,8,0:0:0:0:
256,192,299473,1,4,0:0:0:0:
256,192,299759,1,8,0:0:0:0:
256,192,300045,1,0,0:0:0:0:
256,192,300331,1,8,0:0:0:0:
256,192,300473,1,0,0:0:0:0:
256,192,300616,1,0,0:0:0:0:
256,192,300902,1,8,0:0:0:0:
256,192,301188,1,0,0:0:0:0:
256,192,301331,1,8,0:0:0:0:
256,192,301616,1,8,0:0:0:0:
256,192,301759,1,0,0:0:0:0:
256,192,302045,1,8,0:0:0:0:
256,192,302331,1,0,0:0:0:0:
256,192,302473,1,0,0:0:0:0:
256,192,302616,1,8,0:0:0:0:
256,192,302902,1,0,0:0:0:0:
256,192,303045,1,0,0:0:0:0:
256,192,303188,1,8,0:0:0:0:
256,192,303331,1,0,0:0:0:0:
256,192,303616,1,8,0:0:0:0:
256,192,303759,1,0,0:0:0:0:
256,192,303902,1,8,0:0:0:0:
256,192,304045,1,0,0:0:0:0:
256,192,304331,1,8,0:0:0:0:
256,192,304473,1,0,0:0:0:0:
256,192,304759,1,0,0:0:0:0:
256,192,304902,1,8,0:0:0:0:
256,192,305188,1,0,0:0:0:0:
256,192,305473,1,8,0:0:0:0:
256,192,305616,1,0,0:0:0:0:
256,192,305902,1,8,0:0:0:0:
256,192,306045,1,0,0:0:0:0:
256,192,306188,1,0,0:0:0:0:
256,192,306331,1,8,0:0:0:0:
256,192,306616,1,8,0:0:0:0:
256,192,306759,1,0,0:0:0:0:
256,192,307045,1,0,0:0:0:0:
256,192,307188,1,8,0:0:0:0:
256,192,307473,1,0,0:0:0:0:
256,192,307616,1,0,0:0:0:0:
256,192,307759,1,8,0:0:0:0:
256,192,307902,1,0,0:0:0:0:
256,192,308188,1,8,0:0:0:0:
256,192,308331,1,0,0:0:0:0:
256,192,308402,1,0,0:0:0:0:
256,192,308473,1,8,0:0:0:0:
256,192,308616,1,0,0:0:0:0:
256,192,308902,1,8,0:0:0:0:
256,192,309045,1,0,0:0:0:0:
256,192,309331,1,0,0:0:0:0:
256,192,309473,1,8,0:0:0:0:
256,192,309759,1,0,0:0:0:0:
256,192,309902,1,0,0:0:0:0:
256,192,310045,1,8,0:0:0:0:
256,192,310331,1,0,0:0:0:0:
256,192,310473,1,8,0:0:0:0:
256,192,310759,1,8,0:0:0:0:
256,192,310902,1,0,0:0:0:0:
256,192,311188,1,8,0:0:0:0:
256,192,311331,1,0,0:0:0:0:
256,192,311616,1,0,0:0:0:0:
256,192,311902,1,0,0:0:0:0:
256,192,312045,1,8,0:0:0:0:
256,192,312188,1,0,0:0:0:0:
256,192,312259,1,0,0:0:0:0:
256,192,312331,1,8,0:0:0:0:
256,192,312616,1,0,0:0:0:0:
256,192,312759,1,8,0:0:0:0:
256,192,312902,1,0,0:0:0:0:
256,192,312973,1,0,0:0:0:0:
256,192,313045,1,8,0:0:0:0:
256,192,313188,1,0,0:0:0:0:
256,192,313473,1,8,0:0:0:0:
256,192,313616,1,8,0:0:0:0:
256,192,313759,1,0,0:0:0:0:
256,192,313902,1,0,0:0:0:0:
256,192,313973,1,0,0:0:0:0:
256,192,314045,1,8,0:0:0:0:
256,192,314331,1,0,0:0:0:0:
256,192,314473,1,0,0:0:0:0:
256,192,314616,1,8,0:0:0:0:
256,192,314688,1,8,0:0:0:0:
256,192,314759,1,0,0:0:0:0:
256,192,314902,1,0,0:0:0:0:
256,192,315045,1,8,0:0:0:0:
256,192,315331,1,8,0:0:0:0:
256,192,315473,1,0,0:0:0:0:
256,192,315759,1,8,0:0:0:0:
256,192,315902,1,0,0:0:0:0:
256,192,315973,1,8,0:0:0:0:
256,192,316045,1,8,0:0:0:0:
256,192,316116,1,0,0:0:0:0:
256,192,316259,1,0,0:0:0:0:
256,192,316331,1,8,0:0:0:0:
256,192,316616,1,0,0:0:0:0:
256,192,316759,1,0,0:0:0:0:
256,192,316902,1,8,0:0:0:0:
256,192,317188,1,0,0:0:0:0:
256,192,317259,1,0,0:0:0:0:
256,192,317331,1,8,0:0:0:0:
256,192,317402,1,0,0:0:0:0:
256,192,317473,1,0,0:0:0:0:
256,192,317616,1,8,0:0:0:0:
256,192,317759,1,0,0:0:0:0:
256,192,317902,1,0,0:0:0:0:
256,192,318045,1,8,0:0:0:0:
256,192,318188,1,8,0:0:0:0:
256,192,318331,1,0,0:0:0:0:
256,192,318402,1,0,0:0:0:0:
256,192,318473,1,8,0:0:0:0:
256,192,318616,1,8,0:0:0:0:
256,192,318902,1,0,0:0:0:0:
256,192,319045,1,0,0:0:0:0:
256,192,319188,1,8,0:0:0:0:
256,192,319473,1,8,0:0:0:0:
256,192,319616,1,0,0:0:0:0:
256,192,319759,1,8,0:0:0:0:
256,192,319902,1,8,0:0:0:0:
256,192,320045,1,4,0:0:0:0:
256,192,320473,1,0,0:0:0:0:
249,192,320545,1,0,0:0:0:0:
256,192,320616,1,8,0:0:0:0:
249,192,320759,1,0,0:0:0:0:
256,192,320902,1,8,0:0:0:0:
256,192,321045,1,8,0:0:0:0:
256,192,321188,1,0,0:0:0:0:
255,194,321616,1,0,0:0:0:0:
256,192,321688,1,0,0:0:0:0:
256,192,321759,1,8,0:0:0:0:
256,192,321902,1,0,0:0:0:0:
256,192,322331,1,8,0:0:0:0:
255,194,322473,1,8,0:0:0:0:
256,192,322616,1,0,0:0:0:0:
250,196,322688,1,0,0:0:0:0:
250,196,322759,1,0,0:0:0:0:
256,192,322902,1,8,0:0:0:0:
256,192,323045,1,8,0:0:0:0:
250,196,323188,1,0,0:0:0:0:
256,192,324045,1,8,0:0:0:0:
256,192,324116,1,8,0:0:0:0:
256,192,324188,1,0,0:0:0:0:
256,192,324331,1,0,0:0:0:0:
256,192,324473,1,8,0:0:0:0:
256,192,325046,1,8,0:0:0:0:
256,192,325189,1,0,0:0:0:0:
256,192,325259,1,0,0:0:0:0:
256,192,325331,1,0,0:0:0:0:
256,192,325473,1,8,0:0:0:0:
256,192,325616,1,0,0:0:0:0:
256,192,326188,1,0,0:0:0:0:
256,192,326332,1,8,0:0:0:0:
256,192,326473,1,0,0:0:0:0:
256,192,326902,1,0,0:0:0:0:
256,192,326973,1,0,0:0:0:0:
256,192,327045,1,0,0:0:0:0:
256,192,327189,1,8,0:0:0:0:
256,192,327331,1,0,0:0:0:0:
256,192,327473,1,8,0:0:0:0:
256,192,327545,1,8,0:0:0:0:
256,192,327616,1,0,0:0:0:0:
256,192,327760,1,0,0:0:0:0:
256,192,328045,1,8,0:0:0:0:
256,192,328473,1,0,0:0:0:0:
256,192,328616,1,8,0:0:0:0:
256,192,328759,1,0,0:0:0:0:
256,192,328831,1,0,0:0:0:0:
256,192,328903,1,8,0:0:0:0:
256,192,329046,1,8,0:0:0:0:
256,192,329188,1,4,0:0:0:0:
256,192,329617,1,0,0:0:0:0:
256,192,329760,1,8,0:0:0:0:
256,192,329902,1,0,0:0:0:0:
256,192,329973,1,0,0:0:0:0:
256,192,330045,1,8,0:0:0:0:
256,192,330188,1,0,0:0:0:0:
256,192,330759,1,8,0:0:0:0:
256,192,330903,1,0,0:0:0:0:
256,192,331045,1,8,0:0:0:0:
256,192,331474,1,0,0:0:0:0:
256,192,331616,1,0,0:0:0:0:
256,192,331688,1,0,0:0:0:0:
256,192,331760,1,8,0:0:0:0:
256,192,331902,1,8,0:0:0:0:
256,192,332046,1,0,0:0:0:0:
256,192,332188,1,0,0:0:0:0:
256,192,332332,1,8,0:0:0:0:
256,192,333045,1,0,0:0:0:0:
256,192,333189,1,8,0:0:0:0:
256,192,333473,1,0,0:0:0:0:
256,192,333617,1,8,0:0:0:0:
256,192,333758,1,8,0:0:0:0:
256,192,333902,1,0,0:0:0:0:
256,192,333973,1,0,0:0:0:0:
256,192,334046,1,8,0:0:0:0:
256,192,334188,1,0,0:0:0:0:
256,192,334331,1,8,0:0:0:0:
256,192,334402,1,8,0:0:0:0:
256,192,334473,1,0,0:0:0:0:
256,192,334545,1,0,0:0:0:0:
256,192,334616,1,8,0:0:0:0:
256,192,334759,1,8,0:0:0:0:
256,192,334902,1,0,0:0:0:0:
256,192,335116,1,0,0:0:0:0:
256,192,335188,1,8,0:0:0:0:
256,192,335331,1,0,0:0:0:0:
256,192,335402,1,0,0:0:0:0:
256,192,335473,1,8,0:0:0:0:
256,192,335616,1,0,0:0:0:0:
256,192,335759,1,8,0:0:0:0:
256,192,335831,1,8,0:0:0:0:
256,192,335902,1,0,0:0:0:0:
256,192,336044,1,0,0:0:0:0:
256,192,336331,1,8,0:0:0:0:
256,192,336473,1,0,0:0:0:0:
256,192,336545,1,0,0:0:0:0:
256,192,336616,1,0,0:0:0:0:
256,192,336759,1,8,0:0:0:0:
256,192,336831,1,8,0:0:0:0:
256,192,336902,1,0,0:0:0:0:
256,192,337045,1,8,0:0:0:0:
256,192,337187,1,0,0:0:0:0:
256,192,337259,1,0,0:0:0:0:
256,192,337331,1,8,0:0:0:0:
256,192,337473,1,8,0:0:0:0:
256,192,337616,1,0,0:0:0:0:
256,192,337759,1,8,0:0:0:0:
256,192,338045,1,8,0:0:0:0:
256,192,338116,1,8,0:0:0:0:
256,192,338188,1,0,0:0:0:0:
256,192,338259,1,0,0:0:0:0:
256,192,338331,1,12,0:0:0:0:
256,192,338473,1,0,0:0:0:0:
256,192,338616,1,8,0:0:0:0:
256,192,338688,1,0,0:0:0:0:
256,192,338759,1,8,0:0:0:0:
256,192,338831,1,8,0:0:0:0:
256,192,338902,1,0,0:0:0:0:
256,192,339045,1,0,0:0:0:0:
256,192,339188,1,8,0:0:0:0:
256,192,339259,1,8,0:0:0:0:
256,192,339331,1,0,0:0:0:0:
256,192,339402,1,0,0:0:0:0:
256,192,339473,1,8,0:0:0:0:
256,192,339545,1,0,0:0:0:0:
256,192,339616,1,8,0:0:0:0:
256,192,339688,1,8,0:0:0:0:
256,192,339759,1,0,0:0:0:0:
256,192,339902,1,0,0:0:0:0:
256,192,340045,1,8,0:0:0:0:
256,192,340116,1,8,0:0:0:0:
256,192,340188,1,0,0:0:0:0:
256,192,340259,1,0,0:0:0:0:
256,192,340331,1,8,0:0:0:0:
256,192,340402,1,8,0:0:0:0:
256,192,340473,1,0,0:0:0:0:
256,192,340616,1,8,0:0:0:0:
256,192,340759,1,0,0:0:0:0:
256,192,340902,1,8,0:0:0:0:
256,192,340973,1,0,0:0:0:0:
256,192,341045,1,0,0:0:0:0:
256,192,341116,1,0,0:0:0:0:
256,192,341188,1,8,0:0:0:0:
256,192,341259,1,8,0:0:0:0:
256,192,341331,1,0,0:0:0:0:
256,192,341402,1,0,0:0:0:0:
256,192,341473,1,8,0:0:0:0:
256,192,341616,1,8,0:0:0:0:
256,192,341759,1,8,0:0:0:0:
256,192,341831,1,0,0:0:0:0:
256,192,341902,1,0,0:0:0:0:
256,192,341973,1,0,0:0:0:0:
256,192,342045,1,8,0:0:0:0:
256,192,342188,1,0,0:0:0:0:
256,192,342259,1,0,0:0:0:0:
256,192,342331,1,8,0:0:0:0:
256,192,342402,1,8,0:0:0:0:
256,192,342473,1,0,0:0:0:0:
256,192,342545,1,8,0:0:0:0:
256,192,342616,1,0,0:0:0:0:
256,192,342759,1,0,0:0:0:0:
256,192,342902,1,8,0:0:0:0:
256,192,342973,1,8,0:0:0:0:
256,192,343045,1,0,0:0:0:0:
256,192,343116,1,0,0:0:0:0:
256,192,343188,1,8,0:0:0:0:
256,192,343259,1,8,0:0:0:0:
256,192,343331,1,8,0:0:0:0:
256,192,343402,1,0,0:0:0:0:
256,192,343473,1,8,0:0:0:0:
256,192,343616,1,0,0:0:0:0:
256,192,343759,1,8,0:0:0:0:
256,192,343831,1,8,0:0:0:0:
256,192,343902,1,0,0:0:0:0:
256,192,344045,1,8,0:0:0:0:
256,192,344116,1,0,0:0:0:0:
256,192,344188,1,0,0:0:0:0:
256,192,344259,1,0,0:0:0:0:
256,192,344331,1,8,0:0:0:0:
256,192,344402,1,0,0:0:0:0:
256,192,344473,1,8,0:0:0:0:
256,192,344545,1,8,0:0:0:0:
256,192,344616,1,0,0:0:0:0:
256,192,344688,1,0,0:0:0:0:
256,192,344759,1,0,0:0:0:0:
256,192,344831,1,0,0:0:0:0:
256,192,344902,1,8,0:0:0:0:
256,192,344973,1,8,0:0:0:0:
256,192,345045,1,0,0:0:0:0:
256,192,345188,1,8,0:0:0:0:
256,192,345331,1,8,0:0:0:0:
256,192,345473,1,0,0:0:0:0:
256,192,345545,1,0,0:0:0:0:
256,192,345616,1,8,0:0:0:0:
256,192,345688,1,8,0:0:0:0:
256,192,345759,1,0,0:0:0:0:
256,192,345831,1,8,0:0:0:0:
256,192,345902,1,8,0:0:0:0:
256,192,345973,1,0,0:0:0:0:
256,192,346045,1,0,0:0:0:0:
256,192,346116,1,0,0:0:0:0:
256,192,346188,1,8,0:0:0:0:
256,192,346331,1,8,0:0:0:0:
256,192,346473,1,0,0:0:0:0:
256,192,346545,1,0,0:0:0:0:
256,192,346616,1,8,0:0:0:0:
256,192,346688,1,0,0:0:0:0:
256,192,346759,1,0,0:0:0:0:
256,192,346831,1,0,0:0:0:0:
256,192,346902,1,8,0:0:0:0:
256,192,347045,1,0,0:0:0:0:
256,192,347188,1,8,0:0:0:0:
256,192,347259,1,8,0:0:0:0:
256,192,347331,1,8,0:0:0:0:
256,192,347402,1,8,0:0:0:0:
256,192,347473,1,0,0:0:0:0:
256,192,347616,1,0,0:0:0:0:
256,192,347759,1,8,0:0:0:0:
256,192,347831,1,8,0:0:0:0:
256,192,347902,1,0,0:0:0:0:
256,192,347973,1,0,0:0:0:0:
256,192,348045,1,8,0:0:0:0:
256,192,348188,1,8,0:0:0:0:
256,192,348331,1,0,0:0:0:0:
256,192,348402,1,0,0:0:0:0:
256,192,348473,1,8,0:0:0:0:
256,192,348545,1,8,0:0:0:0:
256,192,348616,1,0,0:0:0:0:
256,192,348688,1,8,0:0:0:0:
256,192,348759,1,0,0:0:0:0:
256,192,348831,1,0,0:0:0:0:
256,192,348902,1,8,0:0:0:0:
256,192,349045,1,0,0:0:0:0:
256,192,349188,1,8,0:0:0:0:
256,192,349259,1,8,0:0:0:0:
256,192,349331,1,0,0:0:0:0:
256,192,349402,1,8,0:0:0:0:
256,192,349473,1,0,0:0:0:0:
256,192,349545,1,0,0:0:0:0:
256,192,349616,1,0,0:0:0:0:
256,192,349688,1,0,0:0:0:0:
256,192,349759,1,8,0:0:0:0:
256,192,349902,1,8,0:0:0:0:
256,192,349973,1,8,0:0:0:0:
256,192,350045,1,0,0:0:0:0:
224,192,350116,1,0,0:0:0:0:
256,192,350188,1,8,0:0:0:0:
256,192,350259,1,8,0:0:0:0:
256,192,350331,1,0,0:0:0:0:
256,192,350402,1,8,0:0:0:0:
256,192,350473,1,0,0:0:0:0:
256,192,350545,1,0,0:0:0:0:
256,192,350616,1,8,0:0:0:0:
256,192,350759,1,0,0:0:0:0:
256,192,350902,1,8,0:0:0:0:
256,192,350973,1,0,0:0:0:0:
256,192,351045,1,0,0:0:0:0:
256,192,351116,1,0,0:0:0:0:
256,192,351188,1,8,0:0:0:0:
256,192,351259,1,8,0:0:0:0:
256,192,351331,1,0,0:0:0:0:
256,192,351402,1,8,0:0:0:0:
256,192,351473,1,0,0:0:0:0:
256,192,351616,1,0,0:0:0:0:
256,192,351688,1,0,0:0:0:0:
256,192,351759,1,8,0:0:0:0:
256,192,351902,1,8,0:0:0:0:
256,192,352045,1,4,0:0:0:0:
256,192,352188,1,8,0:0:0:0:
256,192,352259,1,8,0:0:0:0:
256,192,352331,1,0,0:0:0:0:
256,192,352402,1,0,0:0:0:0:
256,192,352473,1,8,0:0:0:0:
256,192,352616,1,0,0:0:0:0:
256,192,352688,1,0,0:0:0:0:
256,192,352759,1,0,0:0:0:0:
256,192,352902,1,8,0:0:0:0:
256,192,352973,1,8,0:0:0:0:
256,192,353045,1,0,0:0:0:0:
256,192,353116,1,0,0:0:0:0:
256,192,353188,1,8,0:0:0:0:
256,192,353259,1,0,0:0:0:0:
256,192,353331,1,0,0:0:0:0:
256,192,353402,1,0,0:0:0:0:
256,192,353473,1,8,0:0:0:0:
256,192,353545,1,8,0:0:0:0:
256,192,353616,1,8,0:0:0:0:
256,192,353688,1,8,0:0:0:0:
256,192,353759,1,0,0:0:0:0:
256,192,353831,1,0,0:0:0:0:
256,192,353902,1,8,0:0:0:0:
256,192,353973,1,0,0:0:0:0:
256,192,354045,1,8,0:0:0:0:
256,192,354188,1,0,0:0:0:0:
256,192,354331,1,8,0:0:0:0:
256,192,354402,1,0,0:0:0:0:
256,192,354473,1,0,0:0:0:0:
256,192,354545,1,0,0:0:0:0:
256,192,354616,1,8,0:0:0:0:
256,192,354688,1,8,0:0:0:0:
256,192,354759,1,0,0:0:0:0:
256,192,354831,1,8,0:0:0:0:
256,192,354902,1,8,0:0:0:0:
256,192,354973,1,8,0:0:0:0:
256,192,355045,1,0,0:0:0:0:
256,192,355116,1,0,0:0:0:0:
256,192,355188,1,8,0:0:0:0:
256,192,355331,1,0,0:0:0:0:
256,192,355402,1,0,0:0:0:0:
256,192,355473,1,8,0:0:0:0:
256,192,355616,1,8,0:0:0:0:
256,192,355688,1,0,0:0:0:0:
256,192,355759,1,0,0:0:0:0:
256,192,355831,1,0,0:0:0:0:
256,192,355902,1,8,0:0:0:0:
256,192,355973,1,8,0:0:0:0:
256,192,356045,1,8,0:0:0:0:
256,192,356116,1,8,0:0:0:0:
256,192,356188,1,0,0:0:0:0:
256,192,356259,1,0,0:0:0:0:
256,192,356331,1,8,0:0:0:0:
256,192,356473,1,8,0:0:0:0:
256,192,356616,1,4,0:0:0:0:
256,192,356759,1,8,0:0:0:0:
256,192,356902,1,8,0:0:0:0:
256,192,356973,1,0,0:0:0:0:
256,192,357045,1,0,0:0:0:0:
256,192,357116,1,0,0:0:0:0:
256,192,357188,1,8,0:0:0:0:
256,192,357331,1,8,0:0:0:0:
256,192,357473,1,8,0:0:0:0:
256,192,357545,1,8,0:0:0:0:
256,192,357616,1,0,0:0:0:0:
256,192,357688,1,0,0:0:0:0:
256,192,357759,1,8,0:0:0:0:
256,192,357831,1,0,0:0:0:0:
256,192,357902,1,0,0:0:0:0:
256,192,357973,1,0,0:0:0:0:
256,192,358045,1,8,0:0:0:0:
256,192,358116,1,8,0:0:0:0:
256,192,358188,1,0,0:0:0:0:
256,192,358259,1,0,0:0:0:0:
256,192,358331,1,8,0:0:0:0:
256,192,358402,1,8,0:0:0:0:
256,192,358473,1,8,0:0:0:0:
256,192,358545,1,8,0:0:0:0:
256,192,358616,1,0,0:0:0:0:
256,192,358688,1,8,0:0:0:0:
256,192,358759,1,0,0:0:0:0:
256,192,358831,1,0,0:0:0:0:
256,192,358902,1,8,0:0:0:0:
256,192,358973,1,0,0:0:0:0:
256,192,359045,1,0,0:0:0:0:
256,192,359116,1,0,0:0:0:0:
256,192,359188,1,8,0:0:0:0:
256,192,359259,1,8,0:0:0:0:
256,192,359331,1,8,0:0:0:0:
256,192,359402,1,8,0:0:0:0:
256,192,359473,1,0,0:0:0:0:
256,192,359545,1,8,0:0:0:0:
256,192,359616,1,0,0:0:0:0:
256,192,359688,1,0,0:0:0:0:
256,192,359759,1,8,0:0:0:0:
256,192,359831,1,0,0:0:0:0:
256,192,359902,1,0,0:0:0:0:
256,192,359973,1,0,0:0:0:0:
256,192,360045,1,8,0:0:0:0:
256,192,360116,1,8,0:0:0:0:
256,192,360188,1,0,0:0:0:0:
256,192,360259,1,0,0:0:0:0:
256,192,360331,1,8,0:0:0:0:
256,192,360402,1,8,0:0:0:0:
256,192,360473,1,8,0:0:0:0:
256,192,360545,1,8,0:0:0:0:
256,192,360616,1,0,0:0:0:0:
256,192,360688,1,8,0:0:0:0:
256,192,360759,1,8,0:0:0:0:
256,192,360831,1,8,0:0:0:0:
256,192,360902,1,0,0:0:0:0:
256,192,361045,1,0,0:0:0:0:
256,192,361188,1,8,0:0:0:0:
256,192,361331,1,0,0:0:0:0:
256,192,361403,1,0,0:0:0:0:
256,192,361474,1,8,0:0:0:0:
256,192,361546,1,0,0:0:0:0:
256,192,361617,1,0,0:0:0:0:
256,192,361688,1,0,0:0:0:0:
256,192,361760,1,8,0:0:0:0:
256,192,361831,1,8,0:0:0:0:
256,192,361903,1,0,0:0:0:0:
256,192,361974,1,8,0:0:0:0:
256,192,362046,1,0,0:0:0:0:
256,192,362117,1,0,0:0:0:0:
256,192,362188,1,8,0:0:0:0:
256,192,362331,1,8,0:0:0:0:
256,192,362402,1,0,0:0:0:0:
256,192,362473,1,0,0:0:0:0:
256,192,362545,1,0,0:0:0:0:
256,192,362616,1,8,0:0:0:0:
256,192,362688,1,8,0:0:0:0:
256,192,362759,1,0,0:0:0:0:
256,192,362831,1,8,0:0:0:0:
256,192,362902,1,0,0:0:0:0:
256,192,362973,1,0,0:0:0:0:
256,192,363045,1,0,0:0:0:0:
256,192,363116,1,0,0:0:0:0:
256,192,363188,1,8,0:0:0:0:
256,192,363259,1,0,0:0:0:0:
256,192,363331,1,0,0:0:0:0:
256,192,363402,1,0,0:0:0:0:
256,192,363473,1,8,0:0:0:0:
256,192,363616,1,0,0:0:0:0:
256,192,363688,1,0,0:0:0:0:
256,192,363759,1,8,0:0:0:0:
256,192,363831,1,0,0:0:0:0:
256,192,363902,1,0,0:0:0:0:
256,192,363973,1,0,0:0:0:0:
256,192,364045,1,8,0:0:0:0:
256,192,364116,1,0,0:0:0:0:
256,192,364188,1,8,0:0:0:0:
256,192,364259,1,8,0:0:0:0:
256,192,364331,1,8,0:0:0:0:
256,192,364402,1,8,0:0:0:0:
256,192,364473,1,0,0:0:0:0:
256,192,364545,1,8,0:0:0:0:
256,192,364616,1,8,0:0:0:0:
256,192,364688,1,8,0:0:0:0:
256,192,364759,1,0,0:0:0:0:
256,192,364831,1,0,0:0:0:0:
256,192,364902,1,8,0:0:0:0:
256,192,364973,1,0,0:0:0:0:
256,192,365045,1,0,0:0:0:0:
256,192,365116,1,0,0:0:0:0:
256,192,365188,1,8,0:0:0:0:
256,192,365331,1,8,0:0:0:0:
256,192,365473,1,0,0:0:0:0:
256,192,365616,1,8,0:0:0:0:
256,192,365759,1,0,0:0:0:0:
256,192,365831,1,0,0:0:0:0:
256,192,365902,1,8,0:0:0:0:
256,192,365973,1,0,0:0:0:0:
256,192,366045,1,8,0:0:0:0:
256,192,366116,1,8,0:0:0:0:
256,192,366188,1,0,0:0:0:0:
256,192,366259,1,0,0:0:0:0:
256,192,366331,1,8,0:0:0:0:
256,192,366402,1,8,0:0:0:0:
256,192,366473,1,8,0:0:0:0:
256,192,366545,1,8,0:0:0:0:
256,192,366616,1,0,0:0:0:0:
256,192,366759,1,8,0:0:0:0:
256,192,366902,1,8,0:0:0:0:
256,192,366973,1,0,0:0:0:0:
256,192,367045,1,0,0:0:0:0:
256,192,367116,1,0,0:0:0:0:
256,192,367188,1,8,0:0:0:0:
256,192,367259,1,8,0:0:0:0:
256,192,367331,1,0,0:0:0:0:
256,192,367402,1,0,0:0:0:0:
256,192,367473,1,8,0:0:0:0:
256,192,367545,1,0,0:0:0:0:
256,192,367616,1,0,0:0:0:0:
256,192,367688,1,0,0:0:0:0:
256,192,367759,1,8,0:0:0:0:
256,192,367831,1,8,0:0:0:0:
256,192,367902,1,0,0:0:0:0:
256,192,367973,1,0,0:0:0:0:
256,192,368045,1,8,0:0:0:0:
256,192,368188,1,0,0:0:0:0:
256,192,368259,1,0,0:0:0:0:
256,192,368331,1,8,0:0:0:0:
256,192,368402,1,8,0:0:0:0:
256,192,368473,1,8,0:0:0:0:
256,192,368545,1,8,0:0:0:0:
256,192,368616,1,0,0:0:0:0:
256,192,368688,1,8,0:0:0:0:
256,192,368759,1,0,0:0:0:0:
256,192,368831,1,0,0:0:0:0:
256,192,368902,1,8,0:0:0:0:
256,192,368973,1,0,0:0:0:0:
256,192,369045,1,8,0:0:0:0:
256,192,369116,1,8,0:0:0:0:
256,192,369188,1,0,0:0:0:0:
256,192,369259,1,0,0:0:0:0:
256,192,369331,1,8,0:0:0:0:
256,192,369402,1,0,0:0:0:0:
256,192,369473,1,0,0:0:0:0:
256,192,369545,1,0,0:0:0:0:
256,192,369616,1,8,0:0:0:0:
256,192,369688,1,8,0:0:0:0:
256,192,369759,1,0,0:0:0:0:
256,192,369831,1,8,0:0:0:0:
256,192,369902,1,0,0:0:0:0:
256,192,369973,1,0,0:0:0:0:
256,192,370045,1,8,0:0:0:0:
256,192,370116,1,8,0:0:0:0:
256,192,370188,1,8,0:0:0:0:
256,192,370259,1,8,0:0:0:0:
256,192,370331,1,0,0:0:0:0:
256,192,370473,1,0,0:0:0:0:
256,192,370545,1,0,0:0:0:0:
256,192,370616,1,8,0:0:0:0:
256,192,370688,1,0,0:0:0:0:
256,192,370759,1,8,0:0:0:0:
256,192,370831,1,8,0:0:0:0:
256,192,370902,1,8,0:0:0:0:
256,192,370973,1,8,0:0:0:0:
256,192,371045,1,0,0:0:0:0:
256,192,371116,1,0,0:0:0:0:
256,192,371188,1,8,0:0:0:0:
256,192,371331,1,0,0:0:0:0:
256,192,371473,1,8,0:0:0:0:
256,192,371545,1,8,0:0:0:0:
256,192,371616,1,0,0:0:0:0:
256,192,371688,1,0,0:0:0:0:
256,192,371759,1,8,0:0:0:0:
256,192,371831,1,0,0:0:0:0:
256,192,371902,1,0,0:0:0:0:
256,192,371973,1,0,0:0:0:0:
256,192,372045,1,8,0:0:0:0:
256,192,372116,1,8,0:0:0:0:
256,192,372188,1,0,0:0:0:0:
256,192,372259,1,8,0:0:0:0:
256,192,372331,1,8,0:0:0:0:
256,192,372402,1,8,0:0:0:0:
256,192,372473,1,0,0:0:0:0:
256,192,372545,1,0,0:0:0:0:
256,192,372616,1,8,0:0:0:0:
256,192,372759,1,0,0:0:0:0:
256,192,372902,1,8,0:0:0:0:
256,192,372973,1,8,0:0:0:0:
256,192,373045,1,8,0:0:0:0:
256,192,373116,1,8,0:0:0:0:
256,192,373188,1,0,0:0:0:0:
256,192,373259,1,8,0:0:0:0:
256,192,373331,1,0,0:0:0:0:
256,192,373402,1,0,0:0:0:0:
256,192,373473,1,8,0:0:0:0:
256,192,373545,1,0,0:0:0:0:
256,192,373616,1,0,0:0:0:0:
256,192,373688,1,0,0:0:0:0:
256,192,373759,1,8,0:0:0:0:
256,192,373902,1,8,0:0:0:0:
256,192,374045,1,0,0:0:0:0:
256,192,374116,1,0,0:0:0:0:
256,192,374188,1,8,0:0:0:0:
256,192,374259,1,0,0:0:0:0:
256,192,374331,1,8,0:0:0:0:
256,192,374402,1,8,0:0:0:0:
256,192,374473,1,8,0:0:0:0:
256,192,374545,1,8,0:0:0:0:
256,192,374616,1,0,0:0:0:0:
256,192,374759,1,0,0:0:0:0:
256,192,374902,1,12,0:0:0:0:
256,192,375045,1,0,0:0:0:0:
256,192,375188,1,8,0:0:0:0:
256,192,375259,1,8,0:0:0:0:
256,192,375331,1,0,0:0:0:0:
256,192,375402,1,0,0:0:0:0:
256,192,375473,1,8,0:0:0:0:
256,192,375616,1,0,0:0:0:0:
256,192,375759,1,8,0:0:0:0:
256,192,375831,1,0,0:0:0:0:
256,192,375902,1,8,0:0:0:0:
256,192,375973,1,8,0:0:0:0:
256,192,376045,1,0,0:0:0:0:
256,192,376188,1,0,0:0:0:0:
256,192,376331,1,8,0:0:0:0:
256,192,376473,1,8,0:0:0:0:
256,192,376545,1,8,0:0:0:0:
256,192,376616,1,0,0:0:0:0:
256,192,376759,1,0,0:0:0:0:
256,192,376831,1,0,0:0:0:0:
256,192,376902,1,8,0:0:0:0:
256,192,376973,1,0,0:0:0:0:
256,192,377045,1,8,0:0:0:0:
256,192,377116,1,8,0:0:0:0:
256,192,377188,1,0,0:0:0:0:
256,192,377331,1,0,0:0:0:0:
256,192,377402,1,0,0:0:0:0:
256,192,377473,1,8,0:0:0:0:
256,192,377616,1,0,0:0:0:0:
256,192,377759,1,8,0:0:0:0:
256,192,377831,1,8,0:0:0:0:
256,192,377902,1,0,0:0:0:0:
256,192,377973,1,0,0:0:0:0:
256,192,378045,1,8,0:0:0:0:
256,192,378188,1,0,0:0:0:0:
256,192,378259,1,0,0:0:0:0:
256,192,378331,1,8,0:0:0:0:
256,192,378473,1,0,0:0:0:0:
256,192,378616,1,8,0:0:0:0:
256,192,378759,1,0,0:0:0:0:
256,192,378831,1,0,0:0:0:0:
256,192,378902,1,8,0:0:0:0:
256,192,378973,1,8,0:0:0:0:
256,192,379045,1,0,0:0:0:0:
256,192,379188,1,8,0:0:0:0:
256,192,379331,1,0,0:0:0:0:
256,192,379402,1,0,0:0:0:0:
256,192,379473,1,8,0:0:0:0:
256,192,379616,1,0,0:0:0:0:
256,192,379759,1,8,0:0:0:0:
256,192,379902,1,0,0:0:0:0:
256,192,379973,1,8,0:0:0:0:
256,192,380045,1,0,0:0:0:0:
256,192,380188,1,0,0:0:0:0:
256,192,380331,1,8,0:0:0:0:
256,192,380402,1,8,0:0:0:0:
256,192,380473,1,0,0:0:0:0:
256,192,380545,1,8,0:0:0:0:
256,192,380616,1,0,0:0:0:0:
256,192,380759,1,0,0:0:0:0:
256,192,380902,1,8,0:0:0:0:
256,192,381045,1,8,0:0:0:0:
256,192,381116,1,8,0:0:0:0:
256,192,381188,1,0,0:0:0:0:
256,192,381331,1,0,0:0:0:0:
256,192,381473,1,8,0:0:0:0:
256,192,381616,1,8,0:0:0:0:
256,192,381688,1,8,0:0:0:0:
256,192,381759,1,0,0:0:0:0:
256,192,381902,1,0,0:0:0:0:
256,192,382045,1,8,0:0:0:0:
256,192,382188,1,0,0:0:0:0:
256,192,382259,1,0,0:0:0:0:
256,192,382331,1,8,0:0:0:0:
256,192,382473,1,0,0:0:0:0:
256,192,382616,1,8,0:0:0:0:
256,192,382759,1,8,0:0:0:0:
256,192,382831,1,8,0:0:0:0:
256,192,382902,1,0,0:0:0:0:
256,192,383045,1,0,0:0:0:0:
256,192,383188,1,8,0:0:0:0:
256,192,383331,1,8,0:0:0:0:
256,192,383402,1,8,0:0:0:0:
256,192,383473,1,0,0:0:0:0:
256,192,383616,1,0,0:0:0:0:
256,192,383759,1,8,0:0:0:0:
256,192,383902,1,8,0:0:0:0:
256,192,384045,1,0,0:0:0:0:
256,192,384331,1,8,0:0:0:0:
256,192,384616,1,0,0:0:0:0:
256,192,384759,1,0,0:0:0:0:
256,192,384902,1,8,0:0:0:0:
256,192,385188,1,0,0:0:0:0:
256,192,385473,1,8,0:0:0:0:
256,192,385616,1,8,0:0:0:0:
256,192,385759,1,0,0:0:0:0:
256,192,385902,1,0,0:0:0:0:
256,192,386045,1,8,0:0:0:0:
256,192,386331,1,0,0:0:0:0:
256,192,386616,1,8,0:0:0:0:
256,192,386902,1,0,0:0:0:0:
256,192,387045,1,0,0:0:0:0:
256,192,387188,1,8,0:0:0:0:
256,192,387473,1,0,0:0:0:0:
256,192,387759,1,8,0:0:0:0:
256,192,387902,1,8,0:0:0:0:
256,192,388045,1,0,0:0:0:0:
256,192,388188,1,0,0:0:0:0:
256,192,388331,1,8,0:0:0:0:
256,192,388616,1,0,0:0:0:0:
256,192,388902,1,8,0:0:0:0:
256,192,389188,1,0,0:0:0:0:
256,192,389331,1,0,0:0:0:0:
256,192,389473,1,8,0:0:0:0:
256,192,389759,1,0,0:0:0:0:
256,192,390045,1,8,0:0:0:0:
256,192,390188,1,8,0:0:0:0:
256,192,390331,1,0,0:0:0:0:
256,192,390473,1,0,0:0:0:0:
256,192,390616,1,8,0:0:0:0:
256,192,390902,1,0,0:0:0:0:
256,192,391188,1,8,0:0:0:0:
256,192,391473,1,0,0:0:0:0:
256,192,391616,1,0,0:0:0:0:
256,192,391759,1,8,0:0:0:0:
256,192,392045,1,0,0:0:0:0:
256,192,392188,1,0,0:0:0:0:
256,192,392331,1,8,0:0:0:0:
256,192,392473,1,8,0:0:0:0:
256,192,392616,1,0,0:0:0:0:
256,192,392759,1,0,0:0:0:0:
256,192,392902,1,8,0:0:0:0:
256,192,393188,8,0,397759,0:0:0:0:
