osu file format v14

[General]
AudioFilename: audio.mp3
AudioLeadIn: 0
PreviewTime: 35538
Countdown: 0
SampleSet: Soft
StackLeniency: 0.2
Mode: 0
LetterboxInBreaks: 0
WidescreenStoryboard: 1

[Editor]
DistanceSpacing: 0.6
BeatDivisor: 4
GridSize: 32
TimelineZoom: 4.399998

[Metadata]
Title:#NULL!*Peta (TV Size)
TitleUnicode:#NULL!*Peta (TV Size)
Artist:Null (CV: Waki Azumi), Peta (CV: Ueda Reina)
ArtistUnicode:ぬる(CV:和氣あず未)、ぺた(CV:上田麗奈)
Creator:imaginative
Version:Nevertary's Extra: Peta!
Source:ぬるぺた
Tags:nuru null & and peta -invasion of the queen bug- japanese j-pop jpop pop anime intro opening op video game videogame tokyotoon nevertary wanpachi cycopton
BeatmapID:2597312
BeatmapSetID:1244408

[Difficulty]
HPDrainRate:5.5
CircleSize:4
OverallDifficulty:9
ApproachRate:9.4
SliderMultiplier:1.7
SliderTickRate:1

[Events]
//Background and Video events
Video,65,"drum-hitnormal video pog.mp4"
0,0,"maids!.jpg",0,0
//Break Periods
//Storyboard Layer 0 (Background)
//Storyboard Layer 1 (Fail)
//Storyboard Layer 2 (Pass)
//Storyboard Layer 3 (Foreground)
//Storyboard Layer 4 (Overlay)
//Storyboard Sound Samples

[TimingPoints]
590,309.278350515464,4,2,69,65,1,0
590,-100,4,2,69,65,0,0
1517,-500,4,2,1,65,0,0
1749,-500,4,2,1,5,0,0
1827,-62.5,4,2,69,65,0,0
3450,-62.5,4,2,69,5,0,0
3528,-62.5,4,2,69,65,0,0
3605,-62.5,4,2,69,5,0,0
3682,-62.5,4,2,69,65,0,0
3760,-62.5,4,2,69,5,0,0
3837,-62.5,4,2,69,65,0,0
3914,-62.5,4,2,69,5,0,0
3992,-62.5,4,2,69,65,0,0
4069,-62.5,4,2,69,5,0,0
4146,-62.5,4,2,69,65,0,0
4224,-62.5,4,2,69,5,0,0
4301,-62.5,4,2,69,65,0,0
4997,-62.5,4,2,69,5,0,0
5074,-62.5,4,2,69,65,0,0
5151,-62.5,4,2,69,5,0,0
5229,-62.5,4,2,69,65,0,0
5306,-62.5,4,2,69,5,0,0
5383,-62.5,4,2,69,65,0,0
5461,-62.5,4,2,69,5,0,0
5538,-62.5,4,2,69,65,0,0
5693,-62.5,4,2,69,65,0,0
6079,-62.5,4,2,69,65,0,0
6157,-62.5,4,2,69,65,0,0
7471,-62.5,4,2,69,5,0,0
7548,-62.5,4,2,69,65,0,0
7626,-62.5,4,2,69,5,0,0
7703,-62.5,4,2,69,65,0,0
7780,-62.5,4,2,69,5,0,0
7858,-62.5,4,2,69,65,0,0
8167,-62.5,4,2,69,65,0,0
8244,-62.5,4,2,69,65,0,0
8321,-111.111111111111,4,2,69,65,0,0
8631,-111.111111111111,4,2,69,55,0,0
8940,-111.111111111111,4,2,69,45,0,0
9249,-111.111111111111,4,2,69,35,0,0
9559,-111.111111111111,4,2,69,25,0,0
9868,-111.111111111111,4,2,69,15,0,0
10177,-111.111111111111,4,2,69,10,0,0
10409,-111.111111111111,4,2,69,5,0,0
10486,-166.666666666667,4,2,69,50,0,0
15435,-125,4,2,69,50,0,0
20074,-500,4,2,69,50,0,0
20306,-500,4,2,69,5,0,0
20383,-100,4,2,69,70,0,0
20615,-100,4,2,69,5,0,0
20693,-100,4,2,69,70,0,0
30280,-111.111111111111,4,2,69,70,0,0
30358,-111.111111111111,4,2,1,60,0,0
31285,-111.111111111111,4,2,1,5,0,0
31363,-111.111111111111,4,2,1,60,0,0
35229,-111.111111111111,4,2,69,70,0,0
35847,-499.999999999997,4,2,69,70,0,0
36079,-499.999999999997,4,2,69,5,0,0
36157,-499.999999999997,4,2,69,70,0,0
36388,-499.999999999997,4,2,69,5,0,0
36466,-71.4285714285714,4,2,69,85,0,1
36543,-71.4285714285714,4,2,70,85,0,1
36698,-71.4285714285714,4,2,70,5,0,1
36775,-71.4285714285714,4,2,70,85,0,1
37316,-71.4285714285714,4,2,70,5,0,1
37394,-71.4285714285714,4,2,70,85,0,1
43811,-71.4285714285714,4,2,70,5,0,1
43888,-71.4285714285714,4,2,70,85,0,1
46363,-71.4285714285714,4,2,69,85,0,1
46440,-71.4285714285714,4,2,70,85,0,1
46595,-71.4285714285714,4,2,70,5,0,1
46672,-71.4285714285714,4,2,70,85,0,1
47213,-71.4285714285714,4,2,70,5,0,1
47291,-71.4285714285714,4,2,70,85,0,1
50306,-71.4285714285714,4,2,70,5,0,1
50383,-71.4285714285714,4,2,70,85,0,1
55022,-62.5,4,2,70,85,0,1
55254,-62.5,4,2,70,5,0,1
55332,-55.5555555555556,4,2,70,85,0,1
55564,-55.5555555555556,4,2,70,5,0,1
55641,-50,4,2,70,85,0,1
55873,-50,4,2,70,5,0,1
55950,-45.4545454545455,4,2,70,85,0,1
56182,-45.4545454545455,4,2,70,5,0,1
56260,-62.5,4,2,69,65,0,0
57883,-62.5,4,2,69,5,0,0
57961,-62.5,4,2,69,65,0,0
58038,-62.5,4,2,69,5,0,0
58115,-62.5,4,2,69,65,0,0
58193,-62.5,4,2,69,5,0,0
58270,-62.5,4,2,69,65,0,0
58347,-62.5,4,2,69,5,0,0
58425,-62.5,4,2,69,65,0,0
58502,-62.5,4,2,69,5,0,0
58579,-62.5,4,2,69,65,0,0
58657,-62.5,4,2,69,5,0,0
58734,-62.5,4,2,69,65,0,0
59352,-62.5,4,2,1,65,0,0
59816,-200,4,2,69,65,0,0
60048,-200,4,2,69,5,0,0

[Colours]
Combo1 : 222,150,163
Combo2 : 75,63,150
Combo3 : 182,169,214
Combo4 : 255,232,170

[HitObjects]
113,43,590,6,0,L|68:33,3,42.5,2|2|2|2,0:2|0:2|0:2|0:2,0:0:0:0:
182,91,899,2,0,L|227:81,3,42.5,2|2|2|2,0:2|0:2|0:2|0:2,0:0:0:0:
138,214,1208,5,2,0:2:0:0:
154,169,1286,1,2,0:2:0:0:
200,170,1363,1,2,0:2:0:0:
214,215,1440,1,2,0:2:0:0:
176,242,1517,6,0,L|176:269,1,25.5,8|0,0:0|0:0,0:0:0:0:
140,337,1827,6,0,B|196:364|237:314|237:314|277:268|333:297,1,204,2|0,3:2|0:0,0:0:0:0:
399,304,2136,2,0,P|390:333|362:361,3,68,2|2|2|2,0:2|0:2|0:2|0:2,0:0:0:0:
379,170,2445,6,0,B|375:77|446:57|446:57|478:80|478:119,1,204,10|0,0:2|0:0,0:0:0:0:
477,221,2754,5,2,0:2:0:0:
473,231,2832,1,2,0:2:0:0:
468,241,2909,2,0,P|400:197|274:177,1,204,2|0,3:2|0:0,0:0:0:0:
203,131,3218,6,0,B|205:106|205:106|219:90,2,45.3333333333333,2|2|2,0:2|0:2|0:2,0:0:0:0:
182,214,3373,6,0,P|172:234|130:260,1,68,2|0,0:2|0:0,0:0:0:0:
54,259,3528,2,0,P|33:249|7:207,1,68,2|0,3:2|0:0,0:0:0:0:
199,352,3682,6,0,P|194:329|207:351,1,68,10|0,0:2|0:0,0:0:0:0:
277,277,3837,6,0,P|284:255|284:280,1,68,2|0,0:2|0:0,0:0:0:0:
381,268,3992,6,0,P|395:250|386:274,1,68,2|0,0:2|0:0,0:0:0:0:
479,309,4146,6,0,P|498:297|482:316,1,68,2|0,0:2|0:0,0:0:0:0:
320,375,4301,6,0,B|292:318|342:277|342:277|388:237|359:181,1,204,2|0,3:2|0:0,0:0:0:0:
361,115,4610,2,0,P|320:128|296:154,3,68,2|2|2|2,0:2|0:2|0:2|0:2,0:0:0:0:
241,58,4919,6,0,B|239:36|239:36|226:28|226:28|226:43|226:43|241:57,1,68,10|0,0:2|0:0,0:0:0:0:
148,66,5074,6,0,B|138:46|138:46|123:42|123:42|128:57|128:57|147:65,1,68,2|0,0:2|0:0,0:0:0:0:
72,120,5229,6,0,B|56:104|56:104|41:106|41:106|50:118|50:118|71:119,1,68,2|0,0:2|0:0,0:0:0:0:
24,252,5383,6,0,P|38:230|76:206,1,68,2|0,3:2|0:0,0:0:0:0:
182,240,5538,2,0,P|194:263|195:308,1,68,2|2,0:2|0:2,0:0:0:0:
98,299,5693,6,0,P|106:278|101:301,3,68,10|2|2|2,0:2|0:2|0:2|0:2,0:0:0:0:
111,380,6002,6,0,P|84:378|45:357,1,68,2|2,3:2|0:2,0:0:0:0:
24,252,6157,6,0,P|38:230|76:206,3,68,10|2|2|2,0:2|0:2|0:2|0:2,0:0:0:0:
152,160,6466,1,2,3:2:0:0:
169,136,6543,1,2,0:2:0:0:
180,108,6620,1,10,0:2:0:0:
182,78,6697,1,10,0:2:0:0:
175,50,6775,6,0,P|155:22|126:5,3,68,2|2|2|2,3:2|0:2|0:2|0:2,0:0:0:0:
265,102,7084,1,2,0:2:0:0:
284,110,7161,1,2,0:2:0:0:
304,115,7238,1,2,0:2:0:0:
326,116,7315,1,2,0:2:0:0:
347,112,7394,6,0,P|376:98|398:68,1,68,10|0,0:2|0:0,0:0:0:0:
342,261,7548,2,0,P|339:293|354:327,1,68,2|0,0:2|0:0,0:0:0:0:
213,182,7703,2,0,P|186:163|149:159,1,68,2|0,0:2|0:0,0:0:0:0:
21,343,7858,6,0,B|83:274|148:310|148:310|154:349|127:376,1,204,2|2,3:2|0:2,0:0:0:0:
127,384,8167,2,0,P|110:351|109:318,1,68,2|2,0:2|0:2,0:0:0:0:
311,175,8321,6,0,B|330:141|361:132|388:145|412:149|424:192|425:223|413:254|379:275|340:285|298:280|273:262|242:231|259:160|178:222|141:217|114:242|108:284|108:320|108:320|110:274|115:234|130:196|213:185|177:145|191:110|180:59|185:29|175:0|143:-14|92:-19|61:14|54:57|79:108|140:93,1,1032.74996848297,2|0,3:2|0:0,0:0:0:0:
271,81,10486,6,0,P|347:57|489:247,1,356.999989105225,6|2,3:2|0:2,0:0:0:0:
260,311,11724,6,0,B|251:171|317:116|401:120|433:169|412:238|359:249,1,356.999989105225,2|0,0:2|0:0,0:0:0:0:
207,135,12961,6,0,B|154:105|90:116|87:165|60:221|-1:243|-26:195|-25:142|23:138|41:144|81:176|97:211,1,356.999989105225,2|0,0:2|0:0,0:0:0:0:
180,314,14198,6,0,B|283:396|403:312|403:312|362:242|308:256,1,356.999989105225,2|0,0:2|0:0,0:0:0:0:
103,336,15435,6,0,P|105:286|116:264,1,68,2|0,3:2|0:0,0:0:0:0:
37,71,16672,6,0,P|47:102|46:136,1,68,2|0,3:2|0:2,0:0:0:0:
261,67,17909,6,0,L|227:59,3,34,2|0|0|0,3:2|0:0|0:0|0:0,0:0:0:0:
322,126,18218,2,0,L|356:118,3,34
261,186,18528,2,0,L|227:178,3,34,2|8|8|8,3:2|0:2|0:2|0:2,0:0:0:0:
322,245,18837,2,0,L|356:237,3,34,10|8|8|8,0:2|0:2|0:2|0:2,0:0:0:0:
262,310,19146,5,10,3:2:0:0:
239,305,19223,1,8,0:2:0:0:
217,300,19300,1,8,0:2:0:0:
195,295,19377,1,8,0:2:0:0:
165,307,19455,5,8,3:2:0:0:
142,302,19532,1,8,0:2:0:0:
120,297,19609,1,10,0:2:0:0:
98,292,19686,1,8,0:2:0:0:
35,325,19765,5,10,3:2:0:0:
6,290,19842,1,8,3:2:0:0:
28,255,19919,1,8,3:2:0:0:
69,265,19997,1,8,3:2:0:0:
72,306,20074,6,0,L|79:330,1,25.5,0|0,3:2|0:0,0:0:0:0:
147,384,20383,6,0,B|161:335|161:335|156:303|156:303|170:254,1,127.5,4|0,3:2|0:0,0:0:0:0:
216,191,20693,1,10,0:2:0:0:
216,191,20847,2,0,B|179:318|179:318|180:278,1,170,2|2,0:2|3:2,0:0:0:0:
347,370,21311,1,10,0:2:0:0:
347,370,21466,2,0,B|272:324|272:324|295:239,1,170,2|2,0:2|0:2,0:0:0:0:
394,202,21930,6,0,L|371:292,1,85,10|0,0:2|0:0,0:0:0:0:
339,79,22239,2,0,L|316:169,1,85,2|0,0:2|3:2,0:0:0:0:
503,126,22548,2,0,L|480:216,1,85,10|0,0:2|0:0,0:0:0:0:
247,97,22858,6,0,B|132:66|132:66|95:104,1,170,2|8,3:2|0:2,0:0:0:0:
118,223,23321,1,2,0:2:0:0:
118,223,23476,2,0,P|140:185|184:163,1,85,2|0,0:2|3:2,0:0:0:0:
257,305,23785,2,0,P|234:267|190:245,1,85,8|0,0:2|0:0,0:0:0:0:
174,331,24095,5,0,3:2:0:0:
174,331,24249,1,0,3:2:0:0:
26,207,24404,2,0,L|49:297,1,85,10|0,0:2|0:0,0:0:0:0:
96,140,24713,2,0,L|119:230,1,85,2|0,0:2|3:2,0:0:0:0:
165,77,25022,2,0,L|188:167,1,85,10|0,0:2|0:0,0:0:0:0:
460,97,25332,6,0,B|432:122|432:122|332:91|332:91|324:59,1,170,2|8,3:2|0:2,0:0:0:0:
326,264,25796,1,0,0:0:0:0:
326,264,25950,2,0,P|333:219|358:187,1,85,2|0,0:2|3:2,0:0:0:0:
412,255,26260,1,8,0:2:0:0:
369,355,26414,6,0,B|244:376|210:251|210:251|170:117|53:139,1,425,2|0,0:2|0:0,0:0:0:0:
70,239,27342,1,0,3:2:0:0:
70,239,27497,2,0,P|94:230|71:236,1,85,10|2,0:2|0:2,0:0:0:0:
326,264,27806,6,0,L|411:245,1,85,10|2,3:2|0:2,0:0:0:0:
334,252,28115,2,0,L|419:233,1,85,10|2,3:2|0:2,0:0:0:0:
186,120,28425,6,0,L|101:139,1,85,10|2,3:2|0:2,0:0:0:0:
178,132,28734,2,0,L|93:151,1,85,10|2,3:2|0:2,0:0:0:0:
326,264,29043,5,8,3:2:0:0:
334,252,29198,1,10,3:2:0:0:
186,120,29352,5,10,3:2:0:0:
178,132,29507,1,8,3:2:0:0:
328,347,29662,6,0,L|372:338,1,42.5,10|0,3:2|3:2,0:0:0:0:
333,169,29816,2,0,L|289:178,1,42.5,8|0,3:2|3:2,0:0:0:0:
212,280,29971,5,8,3:2:0:0:
183,286,30048,1,0,3:2:0:0:
154,292,30125,1,8,3:2:0:0:
126,298,30202,1,8,3:2:0:0:
97,304,30280,5,4,3:2:0:0:
172,375,30435,1,0,0:0:0:0:
138,217,30590,2,0,L|156:298,1,76.4999976654053,2|0,0:2|0:0,0:0:0:0:
422,140,30899,5,10,0:2:0:0:
440,231,31053,2,0,P|379:221|339:178,1,114.749996498108,2|0,0:2|0:0,0:0:0:0:
333,169,31363,1,2,3:2:0:0:
463,64,31517,1,2,0:2:0:0:
286,93,31672,2,0,L|205:75,1,76.4999976654053,10|0,0:2|0:0,0:0:0:0:
17,210,31981,5,2,3:2:0:0:
107,124,32136,2,0,L|97:165,3,38.2499988327027,10|0|2|0,0:2|0:0|0:2|0:0,0:0:0:0:
153,224,32445,1,2,0:2:0:0:
147,247,32522,1,0,0:0:0:0:
142,270,32599,1,2,0:2:0:0:
136,293,32676,1,0,0:0:0:0:
131,317,32754,5,0,3:2:0:0:
246,251,32909,2,0,L|264:332,1,76.4999976654053,2|0,0:2|0:0,0:0:0:0:
387,185,33218,1,2,0:2:0:0:
459,244,33373,2,0,L|477:163,2,76.4999976654053,10|2|2,0:2|0:2|0:2,0:0:0:0:
299,85,33837,5,2,3:2:0:0:
218,131,33992,2,0,L|177:121,3,38.2499988327027,2|0|8|2,0:2|0:0|0:2|0:2,0:0:0:0:
122,59,34301,1,0,0:0:0:0:
99,53,34378,1,0,0:0:0:0:
76,48,34455,1,2,3:2:0:0:
53,42,34532,1,0,0:0:0:0:
29,37,34610,5,8,0:2:0:0:
45,163,34765,1,0,3:2:0:0:
43,169,34842,1,0,3:2:0:0:
41,175,34919,1,2,3:2:0:0:
40,181,34996,1,0,3:2:0:0:
38,187,35074,1,0,3:2:0:0:
37,193,35151,1,0,3:2:0:0:
35,200,35229,6,0,L|25:241,3,38.2499988327027,8|8|8|8,0:2|0:2|0:2|0:2,0:0:0:0:
142,332,35538,5,10,0:2:0:0:
163,297,35615,1,8,0:2:0:0:
134,266,35692,1,8,0:2:0:0:
96,283,35770,1,8,0:2:0:0:
102,329,35847,6,0,L|93:361,1,34,2|2,3:2|0:2,0:0:0:0:
476,175,36466,6,0,P|435:229|324:228,1,178.499994552612,6|0,3:2|0:0,0:0:0:0:
382,121,36775,2,0,P|392:158|377:121,1,118.999996368408,8|0,0:2|0:0,0:0:0:0:
57,87,37084,6,0,P|98:141|209:140,1,178.499994552612,0|0,3:2|0:0,0:0:0:0:
151,33,37393,2,0,P|141:70|156:33,1,118.999996368408,8|2,0:2|0:2,0:0:0:0:
409,260,37703,5,2,3:2:0:0:
382,121,37858,1,2,0:2:0:0:
267,296,38012,1,10,0:2:0:0:
294,157,38167,1,2,0:2:0:0:
494,316,38321,1,2,3:2:0:0:
467,177,38476,1,2,0:2:0:0:
350,347,38631,1,10,0:2:0:0:
207,212,38785,6,0,L|87:184,1,118.999996368408,2|0,0:2|3:2,0:0:0:0:
0,367,39095,1,2,0:2:0:0:
127,313,39249,1,10,0:2:0:0:
37,107,39404,2,0,B|59:194|59:194|104:221|104:221|128:317,1,237.999992736817,2|0,0:2|0:0,0:0:0:0:
388,103,39868,1,8,0:2:0:0:
297,81,40022,1,0,0:0:0:0:
418,235,40177,6,0,B|241:192|241:192|277:201|295:225,1,237.999992736817,0|8,3:2|0:2,0:0:0:0:
11,340,40641,2,0,L|131:312,1,118.999996368408,2|0,0:2|3:2,0:0:0:0:
363,124,40950,5,2,0:2:0:0:
215,75,41105,1,10,0:2:0:0:
376,132,41260,2,0,P|416:180|417:237,1,118.999996368408,2|0,0:2|3:2,0:0:0:0:
130,67,41569,5,2,0:2:0:0:
278,18,41724,1,10,0:2:0:0:
117,75,41879,2,0,P|77:123|76:180,1,118.999996368408,2|0,0:2|3:2,0:0:0:0:
295,365,42187,5,2,0:2:0:0:
436,333,42342,1,10,0:2:0:0:
284,369,42497,2,0,B|264:286|264:286|285:250,1,118.999996368408,2|0,0:2|3:2,0:0:0:0:
423,152,42806,5,2,0:2:0:0:
282,120,42961,1,10,0:2:0:0:
434,156,43116,2,0,B|454:73|454:73|433:37,1,118.999996368408,2|0,0:2|3:2,0:0:0:0:
340,188,43425,1,0,0:0:0:0:
466,357,43579,2,0,P|462:298|424:254,1,118.999996368408,10|0,0:2|0:0,0:0:0:0:
165,267,43888,6,0,B|231:240|274:298|274:298|313:355|375:333,1,237.999992736817,2|8,3:2|0:2,0:0:0:0:
318,35,44352,2,0,P|209:27|190:134,1,237.999992736817,2|0,0:2|0:0,0:0:0:0:
424,254,44816,1,10,0:2:0:0:
282,120,44971,1,2,0:2:0:0:
270,281,45126,6,0,L|255:344,1,59.4999981842042,8|8,0:2|0:2,0:0:0:0:
442,85,45280,1,8,0:2:0:0:
442,85,45590,5,0,3:2:0:0:
282,120,45744,1,10,0:2:0:0:
278,132,45821,1,8,0:2:0:0:
275,143,45899,2,0,L|212:128,1,59.4999981842042,8|8,0:2|0:2,0:0:0:0:
143,85,46053,5,10,0:2:0:0:
132,133,46130,1,8,0:2:0:0:
120,181,46207,1,8,0:2:0:0:
109,229,46284,1,8,0:2:0:0:
98,275,46363,6,0,B|148:254|182:302|182:302|212:344|266:323,1,178.499994552612,6|0,3:2|0:0,0:0:0:0:
359,294,46672,2,0,P|369:331|354:294,1,118.999996368408,8|0,0:2|0:0,0:0:0:0:
512,121,46981,6,0,B|462:100|428:148|428:148|398:190|344:169,1,178.499994552612,0|0,3:2|0:0,0:0:0:0:
251,140,47290,2,0,P|241:177|256:140,1,118.999996368408,8|2,0:2|0:2,0:0:0:0:
18,47,47600,5,2,3:2:0:0:
157,74,47755,1,2,0:2:0:0:
0,202,47909,1,10,0:2:0:0:
139,175,48064,1,2,0:2:0:0:
34,382,48218,1,2,3:2:0:0:
83,255,48373,1,2,0:2:0:0:
231,359,48528,1,10,0:2:0:0:
347,209,48682,6,0,L|467:181,1,118.999996368408,2|0,0:2|3:2,0:0:0:0:
512,384,48992,1,2,0:2:0:0:
427,282,49146,1,10,0:2:0:0:
231,359,49301,2,0,B|54:316|54:316|90:325|108:349,1,237.999992736817,2|0,0:2|0:0,0:0:0:0:
86,100,49765,1,8,0:2:0:0:
1,202,49919,1,2,0:2:0:0:
261,133,50074,6,0,B|322:118|322:118|348:82|348:82|424:63,1,178.499994552612,2|0,3:2|0:0,0:0:0:0:
436,62,50383,1,10,0:2:0:0:
454,264,50538,2,0,B|441:333|441:333|401:157,1,237.999992736817,2|2,0:2|0:2,0:0:0:0:
231,359,51002,1,10,0:2:0:0:
261,228,51157,1,2,0:2:0:0:
133,359,51311,6,0,P|71:374|16:356,1,118.999996368408,8|0,0:2|0:0,0:0:0:0:
379,359,51620,2,0,P|441:374|496:356,1,118.999996368408,10|2,0:2|0:2,0:0:0:0:
82,278,51930,6,0,P|67:216|85:161,1,118.999996368408,10|0,0:2|0:0,0:0:0:0:
430,278,52239,2,0,P|445:216|427:161,1,118.999996368408,10|0,0:2|0:0,0:0:0:0:
160,21,52548,6,0,L|188:141,1,118.999996368408,10|0,0:2|3:2,0:0:0:0:
160,363,52858,2,0,L|188:243,1,118.999996368408,10|2,0:2|3:2,0:0:0:0:
352,21,53167,6,0,L|324:141,1,118.999996368408,10|0,0:2|3:2,0:0:0:0:
352,363,53477,2,0,L|324:243,1,118.999996368408,10|0,0:2|3:2,0:0:0:0:
45,39,53785,5,10,3:2:0:0:
6,189,53940,1,8,3:2:0:0:
154,48,54095,5,8,3:2:0:0:
118,235,54249,1,8,3:2:0:0:
256,50,54404,5,8,3:2:0:0:
232,281,54559,1,8,3:2:0:0:
452,178,54713,5,10,3:2:0:0:
463,226,54790,1,8,3:2:0:0:
475,274,54867,1,8,3:2:0:0:
486,322,54944,1,8,3:2:0:0:
500,370,55022,6,0,B|423:350|423:350|394:310|394:310|314:293,1,204,2|0,3:2|0:0,0:0:0:0:
118,283,55332,6,0,B|213:262|213:262|242:222|242:222|327:202,1,229.499992996216,0|0,3:2|0:0,0:0:0:0:
512,191,55641,6,0,B|407:166|407:166|378:126|378:126|283:105,1,255,2|0,3:2|0:0,0:0:0:0:
58,96,55950,6,0,B|175:69|175:69|204:29|204:29|325:0,1,280.500008560181,0|0,3:2|0:0,0:0:0:0:
450,36,56260,6,0,P|490:112|404:164,1,204,6|0,3:2|0:0,0:0:0:0:
343,224,56569,2,0,P|346:266|360:292,3,68,2|2|2|2,0:2|0:2|0:2|0:2,0:0:0:0:
444,377,56878,6,0,P|379:325|249:309,1,204,10|0,0:2|0:0,0:0:0:0:
86,336,57187,5,2,0:2:0:0:
93,345,57265,1,2,0:2:0:0:
100,354,57342,2,0,B|162:351|174:288|174:288|188:228|251:228,1,204,2|0,3:2|0:0,0:0:0:0:
288,142,57651,6,0,B|280:117|280:117|263:105,2,45.3333333333333,2|2|2,0:2|0:2|0:2,0:0:0:0:
343,224,57806,6,0,P|381:241|410:242,1,68,2|0,0:2|0:0,0:0:0:0:
482,206,57961,2,0,P|499:167|500:138,1,68,2|0,3:2|0:0,0:0:0:0:
332,40,58115,6,0,P|321:18|325:44,1,68,10|0,0:2|0:0,0:0:0:0:
224,28,58270,6,0,P|204:14|220:34,1,68,2|0,0:2|0:0,0:0:0:0:
136,85,58425,6,0,P|113:79|135:92,1,68,2|0,0:2|0:0,0:0:0:0:
84,178,58579,6,0,P|61:180|85:185,1,68,2|0,0:2|0:0,0:0:0:0:
231,344,58734,6,0,B|268:258|208:214|208:214|170:224|156:260,1,204,2|0,3:2|0:0,0:0:0:0:
140,327,59043,2,0,P|103:307|86:279,3,68,2|2|2|2,0:2|0:2|0:2|0:2,0:0:0:0:
10,165,59352,5,10,3:2:0:0:
33,122,59430,1,10,3:2:0:0:
78,131,59507,1,10,3:2:0:0:
84,178,59584,1,10,3:2:0:0:
41,198,59662,1,10,3:2:0:0:
245,111,59816,6,0,L|310:93,1,63.75,2|0,3:2|0:0,0:0:0:0:
