osu file format v14

[General]
AudioFilename: audio.mp3
AudioLeadIn: 0
PreviewTime: 35538
Countdown: 0
SampleSet: Soft
StackLeniency: 0.5
Mode: 0
LetterboxInBreaks: 0
WidescreenStoryboard: 1

[Editor]
Bookmarks: 30186,40633
DistanceSpacing: 1
BeatDivisor: 4
GridSize: 8
TimelineZoom: 2.999999

[Metadata]
Title:#NULL!*Peta (TV Size)
TitleUnicode:#NULL!*Peta (TV Size)
Artist:Null (CV: Waki Azumi), Peta (CV: Ueda Reina)
ArtistUnicode:ぬる(CV:和氣あず未)、ぺた(CV:上田麗奈)
Creator:imaginative
Version:Insane
Source:ぬるぺた
Tags:nuru null & and peta -invasion of the queen bug- japanese j-pop jpop pop anime intro opening op video game videogame tokyotoon nevertary wanpachi cycopton
BeatmapID:2587222
BeatmapSetID:1244408

[Difficulty]
HPDrainRate:5
CircleSize:4
OverallDifficulty:8
ApproachRate:9.1
SliderMultiplier:1.6
SliderTickRate:1

[Events]
//Background and Video events
0,0,"gold!.jpg",0,0
Video,65,"drum-hitnormal video pog.mp4"
//Break Periods
//Storyboard Layer 0 (Background)
//Storyboard Layer 1 (Fail)
//Storyboard Layer 2 (Pass)
//Storyboard Layer 3 (Foreground)
//Storyboard Layer 4 (Overlay)
//Storyboard Sound Samples

[TimingPoints]
590,309.278350515464,4,2,69,65,1,0
590,-133.333333333333,4,2,69,65,0,0
1517,-133.333333333333,4,2,1,65,0,0
1827,-111.111111111111,4,2,69,65,0,0
8631,-111.111111111111,4,2,69,55,0,0
8940,-111.111111111111,4,2,69,45,0,0
9249,-111.111111111111,4,2,69,35,0,0
9559,-111.111111111111,4,2,69,25,0,0
9868,-111.111111111111,4,2,69,15,0,0
10177,-111.111111111111,4,2,69,10,0,0
10409,-111.111111111111,4,2,69,5,0,0
10486,-153.846153846154,4,2,69,50,0,0
19765,-136.986301369863,4,2,69,50,0,0
20383,-125,4,2,69,70,0,0
30358,-125,4,2,1,60,0,0
35229,-111.111111111111,4,2,69,70,0,0
35847,-133.333333333333,4,2,69,70,0,0
36079,-133.333333333333,4,2,69,5,0,0
36157,-133.333333333333,4,2,69,70,0,0
36388,-133.333333333333,4,2,69,5,0,0
36466,-100,4,2,69,85,0,1
36543,-100,4,2,70,85,0,1
36698,-100,4,2,70,5,0,1
36775,-100,4,2,70,85,0,1
43811,-100,4,2,70,5,0,1
43888,-100,4,2,70,85,0,1
46363,-100,4,2,69,85,0,1
46440,-100,4,2,70,85,0,1
46595,-100,4,2,70,5,0,1
46672,-100,4,2,70,85,0,1
55022,-90.9090909090909,4,2,70,85,0,1
55254,-90.9090909090909,4,2,70,5,0,1
55332,-90.9090909090909,4,2,70,85,0,1
55564,-90.9090909090909,4,2,70,5,0,1
55641,-90.9090909090909,4,2,70,85,0,1
55873,-90.9090909090909,4,2,70,5,0,1
55950,-90.9090909090909,4,2,70,85,0,1
56182,-90.9090909090909,4,2,70,5,0,1
56260,-111.111111111111,4,2,69,65,0,0
59352,-111.111111111111,4,2,1,65,0,0
59816,-111.111111111111,4,2,69,65,0,0

[Colours]
Combo1 : 222,150,163
Combo2 : 75,63,150
Combo3 : 182,169,214
Combo4 : 255,232,170

[HitObjects]
211,109,590,6,0,L|170:118,3,30.0000011444092,2|2|2|2,0:2|0:2|0:2|0:2,0:0:0:0:
284,155,899,2,0,L|319:168,3,30.0000011444092,2|2|2|2,0:2|0:2|0:2|0:2,0:0:0:0:
195,220,1208,2,0,L|154:229,3,30.0000011444092,2|2|2|2,0:2|0:2|0:2|0:2,0:0:0:0:
298,299,1517,1,8,0:0:0:0:
298,299,1827,5,2,3:2:0:0:
222,168,1981,1,2,0:2:0:0:
170,319,2136,1,2,0:2:0:0:
149,336,2213,1,2,0:2:0:0:
123,343,2290,1,2,0:2:0:0:
97,340,2367,1,2,0:2:0:0:
73,327,2445,2,0,L|80:255,1,71.9999978027344,10|0,0:2|0:0,0:0:0:0:
90,150,2754,5,2,0:2:0:0:
92,123,2831,1,2,0:2:0:0:
95,96,2908,1,2,3:2:0:0:
97,69,2985,1,2,0:2:0:0:
100,42,3063,1,2,0:2:0:0:
194,143,3218,6,0,L|199:179,3,23.9999992675781,2|2|2|2,0:2|0:2|0:2|0:2,0:0:0:0:
181,37,3528,1,2,3:2:0:0:
314,162,3682,1,10,0:2:0:0:
308,46,3837,1,2,0:2:0:0:
198,167,3991,1,2,0:2:0:0:
193,52,4146,1,2,0:2:0:0:
329,177,4301,6,0,L|327:250,1,71.9999978027344,2|0,3:2|0:0,0:0:0:0:
320,287,4533,1,0,0:0:0:0:
320,287,4610,2,0,L|279:307,3,35.9999989013672,2|2|2|2,0:2|0:2|0:2|0:2,0:0:0:0:
404,247,4919,1,10,0:2:0:0:
451,361,5074,1,2,0:2:0:0:
502,233,5229,1,2,0:2:0:0:
451,382,5383,1,2,3:2:0:0:
386,226,5538,5,2,0:2:0:0:
362,212,5615,1,2,0:2:0:0:
336,207,5692,1,10,0:2:0:0:
310,211,5769,1,2,0:2:0:0:
286,224,5847,2,0,L|290:261,3,35.9999989013672,2|2|2|2,0:2|0:2|3:2|0:2,0:0:0:0:
207,234,6157,5,10,0:2:0:0:
183,248,6234,1,2,0:2:0:0:
157,253,6311,1,2,0:2:0:0:
131,249,6388,1,2,0:2:0:0:
107,236,6466,2,0,L|115:188,3,35.9999989013672,2|2|10|10,3:2|0:2|0:2|0:2,0:0:0:0:
92,331,6775,6,0,L|57:315,3,35.9999989013672,2|2|2|2,3:2|0:2|0:2|0:2,0:0:0:0:
126,350,7084,1,2,0:2:0:0:
152,348,7161,1,2,0:2:0:0:
179,347,7238,1,2,0:2:0:0:
206,345,7315,1,2,0:2:0:0:
233,344,7393,5,10,0:2:0:0:
233,230,7548,1,2,0:2:0:0:
345,229,7703,1,2,0:2:0:0:
345,344,7858,1,2,3:2:0:0:
346,201,8012,5,2,0:2:0:0:
345,174,8089,1,2,0:2:0:0:
345,147,8166,1,2,0:2:0:0:
345,120,8243,1,2,0:2:0:0:
328,83,8321,1,2,3:2:0:0:
256,192,8399,12,6,10486,3:2:0:0:
256,192,11724,5,2,0:2:0:0:
186,123,12961,1,2,0:2:0:0:
186,123,14198,1,2,0:2:0:0:
117,193,15435,5,2,3:2:0:0:
186,263,16672,1,2,3:2:0:0:
256,192,17909,6,0,B|299:152|299:152|397:174,1,155.999992858887,2|0,3:2|0:0,0:0:0:0:
488,211,18528,2,0,P|493:241|485:263,1,51.999997619629,2|8,3:2|0:2,0:0:0:0:
436,346,18837,2,0,L|380:348,1,51.999997619629,10|8,0:2|0:2,0:0:0:0:
289,351,19146,6,0,L|294:382,3,25.9999988098145,10|8|8|8,3:2|0:2|0:2|0:2,0:0:0:0:
201,309,19455,2,0,L|199:343,3,25.9999988098145,8|8|10|8,3:2|0:2|0:2|0:2,0:0:0:0:
294,236,19765,2,0,L|299:267,3,29.200000802002,10|8|8|8,3:2|3:2|3:2|3:2,0:0:0:0:
202,170,20074,1,0,3:2:0:0:
202,170,20383,6,0,P|168:162|128:175,1,64,4|0,3:2|0:0,0:0:0:0:
50,203,20693,1,10,0:2:0:0:
109,289,20847,2,0,L|265:295,1,128,2|2,0:2|3:2,0:0:0:0:
319,298,21311,1,10,0:2:0:0:
327,196,21466,6,0,L|332:126,1,64,2|0,0:2|3:2,0:0:0:0:
437,250,21775,1,2,0:2:0:0:
429,148,21930,2,0,L|424:78,1,64,10|0,0:2|0:0,0:0:0:0:
334,17,22239,2,0,P|304:9|260:24,1,64,2|0,0:2|3:2,0:0:0:0:
177,60,22548,2,0,P|147:68|103:53,1,64,10|0,0:2|0:0,0:0:0:0:
272,16,22858,6,0,B|301:50|301:50|283:151,1,128,2|8,3:2|0:2,0:0:0:0:
234,228,23321,1,2,0:2:0:0:
234,228,23476,2,0,B|158:229,1,64,2|0,0:2|3:2,0:0:0:0:
124,332,23785,2,0,B|187:331,1,64,8|0,0:2|0:0,0:0:0:0:
276,323,24095,5,0,3:2:0:0:
368,303,24249,1,0,3:2:0:0:
460,283,24404,2,0,L|461:205,1,64,10|0,0:2|0:0,0:0:0:0:
381,102,24713,2,0,L|380:165,1,64,2|0,0:2|3:2,0:0:0:0:
344,282,25022,2,0,P|310:292|279:280,1,64,10|0,0:2|0:0,0:0:0:0:
199,195,25332,6,0,B|123:183|156:246|72:232,1,128,2|8,3:2|0:2,0:0:0:0:
107,330,25796,1,0,0:0:0:0:
83,233,25950,2,0,L|86:168,1,64,2|0,0:2|3:2,0:0:0:0:
110,347,26260,1,8,0:2:0:0:
0,266,26414,6,0,L|6:136,1,128,2|0,0:2|0:0,0:0:0:0:
43,37,26878,1,8,0:2:0:0:
43,37,27033,2,0,P|80:30|107:40,1,64
189,89,27342,1,0,3:2:0:0:
134,174,27497,1,10,0:2:0:0:
197,76,27651,1,2,0:2:0:0:
247,193,27806,6,0,L|243:266,1,64,10|2,3:2|0:2,0:0:0:0:
344,163,28115,2,0,L|348:236,1,64,10|2,3:2|0:2,0:0:0:0:
254,75,28425,1,10,3:2:0:0:
344,163,28579,1,2,0:2:0:0:
252,56,28734,1,10,3:2:0:0:
224,198,28888,6,0,P|190:208|159:198,1,64,2|8,0:2|3:2,0:0:0:0:
60,149,29198,1,10,3:2:0:0:
165,96,29352,2,0,P|195:89|226:99,1,64,10|8,3:2|3:2,0:0:0:0:
167,263,29662,2,0,L|163:200,1,64,10|8,3:2|3:2,0:0:0:0:
175,343,29971,2,0,L|176:374,3,32,8|0|8|8,3:2|3:2|3:2|3:2,0:0:0:0:
251,269,30280,5,4,3:2:0:0:
335,44,30590,2,0,P|344:77|334:108,1,64,2|0,0:2|0:0,0:0:0:0:
275,193,30899,1,10,0:2:0:0:
206,104,31053,6,0,B|130:92|163:155|79:141,1,128,2|2,0:2|3:2,0:0:0:0:
61,47,31517,1,2,0:2:0:0:
90,142,31672,2,0,L|92:272,1,128,10|2,0:2|3:2,0:0:0:0:
80,358,32136,2,0,L|48:376,3,32,10|0|2|0,0:2|0:0|0:2|0:0,0:0:0:0:
165,335,32445,2,0,L|209:357,3,32,2|0|2|0,0:2|0:0|0:2|0:0,0:0:0:0:
91,269,32754,5,0,3:2:0:0:
173,209,32909,2,0,P|209:198|240:210,1,64,2|0,0:2|0:0,0:0:0:0:
316,260,33218,1,2,0:2:0:0:
316,260,33373,2,0,P|352:271|383:259,1,64,10|2,0:2|0:2,0:0:0:0:
464,205,33682,1,2,0:2:0:0:
464,205,33837,1,2,3:2:0:0:
401,99,33992,6,0,L|323:107,1,64,2|8,0:2|0:2,0:0:0:0:
310,122,34224,1,2,0:2:0:0:
310,122,34301,2,0,P|301:159|315:190,1,64,0|2,0:0|3:2,0:0:0:0:
312,293,34610,2,0,L|244:296,1,64,8|0,0:2|3:2,0:0:0:0:
217,285,34842,1,0,3:2:0:0:
217,285,34919,2,0,L|149:288,1,64,2|0,3:2|3:2,0:0:0:0:
21,284,35229,5,8,0:2:0:0:
21,284,35306,1,8,0:2:0:0:
21,284,35383,2,0,L|14:339,1,35.9999989013672,8|8,0:2|0:2,0:0:0:0:
148,323,35538,1,10,0:2:0:0:
148,323,35615,1,8,0:2:0:0:
148,323,35692,2,0,L|155:268,1,35.9999989013672,8|8,0:2|0:2,0:0:0:0:
137,151,35847,6,0,B|39:156,1,90.0000034332277,2|0,3:2|0:0,0:0:0:0:
48,183,36157,6,0,B|137:178,1,90.0000034332277,2|0,0:2|0:0,0:0:0:0:
221,139,36466,6,0,B|256:168|256:168|245:251,1,120,6|0,3:2|0:0,0:0:0:0:
236,281,36775,2,0,P|198:294|156:282,1,80,8|0,0:2|0:0,0:0:0:0:
0,208,37084,2,0,P|38:221|80:209,1,80,0|0,3:2|0:0,0:0:0:0:
198,138,37394,1,8,0:2:0:0:
75,211,37548,1,2,0:2:0:0:
224,124,37703,5,2,3:2:0:0:
268,230,37858,1,2,0:2:0:0:
224,124,38012,1,10,0:2:0:0:
268,230,38167,1,2,0:2:0:0:
356,122,38321,5,2,3:2:0:0:
219,101,38476,1,2,0:2:0:0:
382,128,38631,1,10,0:2:0:0:
191,93,38785,6,0,B|106:75|127:143|39:125,1,160,2|2,0:2|0:2,0:0:0:0:
214,179,39249,1,10,0:2:0:0:
40,125,39404,2,0,B|3:162|3:162|20:278,1,160,2|0,0:2|0:0,0:0:0:0:
87,351,39868,2,0,P|140:360|163:348,1,80,8|0,0:2|0:0,0:0:0:0:
131,166,40177,2,0,B|112:184|112:184|121:242,1,80,0|0,3:2|0:0,0:0:0:0:
226,307,40486,1,8,0:2:0:0:
299,162,40641,6,0,L|301:65,1,80,2|0,0:2|3:2,0:0:0:0:
293,274,40950,1,2,0:2:0:0:
299,162,41105,1,10,0:2:0:0:
291,294,41260,2,0,L|194:292,1,80,2|0,0:2|3:2,0:0:0:0:
403,300,41569,1,2,0:2:0:0:
291,294,41724,1,10,0:2:0:0:
427,300,41878,6,0,L|425:397,1,80,2|0,0:2|3:2,0:0:0:0:
433,188,42187,1,2,0:2:0:0:
427,300,42342,1,10,0:2:0:0:
433,168,42497,2,0,L|530:170,1,80,2|0,0:2|3:2,0:0:0:0:
321,162,42806,1,2,0:2:0:0:
433,168,42961,1,10,0:2:0:0:
294,163,43115,6,0,L|290:337,1,160,2|0,0:2|0:0,0:0:0:0:
212,222,43579,2,0,B|137:215|171:266|92:253,1,120,10|0,0:2|0:0,0:0:0:0:
61,253,43888,6,0,B|28:283|28:283|39:159,1,160,2|8,3:2|0:2,0:0:0:0:
60,62,44352,2,0,P|129:29|203:75,1,160,2|0,0:2|0:0,0:0:0:0:
258,187,44816,1,10,0:2:0:0:
197,65,44971,1,2,0:2:0:0:
100,229,45126,5,8,0:2:0:0:
100,229,45203,1,8,0:2:0:0:
100,229,45280,2,0,L|149:220,1,40,8|0,0:2|0:0,0:0:0:0:
258,187,45435,2,0,P|271:227|254:275,1,80,2|0,0:2|3:2,0:0:0:0:
183,352,45744,5,10,0:2:0:0:
157,358,45821,1,8,0:2:0:0:
131,364,45899,2,0,L|72:357,1,40,8|8,0:2|0:2,0:0:0:0:
41,210,46053,5,10,0:2:0:0:
67,204,46130,1,8,0:2:0:0:
93,198,46208,2,0,L|152:205,1,40,8|8,0:2|0:2,0:0:0:0:
283,272,46363,6,0,B|334:242|334:242|390:271,1,120,6|0,3:2|0:0,0:0:0:0:
423,287,46672,2,0,L|417:203,1,80,8|0,0:2|0:0,0:0:0:0:
398,78,46981,2,0,P|359:65|313:83,1,80,0|0,3:2|0:0,0:0:0:0:
249,201,47291,1,8,0:2:0:0:
322,75,47445,1,2,0:2:0:0:
360,230,47600,5,2,3:2:0:0:
250,178,47754,1,2,0:2:0:0:
360,230,47909,1,10,0:2:0:0:
250,178,48063,1,2,0:2:0:0:
286,306,48218,5,2,3:2:0:0:
249,159,48373,1,2,0:2:0:0:
192,315,48528,1,10,0:2:0:0:
152,136,48682,6,0,B|69:119|80:186|0:168,1,160,2|2,0:2|0:2,0:0:0:0:
33,49,49146,1,10,0:2:0:0:
152,136,49301,2,0,L|156:300,1,160,2|0,0:2|0:0,0:0:0:0:
242,212,49765,1,8,0:2:0:0:
155,295,49919,1,2,0:2:0:0:
263,198,50074,6,0,P|309:186|343:203,1,80,2|0,3:2|0:0,0:0:0:0:
439,294,50383,1,10,0:2:0:0:
431,200,50538,2,0,L|427:114,1,80,2|0,0:2|3:2,0:0:0:0:
417,18,50847,1,2,0:2:0:0:
321,62,51002,1,10,0:2:0:0:
438,9,51157,1,2,0:2:0:0:
303,75,51311,6,0,L|309:168,1,80,8|0,0:2|0:0,0:0:0:0:
317,291,51620,1,10,0:2:0:0:
221,300,51775,1,2,0:2:0:0:
131,308,51930,2,0,L|38:314,1,80,10|0,0:2|0:0,0:0:0:0:
35,76,52239,2,0,L|41:169,1,80,10|0,0:2|0:0,0:0:0:0:
51,313,52548,6,0,L|45:233,1,80,10|0,0:2|3:2,0:0:0:0:
167,64,52858,1,10,0:2:0:0:
172,154,53013,1,2,3:2:0:0:
179,246,53168,2,0,L|185:339,1,80,10|0,0:2|3:2,0:0:0:0:
255,137,53476,2,0,L|334:131,1,80,10|0,0:2|3:2,0:0:0:0:
485,111,53785,5,10,3:2:0:0:
316,130,53940,1,8,3:2:0:0:
492,187,54095,5,8,3:2:0:0:
323,206,54250,1,8,3:2:0:0:
498,266,54404,5,8,3:2:0:0:
329,285,54559,1,8,3:2:0:0:
504,345,54713,5,10,3:2:0:0:
504,345,54791,1,8,3:2:0:0:
504,345,54868,2,0,L|459:352,1,40,8|8,3:2|3:2,0:0:0:0:
318,348,55022,6,0,P|260:327|192:354,1,132.00000402832,2|0,3:2|0:0,0:0:0:0:
193,327,55332,6,0,P|253:303|314:324,1,132.00000402832,0|0,3:2|0:0,0:0:0:0:
423,367,55641,6,0,L|419:231,1,132.00000402832,2|0,3:2|0:0,0:0:0:0:
393,235,55950,6,0,L|396:366,1,132.00000402832,0|0,3:2|0:0,0:0:0:0:
396,366,56260,5,6,3:2:0:0:
309,263,56414,1,2,0:2:0:0:
221,353,56569,1,2,0:2:0:0:
200,370,56646,1,2,0:2:0:0:
174,377,56723,1,2,0:2:0:0:
148,374,56800,1,2,0:2:0:0:
124,361,56878,2,0,L|131:289,1,71.9999978027344,10|0,0:2|0:0,0:0:0:0:
141,184,57187,5,2,0:2:0:0:
143,157,57264,1,2,0:2:0:0:
146,130,57341,1,2,3:2:0:0:
148,103,57418,1,2,0:2:0:0:
151,76,57496,1,2,0:2:0:0:
260,198,57651,6,0,L|271:226,3,23.9999992675781,2|2|2|2,0:2|0:2|0:2|0:2,0:0:0:0:
151,76,57961,1,2,3:2:0:0:
129,185,58115,1,10,0:2:0:0:
258,120,58270,1,2,0:2:0:0:
109,197,58425,1,2,0:2:0:0:
275,110,58580,1,2,0:2:0:0:
40,148,58734,6,0,B|33:228|33:228,1,71.9999978027344,2|0,3:2|0:0,0:0:0:0:
35,260,58966,1,0,0:0:0:0:
35,260,59043,2,0,L|4:278,3,35.9999989013672,2|2|2|2,0:2|0:2|0:2|0:2,0:0:0:0:
111,208,59352,5,10,3:2:0:0:
142,189,59429,1,10,3:2:0:0:
177,185,59506,1,10,3:2:0:0:
211,198,59583,1,10,3:2:0:0:
235,224,59662,2,0,L|235:267,1,35.9999989013672,10|0,3:2|0:0,0:0:0:0:
234,90,59816,5,2,3:2:0:0:
