osu file format v14

[General]
AudioFilename: audio.mp3
AudioLeadIn: 0
PreviewTime: 35538
Countdown: 0
SampleSet: Soft
StackLeniency: 0.5
Mode: 0
LetterboxInBreaks: 0
WidescreenStoryboard: 1

[Editor]
Bookmarks: 30186,40633,46371
DistanceSpacing: 1.5
BeatDivisor: 4
GridSize: 8
TimelineZoom: 2.999999

[Metadata]
Title:#NULL!*Peta (TV Size)
TitleUnicode:#NULL!*Peta (TV Size)
Artist:Null (CV: Waki Azumi), Peta (CV: Ueda Reina)
ArtistUnicode:ぬる(CV:和氣あず未)、ぺた(CV:上田麗奈)
Creator:imaginative
Version:Hard
Source:ぬるぺた
Tags:nuru null & and peta -invasion of the queen bug- japanese j-pop jpop pop anime intro opening op video game videogame tokyotoon nevertary wanpachi cycopton
BeatmapID:2597960
BeatmapSetID:1244408

[Difficulty]
HPDrainRate:4.5
CircleSize:3.7
OverallDifficulty:6.5
ApproachRate:8
SliderMultiplier:1.3
SliderTickRate:1

[Events]
//Background and Video events
0,0,"food!.jpg",0,0
Video,65,"drum-hitnormal video pog.mp4"
//Break Periods
//Storyboard Layer 0 (Background)
//Storyboard Layer 1 (Fail)
//Storyboard Layer 2 (Pass)
//Storyboard Layer 3 (Foreground)
//Storyboard Layer 4 (Overlay)
//Storyboard Sound Samples

[TimingPoints]
590,309.278350515464,4,2,69,65,1,0
590,-133.333333333333,4,2,69,65,0,0
1517,-133.333333333333,4,2,1,65,0,0
1749,-133.333333333333,4,2,1,5,0,0
1827,-105.263157894737,4,2,69,65,0,0
8631,-111.111111111111,4,2,69,55,0,0
8940,-111.111111111111,4,2,69,45,0,0
9249,-111.111111111111,4,2,69,35,0,0
9559,-111.111111111111,4,2,69,25,0,0
9868,-111.111111111111,4,2,69,15,0,0
10177,-111.111111111111,4,2,69,10,0,0
10409,-111.111111111111,4,2,69,5,0,0
10486,-133.333333333333,4,2,69,50,0,0
18528,-125,4,2,69,50,0,0
19146,-111.111111111111,4,2,69,50,0,0
20383,-117.647058823529,4,2,69,70,0,0
30358,-117.647058823529,4,2,1,60,0,0
35229,-111.111111111111,4,2,69,70,0,0
35847,-133.333333333333,4,2,69,70,0,0
36079,-133.333333333333,4,2,69,5,0,0
36157,-133.333333333333,4,2,69,70,0,0
36388,-133.333333333333,4,2,69,5,0,0
36466,-100,4,2,69,85,0,1
36543,-100,4,2,70,85,0,1
36698,-100,4,2,70,5,0,1
36775,-100,4,2,70,85,0,1
43811,-100,4,2,70,5,0,1
43888,-100,4,2,70,85,0,1
46363,-100,4,2,69,85,0,1
46440,-100,4,2,70,85,0,1
46595,-100,4,2,70,5,0,1
46672,-100,4,2,70,85,0,1
55254,-100,4,2,70,5,0,1
55332,-100,4,2,70,85,0,1
55564,-100,4,2,70,5,0,1
55641,-100,4,2,70,85,0,1
55873,-100,4,2,70,5,0,1
55950,-100,4,2,70,85,0,1
56182,-100,4,2,70,5,0,1
56260,-111.111111111111,4,2,69,65,0,0
59352,-111.111111111111,4,2,1,65,0,0
59816,-111.111111111111,4,2,69,65,0,0

[Colours]
Combo1 : 222,150,163
Combo2 : 75,63,150
Combo3 : 182,169,214
Combo4 : 255,232,170

[HitObjects]
86,15,590,6,0,L|82:57,2,24.3750009298325,2|2|2,0:2|0:2|0:2,0:0:0:0:
161,44,899,2,0,L|163:84,2,24.3750009298325,2|2|2,0:2|0:2|0:2,0:0:0:0:
232,6,1208,2,0,L|237:48,2,24.3750009298325,2|2|2,0:2|0:2|0:2,0:0:0:0:
321,32,1517,2,0,L|315:117,1,73.1250027894975,8|0,0:0|0:0,0:0:0:0:
307,151,1827,6,0,P|270:164|240:150,1,61.7499983510972,2|2,3:2|0:2,0:0:0:0:
165,118,2136,2,0,L|169:82,2,30.8749991755486,2|2|2,0:2|0:2|0:2,0:0:0:0:
154,203,2445,2,0,L|147:265,1,61.7499983510972,10|0,0:2|0:0,0:0:0:0:
150,350,2754,2,0,L|146:386,2,30.8749991755486,2|2|2,0:2|0:2|3:2,0:0:0:0:
229,314,3064,6,0,P|259:306|290:318,1,61.7499983510972,2|2,0:2|0:2,0:0:0:0:
332,332,3296,1,2,0:0:0:0:
332,332,3373,1,2,0:2:0:0:
422,341,3528,1,2,3:2:0:0:
422,341,3682,2,0,P|457:349|491:337,1,61.7499983510972,10|2,0:2|0:2,0:0:0:0:
500,258,3992,2,0,L|498:191,1,61.7499983510972,2|2,0:2|0:2,0:0:0:0:
470,113,4301,6,0,P|444:103|405:115,1,61.7499983510972,2|0,3:2|0:0,0:0:0:0:
374,111,4533,1,0,0:0:0:0:
374,111,4610,2,0,L|368:81,2,30.8749991755486,2|2|2,0:2|0:2|0:2,0:0:0:0:
296,145,4919,5,10,0:2:0:0:
296,145,5074,1,2,0:2:0:0:
307,236,5229,1,2,0:2:0:0:
307,236,5383,1,2,3:2:0:0:
310,323,5538,6,0,L|316:364,2,30.8749991755486,2|2|10,0:2|0:2|0:2,0:0:0:0:
225,339,5847,2,0,L|225:379,2,30.8749991755486,2|2|2,0:2|0:2|3:2,0:0:0:0:
163,293,6157,1,10,0:2:0:0:
163,293,6234,1,2,0:2:0:0:
163,293,6311,1,2,0:2:0:0:
81,323,6466,2,0,L|85:362,2,30.8749991755486,2|2|10,3:2|0:2|0:2,0:0:0:0:
45,255,6775,5,2,3:2:0:0:
45,255,6852,1,2,0:2:0:0:
45,255,6930,1,2,0:2:0:0:
84,178,7084,2,0,P|115:169|147:179,1,61.7499983510972,2|2,0:2|0:2,0:0:0:0:
220,226,7394,5,10,0:2:0:0:
220,226,7548,1,2,0:2:0:0:
285,291,7703,1,2,0:2:0:0:
285,291,7858,1,2,3:2:0:0:
352,344,8012,2,0,L|346:385,2,30.8749991755486,2|2|2,0:2|0:2|0:2,0:0:0:0:
372,259,8321,5,2,3:2:0:0:
256,192,8399,12,6,10486,3:2:0:0:
256,192,10796,5,2,0:2:0:0:
256,192,10950,2,0,P|210:178|164:192,1,97.50000371933,2|2,0:2|0:2,0:0:0:0:
101,236,11414,1,2,0:2:0:0:
101,236,11568,2,0,P|55:250|9:236,1,97.50000371933,2|2,0:2|0:2,0:0:0:0:
53,170,12033,1,2,0:2:0:0:
73,16,12342,2,0,L|131:16,1,48.750001859665,2|0,0:2|0:0,0:0:0:0:
181,67,12651,2,0,L|188:115,1,48.750001859665,2|0,0:2|0:0,0:0:0:0:
154,186,12961,6,0,P|202:194|249:162,1,97.50000371933,2|0,0:2|0:0,0:0:0:0:
292,105,13425,1,2,0:2:0:0:
292,105,13579,2,0,P|342:86|393:115,1,97.50000371933,2|0,0:2|0:0,0:0:0:0:
459,238,14198,1,2,0:2:0:0:
381,102,14507,2,0,L|381:160,1,48.750001859665,2|0,0:2|0:0,0:0:0:0:
303,163,14816,2,0,L|252:192,1,48.750001859665,2|0,0:2|0:0,0:0:0:0:
218,120,15126,2,0,L|167:90,1,48.750001859665,2|0,0:2|0:0,0:0:0:0:
214,27,15435,6,0,B|260:8|260:8|318:31,1,97.50000371933,2|0,3:2|0:0,0:0:0:0:
444,93,16053,2,0,L|446:206,1,97.50000371933,2|0,0:2|0:0,0:0:0:0:
441,268,16517,2,0,P|391:284|345:264,1,97.50000371933,2|2,0:2|0:2,0:0:0:0:
285,226,16981,1,2,0:2:0:0:
285,226,17136,1,2,0:2:0:0:
145,42,17600,2,0,L|140:95,1,48.750001859665,2|0,0:2|0:0,0:0:0:0:
86,147,17909,6,0,L|101:306,1,146.250005578995,2|0,3:2|0:0,0:0:0:0:
168,340,18528,2,0,P|193:347|226:337,1,52,2|8,3:2|0:2,0:0:0:0:
284,299,18837,2,0,P|312:291|342:302,1,52,10|8,0:2|0:2,0:0:0:0:
425,329,19146,5,10,3:2:0:0:
425,329,19224,1,8,0:2:0:0:
425,329,19301,1,8,0:2:0:0:
457,247,19455,2,0,L|489:250,2,29.2499991073609,8|8|10,3:2|0:2|0:2,0:0:0:0:
424,175,19765,5,10,3:2:0:0:
424,175,19843,1,8,3:2:0:0:
424,175,19920,1,8,3:2:0:0:
450,91,20074,1,0,3:2:0:0:
311,0,20383,5,4,3:2:0:0:
184,107,20693,1,10,0:2:0:0:
184,107,20847,2,0,L|191:219,1,110.50000210762,2|2,0:2|3:2,0:0:0:0:
147,288,21311,1,10,0:2:0:0:
147,288,21466,2,0,P|194:299|252:270,1,110.50000210762,2|2,0:2|0:2,0:0:0:0:
290,202,21930,1,10,0:2:0:0:
134,143,22239,2,0,L|127:206,1,55.2500010538101,2|0,0:2|3:2,0:0:0:0:
91,272,22548,2,0,L|101:341,1,55.2500010538101,10|0,0:2|0:0,0:0:0:0:
175,359,22858,6,0,B|202:324|202:324|282:332,1,110.50000210762,2|8,3:2|0:2,0:0:0:0:
353,348,23321,1,2,0:2:0:0:
353,348,23476,2,0,B|482:335,1,110.50000210762,2|8,0:2|0:2,0:0:0:0:
499,188,24095,1,0,3:2:0:0:
499,188,24249,1,0,3:2:0:0:
444,125,24404,2,0,P|421:117|385:127,1,55.2500010538101,10|0,0:2|0:0,0:0:0:0:
310,144,24713,2,0,P|287:152|251:142,1,55.2500010538101,2|0,0:2|3:2,0:0:0:0:
195,90,25022,2,0,L|194:29,1,55.2500010538101,10|0,0:2|0:0,0:0:0:0:
112,16,25332,6,0,L|113:126,1,110.50000210762,2|8,3:2|0:2,0:0:0:0:
61,192,25796,1,0,0:0:0:0:
61,192,25950,2,0,B|46:220|53:249|61:249|68:249|75:278|61:307,1,110.50000210762,2|8,0:2|0:2,0:0:0:0:
116,362,26414,2,0,B|166:377|166:377|222:358,1,110.50000210762,2|0,0:2|0:0,0:0:0:0:
298,322,26878,1,8,0:2:0:0:
298,322,27033,1,0,0:0:0:0:
167,228,27342,1,0,3:2:0:0:
167,228,27497,2,0,L|173:156,1,55.2500010538101,10|2,0:2|0:2,0:0:0:0:
200,94,27806,6,0,P|229:87|258:99,1,55.2500010538101,10|2,3:2|0:2,0:0:0:0:
329,124,28115,2,0,P|358:131|387:119,1,55.2500010538101,10|2,3:2|0:2,0:0:0:0:
451,77,28425,1,10,3:2:0:0:
451,77,28579,1,2,0:2:0:0:
484,158,28734,1,10,3:2:0:0:
484,158,28888,6,0,L|474:279,1,110.50000210762,2|10,0:2|3:2,0:0:0:0:
463,350,29352,2,0,L|396:349,1,55.2500010538101,10|8,3:2|3:2,0:0:0:0:
331,315,29662,2,0,B|268:305|294:354|228:347,1,110.50000210762,10|8,3:2|3:2,0:0:0:0:
148,340,30125,1,8,3:2:0:0:
120,339,30202,1,8,3:2:0:0:
92,326,30279,5,4,3:2:0:0:
54,163,30590,2,0,L|62:102,1,55.2500010538101,2|0,0:2|0:0,0:0:0:0:
99,34,30899,1,10,0:2:0:0:
154,97,31053,2,0,P|199:121|254:92,1,110.50000210762,2|2,0:2|3:2,0:0:0:0:
298,30,31517,1,2,0:2:0:0:
372,67,31672,2,0,B|365:159|365:159|344:136,1,110.50000210762,10|2,0:2|3:2,0:0:0:0:
300,209,32136,6,0,L|294:254,2,27.6250005269051,10|0|2,0:2|0:0|0:2,0:0:0:0:
222,178,32445,2,0,L|213:135,2,27.6250005269051,2|0|2,0:2|0:0|0:2,0:0:0:0:
158,231,32754,5,0,3:2:0:0:
158,231,32909,2,0,L|152:305,1,55.2500010538101,2|0,0:2|0:0,0:0:0:0:
192,359,33218,1,2,0:2:0:0:
192,359,33373,2,0,P|225:365|256:352,1,55.2500010538101,10|2,0:2|0:2,0:0:0:0:
311,309,33682,1,2,0:2:0:0:
392,284,33837,1,2,3:2:0:0:
392,284,33992,6,0,B|421:279|421:279|487:295,2,82.8750015807152,2|2|2,0:2|0:2|3:2,0:0:0:0:
311,309,34610,2,0,L|307:251,1,55.2500010538101,8|0,0:2|3:2,0:0:0:0:
264,182,34919,2,0,L|271:113,1,55.2500010538101,2|0,3:2|3:2,0:0:0:0:
312,53,35229,5,8,0:2:0:0:
312,53,35306,1,8,0:2:0:0:
312,53,35383,1,8,0:2:0:0:
399,57,35538,2,0,L|402:102,2,29.2499991073609,10|8|8,0:2|0:2|0:2,0:0:0:0:
401,168,35847,5,2,3:2:0:0:
263,170,36157,1,2,0:2:0:0:
111,47,36466,6,0,B|64:32|64:32|14:52,1,97.5,6|0,3:2|0:0,0:0:0:0:
5,97,36775,2,0,L|12:175,1,65,8|0,0:2|0:0,0:0:0:0:
63,245,37084,2,0,P|93:253|124:244,1,65,0|0,3:2|0:0,0:0:0:0:
218,214,37394,1,8,0:2:0:0:
300,160,37548,5,2,0:2:0:0:
300,160,37703,2,0,L|375:159,1,65,2|2,3:2|0:2,0:0:0:0:
409,245,38012,2,0,L|344:245,1,65,10|2,0:2|0:2,0:0:0:0:
250,253,38321,1,2,3:2:0:0:
250,253,38476,1,2,0:2:0:0:
214,161,38631,1,10,0:2:0:0:
214,161,38785,6,0,B|138:149|169:207|90:199,1,130,2|2,0:2|0:2,0:0:0:0:
9,240,39249,1,10,0:2:0:0:
9,240,39404,2,0,B|39:272|39:272|23:368,1,130,2|0,0:2|0:0,0:0:0:0:
122,364,39868,2,0,P|158:372|191:357,1,65,8|0,0:2|0:0,0:0:0:0:
228,276,40177,2,0,B|234:179|234:179|256:206,1,130,0|8,3:2|0:2,0:0:0:0:
330,266,40641,6,0,L|401:265,1,65,2|0,0:2|3:2,0:0:0:0:
492,263,40950,1,2,0:2:0:0:
492,263,41105,1,10,0:2:0:0:
446,176,41260,2,0,L|375:177,1,65,2|0,0:2|3:2,0:0:0:0:
278,183,41569,1,2,0:2:0:0:
278,183,41724,1,10,0:2:0:0:
330,266,41878,6,0,L|401:265,1,65,2|0,0:2|3:2,0:0:0:0:
492,263,42187,1,2,0:2:0:0:
492,263,42342,1,10,0:2:0:0:
446,176,42497,2,0,L|375:177,1,65,2|0,0:2|3:2,0:0:0:0:
278,183,42806,1,2,0:2:0:0:
278,183,42961,1,10,0:2:0:0:
330,266,43115,6,0,L|472:264,1,130,2|0,0:2|0:0,0:0:0:0:
509,179,43579,2,0,P|520:133|500:79,1,97.5,10|0,0:2|0:0,0:0:0:0:
462,61,43888,6,0,B|386:49|417:107|338:99,1,130,2|8,3:2|0:2,0:0:0:0:
248,82,44352,2,0,B|186:67|186:67|115:82,1,130,2|0,0:2|0:0,0:0:0:0:
43,137,44816,1,10,0:2:0:0:
43,137,44971,1,2,0:2:0:0:
113,204,45126,2,0,L|122:166,2,32.5,8|8|8,0:2|0:2|0:2,0:0:0:0:
94,299,45435,2,0,P|131:305|167:290,1,65,2|0,0:2|3:2,0:0:0:0:
250,269,45744,2,0,L|243:308,2,32.5,10|8|8,0:2|0:2|0:2,0:0:0:0:
335,335,46053,1,10,0:2:0:0:
335,335,46131,1,8,0:2:0:0:
335,335,46208,1,8,0:2:0:0:
393,256,46363,6,0,L|394:144,1,97.5,6|0,3:2|0:0,0:0:0:0:
371,114,46672,2,0,P|334:104|302:119,1,65,8|0,0:2|0:0,0:0:0:0:
216,140,46981,2,0,P|179:150|147:135,1,65,0|0,3:2|0:0,0:0:0:0:
74,84,47291,1,8,0:2:0:0:
47,171,47445,5,2,0:2:0:0:
47,171,47600,2,0,L|54:243,1,65,2|2,3:2|0:2,0:0:0:0:
91,325,47909,2,0,P|127:336|165:321,1,65,10|2,0:2|0:2,0:0:0:0:
222,260,48218,1,2,3:2:0:0:
222,260,48373,1,2,0:2:0:0:
274,178,48528,5,10,0:2:0:0:
274,178,48682,2,0,B|305:146|305:146|405:157,1,130,2|2,0:2|0:2,0:0:0:0:
483,196,49146,1,10,0:2:0:0:
483,196,49301,2,0,B|499:259|499:259|480:329,1,130,2|0,0:2|0:0,0:0:0:0:
390,356,49765,1,8,0:2:0:0:
311,308,49919,5,2,0:2:0:0:
311,308,50074,2,0,B|210:300|210:300|225:290|239:276,1,130,2|10,3:2|0:2,0:0:0:0:
304,215,50538,2,0,P|330:155|290:85,1,130,2|2,0:2|0:2,0:0:0:0:
239,27,51002,1,10,0:2:0:0:
239,27,51157,1,2,0:2:0:0:
168,94,51311,6,0,L|168:166,1,65,8|0,0:2|0:0,0:0:0:0:
168,260,51620,1,10,0:2:0:0:
168,260,51775,1,2,0:2:0:0:
265,255,51930,2,0,L|330:255,1,65,10|0,0:2|0:0,0:0:0:0:
427,253,52239,2,0,L|427:188,1,65,10|0,0:2|0:0,0:0:0:0:
426,90,52548,5,10,0:2:0:0:
426,90,52703,1,0,3:2:0:0:
332,92,52858,1,10,0:2:0:0:
332,92,53012,1,2,3:2:0:0:
233,94,53167,2,0,L|168:94,1,65,10|0,0:2|3:2,0:0:0:0:
167,191,53476,2,0,L|167:263,1,65,10|0,0:2|3:2,0:0:0:0:
253,311,53785,5,10,3:2:0:0:
253,311,53940,1,8,3:2:0:0:
326,383,54095,5,8,3:2:0:0:
326,383,54249,1,8,3:2:0:0:
392,311,54404,5,8,3:2:0:0:
392,311,54559,1,8,3:2:0:0:
323,241,54713,6,0,L|324:192,2,32.5,10|8|8,3:2|3:2|3:2,0:0:0:0:
253,311,55022,6,0,B|205:325|205:325|151:310,1,97.5,2|0,3:2|0:0,0:0:0:0:
131,270,55332,2,0,B|83:256|83:256|29:271,1,97.5,0|0,3:2|0:0,0:0:0:0:
4,305,55641,2,0,L|7:200,1,97.5,2|0,3:2|0:0,0:0:0:0:
26,162,55950,2,0,P|73:144|123:169,1,97.5,0|0,3:2|0:0,0:0:0:0:
157,174,56260,6,0,B|185:181|185:181|221:170,1,58.4999982147217,6|2,3:2|0:2,0:0:0:0:
288,127,56569,2,0,L|284:89,2,29.2499991073609,2|2|2,0:2|0:2|0:2,0:0:0:0:
308,212,56878,2,0,L|314:272,1,58.4999982147217,10|0,0:2|0:0,0:0:0:0:
327,357,57187,2,0,L|278:365,2,29.2499991073609,2|2|2,0:2|0:2|3:2,0:0:0:0:
414,341,57497,6,0,P|420:310|409:279,1,58.4999982147217,2|2,0:2|0:2,0:0:0:0:
411,244,57729,1,2,0:0:0:0:
411,244,57806,2,0,P|405:213|416:182,1,58.4999982147217,2|2,0:2|3:2,0:0:0:0:
427,104,58115,1,10,0:2:0:0:
427,104,58270,1,2,0:2:0:0:
343,119,58425,1,2,0:2:0:0:
343,119,58579,1,2,0:2:0:0:
263,81,58734,6,0,P|237:71|198:83,1,58.4999982147217,2|0,3:2|0:0,0:0:0:0:
161,86,58966,1,0,0:0:0:0:
161,86,59043,2,0,L|119:82,2,29.2499991073609,2|2|2,0:2|0:2|0:2,0:0:0:0:
186,175,59352,5,10,3:2:0:0:
186,175,59430,1,10,3:2:0:0:
186,175,59507,1,10,3:2:0:0:
140,249,59662,1,10,3:2:0:0:
38,209,59816,5,2,3:2:0:0:
