osu file format v14

[General]
AudioFilename: audio.mp3
AudioLeadIn: 0
PreviewTime: 35538
Countdown: 0
SampleSet: Drum
StackLeniency: 0.7
Mode: 2
LetterboxInBreaks: 0
WidescreenStoryboard: 0

[Editor]
DistanceSpacing: 0.7
BeatDivisor: 4
GridSize: 8
TimelineZoom: 3.199999

[Metadata]
Title:#NULL!*Peta (TV Size)
TitleUnicode:#NULL!*Peta (TV Size)
Artist:Null (CV: Waki Azumi), Peta (CV: Ueda Reina)
ArtistUnicode:ぬる(CV:和氣あず未)、ぺた(CV:上田麗奈)
Creator:Syadow-
Version:Cup
Source:ぬるぺた
Tags:null & peta -Invasion of the Queen Bug- Japanese pop Anime jpop j-pop video game steam TOKYOTOON -rustyy My Angel RangE MARE [_-Kukkai-_]
BeatmapID:2620764
BeatmapSetID:1260720

[Difficulty]
HPDrainRate:3
CircleSize:2.5
OverallDifficulty:6
ApproachRate:6
SliderMultiplier:1.2
SliderTickRate:1

[Events]
//Background and Video events
0,0,"null peta 02.jpg",0,0
//Break Periods
//Storyboard Layer 0 (Background)
//Storyboard Layer 1 (Fail)
//Storyboard Layer 2 (Pass)
//Storyboard Layer 3 (Foreground)
//Storyboard Layer 4 (Overlay)
//Storyboard Sound Samples

[TimingPoints]
590,309.278350515464,4,3,1,50,1,0
10486,-100,4,3,1,40,0,0
17909,-100,4,3,1,45,0,0
18528,-100,4,3,1,50,0,0
19146,-100,4,3,1,55,0,0
19765,-100,4,3,1,60,0,0
36466,-100,4,3,1,70,0,1
55022,-100,4,3,1,50,0,0

[Colours]
Combo1 : 254,200,118
Combo2 : 255,94,94
Combo3 : 98,176,255
Combo4 : 98,255,98

[HitObjects]
256,192,590,12,8,1517,0:0:0:0:
256,192,1827,5,6,0:0:0:0:
384,192,2136,2,0,P|368:136|304:112,1,120,0|8,0:0|0:0,0:0:0:0:
176,112,2754,1,0,0:0:0:0:
176,112,2909,1,2,0:0:0:0:
308,80,3218,6,0,P|351:140|352:198,1,120,0|2,0:0|0:0,0:0:0:0:
283,175,3682,1,8,0:0:0:0:
165,164,3992,1,0,0:0:0:0:
224,167,4147,1,0,0:0:0:0:
284,182,4301,5,2,0:0:0:0:
168,176,4610,2,0,P|115:151|99:95,1,120,0|8,0:0|0:0,0:0:0:0:
240,96,5229,1,0,0:0:0:0:
320,96,5383,6,0,L|320:224,1,120,2|8,0:0|0:0,0:0:0:0:
464,96,6002,1,0,0:0:0:0:
472,139,6157,2,0,L|247:240,1,240,8|2,0:0|0:0,0:0:0:0:
104,184,7084,6,0,P|136:120|200:112,1,120,0|8,0:0|0:0,0:0:0:0:
344,136,7703,1,0,0:0:0:0:
344,136,7858,1,2,0:0:0:0:
192,136,8167,1,8,0:0:0:0:
192,136,8321,5,2,0:0:0:0:
256,192,8631,12,6,10486,0:0:0:0:
104,176,11724,5,2,0:2:0:0:
408,176,12961,1,2,0:2:0:0:
128,176,14198,1,2,0:2:0:0:
296,184,14816,1,0,0:0:0:0:
464,176,15435,5,2,0:0:0:0:
296,184,16053,1,0,0:0:0:0:
112,184,16672,5,2,0:0:0:0:
296,184,17291,1,0,0:0:0:0:
472,176,17909,6,0,P|424:240|360:248,1,120,10|8,0:0|0:0,0:0:0:0:
256,176,18528,2,0,P|304:240|368:248,1,120,10|8,0:0|0:0,0:0:0:0:
459,247,19146,5,10,0:0:0:0:
318,171,19455,1,10,0:0:0:0:
175,165,19765,1,10,0:0:0:0:
148,226,19919,1,10,0:0:0:0:
210,273,20074,1,2,0:0:0:0:
376,248,20383,6,0,P|356:184|303:159,1,120,6|8,0:0|0:0,0:0:0:0:
240,160,20847,1,0,0:0:0:0:
88,146,21157,2,0,L|89:86,1,60,2|8,0:0|0:0,0:0:0:0:
149,207,21466,6,0,L|250:273,1,120,0|0,0:0|0:0,0:0:0:0:
292,224,21930,1,8,0:0:0:0:
145,96,22239,2,0,L|145:220,1,120,0|8,0:0|0:0,0:0:0:0:
314,191,22858,6,0,B|378:191|378:191|378:263,1,120,2|8,0:0|0:0,0:0:0:0:
211,189,23476,2,0,B|147:189|147:189|147:261,1,120,0|8,0:0|0:0,0:0:0:0:
291,192,24095,5,2,0:0:0:0:
350,192,24249,1,2,0:0:0:0:
410,188,24404,2,0,P|423:242|394:304,1,120,8|0,0:0|0:0,0:0:0:0:
275,245,25022,1,8,0:0:0:0:
126,241,25332,6,0,L|126:97,1,120,2|8,0:0|0:0,0:0:0:0:
270,125,25950,2,0,B|470:128,2,180,0|0|8,0:0|0:0|0:0,0:0:0:0:
123,63,27342,1,2,0:0:0:0:
187,62,27497,1,8,0:0:0:0:
339,167,27806,6,0,L|331:31,1,120,10|10,0:0|0:0,0:0:0:0:
193,168,28425,2,0,L|201:32,1,120,10|10,0:0|0:0,0:0:0:0:
325,151,29043,6,0,B|359:273,1,120,10|10,0:0|0:0,0:0:0:0:
235,108,29662,1,10,0:0:0:0:
179,132,29816,1,10,0:0:0:0:
155,196,29971,1,10,0:0:0:0:
179,257,30126,1,10,0:0:0:0:
262,267,30280,6,0,L|384:267,1,120,6|0,0:0|0:0,0:0:0:0:
248,192,30899,1,8,0:0:0:0:
249,143,31053,1,0,0:0:0:0:
106,148,31363,1,2,0:0:0:0:
111,93,31517,5,0,0:0:0:0:
170,78,31672,1,8,0:0:0:0:
289,47,31981,1,2,0:0:0:0:
320,64,32136,6,0,B|440:64|440:64|448:200,1,240,8|2,0:0|0:0,0:0:0:0:
392,208,32909,1,0,0:0:0:0:
224,216,33218,1,0,0:0:0:0:
176,192,33373,1,8,0:0:0:0:
67,120,33682,1,0,0:0:0:0:
240,48,33992,6,0,B|312:80|312:80|328:120|328:120|320:168|320:168|276:251|276:251,1,240,0|8,0:0|0:0,0:0:0:0:
167,201,34919,1,2,0:0:0:0:
334,200,35229,5,8,0:0:0:0:
334,200,35383,1,8,0:0:0:0:
238,200,35538,1,8,0:0:0:0:
145,199,35847,1,2,0:0:0:0:
271,200,36157,1,0,0:0:0:0:
119,186,36466,6,0,P|90:122|292:82,1,360,6|8,0:0|0:0,0:0:0:0:
424,176,37703,5,2,0:0:0:0:
316,174,38012,1,8,0:0:0:0:
424,176,38321,2,0,P|464:224|416:272,1,120,2|8,0:0|0:0,0:0:0:0:
333,66,38785,6,0,L|190:69,1,120,0|0,0:0|0:0,0:0:0:0:
152,160,39249,1,8,0:0:0:0:
92,148,39404,2,0,P|46:202|62:266,1,120
112,288,39868,1,8,0:0:0:0:
273,253,40177,6,0,L|273:109,1,120,2|8,0:0|0:0,0:0:0:0:
134,80,40796,2,0,P|75:144|99:175,1,120,2|8,0:0|0:0,0:0:0:0:
152,174,41260,2,0,P|202:235|174:264,1,120,0|0,0:0|0:0,0:0:0:0:
116,272,41724,1,8,0:0:0:0:
256,288,42033,6,0,P|296:228|257:177,1,120,2|8,0:0|0:0,0:0:0:0:
235,166,42497,6,0,P|264:109|339:113,1,120,0|0,0:0|0:0,0:0:0:0:
386,111,42961,1,8,0:0:0:0:
239,138,43270,2,0,L|234:266,1,120,2|8,0:0|0:0,0:0:0:0:
128,16,43888,6,0,B|296:111,2,180,2|0|8,0:0|0:0|0:0,0:0:0:0:
28,146,45126,1,8,0:0:0:0:
184,248,45435,5,0,0:0:0:0:
306,247,45744,1,8,0:0:0:0:
181,215,46053,1,8,0:0:0:0:
336,72,46363,6,0,B|470:117|485:296|301:317,1,360,6|8,0:0|0:0,0:0:0:0:
176,72,47600,5,2,0:0:0:0:
286,72,47909,1,8,0:0:0:0:
176,72,48218,2,0,P|136:120|184:168,1,120,2|8,0:0|0:0,0:0:0:0:
252,183,48682,6,0,L|384:188,1,120,0|0,0:0|0:0,0:0:0:0:
304,216,49146,1,8,0:0:0:0:
232,248,49301,2,0,P|248:308|312:335,1,120,0|0,0:0|0:0,0:0:0:0:
368,336,49765,1,8,0:0:0:0:
210,287,50074,6,0,B|179:244|179:244|228:199,1,120,2|8,0:0|0:0,0:0:0:0:
314,220,50538,2,0,B|347:176|347:176|294:131,1,120,0|0,0:0|0:0,0:0:0:0:
222,119,51002,2,0,B|215:49|215:49,1,60,8|0,0:0|0:0,0:0:0:0:
285,61,51311,5,8,0:0:0:0:
423,64,51620,2,0,L|423:200,1,120,8|8,0:0|0:0,0:0:0:0:
320,184,52239,2,0,L|200:112,1,120,8|8,0:0|0:0,0:0:0:0:
104,88,52858,2,0,P|70:140|103:176,1,120,8|8,0:0|0:0,0:0:0:0:
247,75,53476,1,8,0:0:0:0:
387,168,53785,6,0,P|425:229|403:286,1,120,10|10,0:0|0:0,0:0:0:0:
296,104,54404,1,10,0:0:0:0:
240,128,54558,1,10,0:0:0:0:
216,192,54713,1,10,0:0:0:0:
238,253,54868,1,10,0:0:0:0:
291,262,55022,5,10,0:0:0:0:
433,259,55332,1,8,0:0:0:0:
321,262,55641,1,8,0:0:0:0:
216,256,55950,1,8,0:0:0:0:
102,209,56260,5,2,0:0:0:0:
223,224,56569,2,0,L|202:105,1,120,0|8,0:0|0:0,0:0:0:0:
336,112,57187,1,0,0:0:0:0:
336,112,57342,1,2,0:0:0:0:
189,99,57651,6,0,P|169:156|196:212,1,120,0|2,0:0|0:0,0:0:0:0:
257,215,58115,1,8,0:0:0:0:
398,178,58425,1,0,0:0:0:0:
337,127,58579,1,0,0:0:0:0:
246,221,58734,6,0,L|115:220,1,120,2|0,0:0|0:0,0:0:0:0:
269,104,59352,1,8,0:0:0:0:
341,106,59507,1,8,0:0:0:0:
413,109,59662,1,8,0:0:0:0:
329,110,59816,1,2,0:0:0:0:
