osu file format v14

[General]
AudioFilename: audio.mp3
AudioLeadIn: 0
PreviewTime: 103461
Countdown: 0
SampleSet: Soft
StackLeniency: 0.7
Mode: 0
LetterboxInBreaks: 0
WidescreenStoryboard: 1

[Editor]
DistanceSpacing: 1
BeatDivisor: 4
GridSize: 16
TimelineZoom: 2.899999

[Metadata]
Title:#NULL!*Peta
TitleUnicode:#NULL!*Peta
Artist:Null (CV: Waki Azumi), Peta (CV: Ueda Reina)
ArtistUnicode:ぬる (CV: 和氣あず未)、ぺた (CV: 上田麗奈)
Creator:[Karcher]
Version:Normal!
Source:ぬるぺた
Tags:null & peta -Invasion of the Queen Bug- Japanese pop Anime jpop j-pop video game TOKYOTOON やしきん 岸田勇気
BeatmapID:3151740
BeatmapSetID:1541134

[Difficulty]
HPDrainRate:3
CircleSize:3.2
OverallDifficulty:4
ApproachRate:5.5
SliderMultiplier:0.999999999999999
SliderTickRate:1

[Events]
//Background and Video events
0,0,"bg.jpg",0,0
//Break Periods
2,10755,16668
2,144672,152751
//Storyboard Layer 0 (Background)
//Storyboard Layer 1 (Fail)
//Storyboard Layer 2 (Pass)
//Storyboard Layer 3 (Foreground)
//Storyboard Layer 4 (Overlay)
//Storyboard Sound Samples

[TimingPoints]
549,309.278350515464,4,2,1,40,1,0
549,-100,4,2,1,40,0,0
858,-100,4,2,1,50,0,0
1167,-100,4,2,1,60,0,0
1476,-100,4,2,1,70,0,0
1786,-100,4,2,2,60,0,0
10445,-100,4,2,2,40,0,0
17868,-100,4,2,2,30,0,0
18487,-100,4,2,2,40,0,0
19105,-100,4,2,2,50,0,0
19414,-100,4,2,2,55,0,0
19724,-100,4,2,2,60,0,0
20342,-100,4,2,2,55,0,0
30239,-100,4,2,1,65,0,0
35188,-100,4,2,3,65,0,0
35265,-100,4,2,2,65,0,0
36425,-90.9090909090909,4,2,3,80,0,1
56219,-100,4,2,2,60,0,0
63641,-100,4,2,2,40,0,0
71528,-100,4,2,2,50,0,0
71992,-100,4,2,2,60,0,0
72301,-100,4,2,4,70,0,0
73538,-100,4,2,2,55,0,0
83435,-100,4,2,1,65,0,0
91476,-100,4,2,3,45,0,0
92095,-100,4,2,3,50,0,0
92404,-100,4,2,3,55,0,0
92713,-100,4,2,3,65,0,0
93023,-100,4,2,3,75,0,0
93332,-100,4,2,3,70,0,0
93487,-100,4,2,4,70,0,0
95188,-100,4,2,1,70,0,0
95961,-100,4,2,4,70,0,0
97662,-100,4,2,1,70,0,0
100755,-100,4,2,3,70,0,0
101992,-100,4,2,2,70,0,0
103229,-100,4,2,2,50,0,0
104157,-100,4,2,2,60,0,0
104466,-90.9090909090909,4,2,3,80,0,1
124260,-100,4,2,2,80,0,0
132920,-100,4,2,3,80,0,0
134157,-100,4,2,2,80,0,0
141579,-100,4,2,3,85,0,0
144054,-100,4,2,2,70,0,0
153951,-100,4,2,4,40,0,0
158899,-100,4,2,4,47,0,0
163847,-100,4,2,2,55,0,0
166322,-100,4,2,2,40,0,0
166940,-100,4,2,2,50,0,0
167559,-100,4,2,3,60,0,0
168177,-100,4,2,3,70,0,0
169414,-100,4,2,2,50,0,0
170033,-100,4,2,2,60,0,0
170652,-100,4,2,2,70,0,0
171270,-90.9090909090909,4,2,3,80,0,1
191064,-100,4,2,2,65,0,0

[Colours]
Combo1 : 193,158,224
Combo2 : 255,239,128

[HitObjects]
39,51,1476,5,10,0:0:0:0:
90,137,1786,2,0,P|136:164|189:145,1,99.9999999999999,6|2,3:2|0:0,0:0:0:0:
219,124,2250,1,2,0:0:0:0:
219,124,2404,2,0,L|327:112,1,99.9999999999999,10|2,0:0|0:0,0:0:0:0:
417,97,3023,2,0,L|427:162,1,50,2|2,0:0|0:0,0:0:0:0:
431,196,3332,1,2,0:0:0:0:
455,292,3641,1,10,0:0:0:0:
455,292,3796,2,0,L|509:286,2,50,2|2|2,0:0|0:0|0:0,0:0:0:0:
411,317,4260,6,0,P|357:308|299:328,1,99.9999999999999,2|2,3:2|0:0,0:0:0:0:
272,347,4724,1,2,0:0:0:0:
272,347,4878,2,0,L|165:341,1,99.9999999999999,10|2,0:0|0:0,0:0:0:0:
77,374,5497,2,0,P|70:335|93:276,1,99.9999999999999,2|2,0:0|0:0,0:0:0:0:
123,242,5961,1,2,3:2:0:0:
123,242,6116,2,0,L|116:185,2,50,10|2|2,0:0|0:0|3:2,0:0:0:0:
220,264,6734,6,0,L|209:163,1,99.9999999999999,2|2,3:2|0:0,0:0:0:0:
190,123,7198,1,2,0:0:0:0:
190,123,7353,2,0,P|141:98|79:99,1,99.9999999999999,10|2,0:0|0:0,0:0:0:0:
12,149,7971,2,0,L|16:209,1,50,2|2,0:0|0:0,0:0:0:0:
12,248,8280,1,2,3:2:0:0:
256,192,8435,12,6,10445,0:0:0:0:
71,147,17868,5,10,3:2:0:0:
111,342,18487,1,10,3:2:0:0:
306,302,19105,1,10,3:2:0:0:
285,204,19414,1,8,3:2:0:0:
266,107,19724,2,0,L|252:49,1,50,10|8,3:2|3:2,0:0:0:0:
239,10,20033,1,8,3:2:0:0:
157,68,20342,5,4,3:2:0:0:
59,43,20652,1,10,0:0:0:0:
59,43,20806,2,0,P|55:86|95:147,1,99.9999999999999,2|2,0:0|3:2,0:0:0:0:
120,174,21270,1,10,0:0:0:0:
120,174,21425,2,0,L|108:288,1,99.9999999999999,2|2,0:0|0:0,0:0:0:0:
104,323,21889,1,10,0:0:0:0:
192,369,22198,1,2,0:0:0:0:
281,325,22507,1,10,0:0:0:0:
369,371,22817,6,0,P|378:318|364:273,1,99.9999999999999,2|8,3:2|0:0,0:0:0:0:
407,247,23280,1,2,0:0:0:0:
407,247,23435,2,0,P|400:197|417:150,1,99.9999999999999,2|8,0:0|0:0,0:0:0:0:
338,88,24054,2,0,L|274:95,1,50,0|0,3:2|3:2,0:0:0:0:
238,98,24363,1,10,0:0:0:0:
184,182,24672,1,2,0:0:0:0:
84,176,24981,1,10,0:0:0:0:
6,112,25291,6,0,P|51:80|103:78,1,99.9999999999999,2|8,3:2|0:0,0:0:0:0:
191,51,25909,2,0,L|197:1,2,50,2|0|8,0:0|3:2|0:0,0:0:0:0:
227,85,26373,2,0,P|291:107|344:46,1,150,2|8,0:0|0:0,0:0:0:0:
497,54,27301,1,0,3:2:0:0:
497,54,27456,2,0,L|490:111,1,50,10|2,0:0|0:0,0:0:0:0:
483,154,27765,5,10,0:0:0:0:
465,252,28074,1,10,0:0:0:0:
377,300,28384,1,10,0:0:0:0:
280,273,28693,1,10,0:0:0:0:
251,177,29002,5,8,0:0:0:0:
251,177,29157,2,0,L|303:184,2,50,10|10|8,0:0|0:0|0:0,0:0:0:0:
205,197,29621,2,0,P|153:217|99:197,1,99.9999999999999,10|8,0:0|0:0,0:0:0:0:
74,181,30085,1,8,0:0:0:0:
74,181,30239,5,4,3:2:0:0:
16,263,30549,1,2,0:0:0:0:
91,338,30858,1,10,0:0:0:0:
91,338,31012,2,0,P|125:377|178:364,1,99.9999999999999,2|2,0:0|3:2,0:0:0:0:
220,360,31476,1,2,0:0:0:0:
220,360,31630,2,0,P|254:321|307:334,1,99.9999999999999,10|2,0:0|3:2,0:0:0:0:
345,344,32095,2,0,L|402:351,2,50,10|2|2,0:0|0:0|0:0,0:0:0:0:
347,244,32713,5,2,3:2:0:0:
347,244,32868,2,0,P|369:205|353:151,1,99.9999999999999,2|2,0:0|0:0,0:0:0:0:
316,122,33332,2,0,L|257:135,2,50,10|2|2,0:0|0:0|0:0,0:0:0:0:
335,75,33796,1,2,3:2:0:0:
335,75,33951,2,0,P|384:46|442:56,1,99.9999999999999,2|2,0:0|0:0,0:0:0:0:
472,78,34414,1,2,3:2:0:0:
472,78,34569,1,10,0:0:0:0:
479,177,34878,2,0,L|483:235,1,50,2|2,3:2|3:2,0:0:0:0:
485,277,35188,5,10,0:0:0:0:
419,352,35497,2,0,P|364:374|305:366,2,99.9999999999999,10|2|2,0:0|3:2|0:0,0:0:0:0:
485,277,36425,6,0,B|497:224|497:224|481:165,1,110.000003356934,6|8,3:2|0:0,0:0:0:0:
475,60,37043,2,0,P|428:81|367:63,1,110.000003356934,0|8,3:2|0:0,0:0:0:0:
263,60,37662,2,0,L|272:-5,2,55.0000016784668,2|2|10,3:2|0:0|0:0,0:0:0:0:
232,106,38126,1,2,0:0:0:0:
232,106,38280,1,2,3:2:0:0:
271,214,38590,1,10,0:0:0:0:
271,214,38744,6,0,P|210:196|160:215,1,110.000003356934,2|2,0:0|0:0,0:0:0:0:
126,246,39208,1,10,0:0:0:0:
126,246,39363,2,0,P|73:259|22:241,1,110.000003356934,2|0,0:0|0:0,0:0:0:0:
5,189,39827,1,8,0:0:0:0:
22,80,40136,6,0,L|142:92,1,110.000003356934,0|8,3:2|0:0,0:0:0:0:
181,67,40600,2,0,P|166:100|192:169,1,110.000003356934,2|2,0:0|0:0,0:0:0:0:
238,189,41064,1,10,0:0:0:0:
238,189,41219,1,2,0:0:0:0:
333,135,41528,6,0,L|392:127,1,55.0000016784668,2|10,0:0|0:0,0:0:0:0:
442,126,41837,2,0,P|492:96|483:41,1,110.000003356934,2|2,0:0|0:0,0:0:0:0:
443,19,42301,1,10,0:0:0:0:
443,19,42456,1,2,0:0:0:0:
333,17,42765,6,0,L|261:27,1,55.0000016784668,2|10,0:0|0:0,0:0:0:0:
225,9,43074,2,0,P|252:50|232:118,1,110.000003356934,2|0,0:0|0:0,0:0:0:0:
196,139,43538,1,10,0:0:0:0:
167,245,43847,6,0,B|229:228|210:263|282:243,1,110.000003356934,2|8,3:2|0:0,0:0:0:0:
328,223,44311,1,2,0:0:0:0:
328,223,44466,1,0,3:2:0:0:
437,229,44775,2,0,L|447:289,1,55.0000016784668,10|2,0:0|0:0,0:0:0:0:
456,337,45085,1,8,0:0:0:0:
348,360,45394,1,2,3:2:0:0:
247,315,45703,2,0,L|229:259,1,55.0000016784668,10|8,0:0|0:0,0:0:0:0:
212,210,46012,2,0,L|218:137,1,55.0000016784668,10|8,0:0|0:0,0:0:0:0:
242,106,46322,6,0,B|303:87|290:122|357:106,1,110.000003356934,6|8,3:2|0:0,0:0:0:0:
452,68,46940,2,0,P|441:112|485:172,1,110.000003356934,0|8,3:2|0:0,0:0:0:0:
466,275,47559,2,0,L|479:343,2,55.0000016784668,2|2|10,3:2|0:0|0:0,0:0:0:0:
412,260,48023,1,2,0:0:0:0:
412,260,48177,1,2,3:2:0:0:
324,324,48487,1,10,0:0:0:0:
324,324,48641,6,0,P|264:342|207:325,1,110.000003356934,2|2,0:0|0:0,0:0:0:0:
180,292,49105,1,10,0:0:0:0:
180,292,49260,2,0,L|169:176,1,110.000003356934,2|0,0:0|0:0,0:0:0:0:
177,74,49878,1,2,0:0:0:0:
177,74,50033,2,0,P|234:104|296:84,1,110.000003356934,2|10,3:2|0:0,0:0:0:0:
325,70,50497,1,2,0:0:0:0:
434,63,50806,2,0,L|443:7,2,55.0000016784668,2|10|2,0:0|0:0|0:0,0:0:0:0:
452,115,51270,5,12,0:0:0:0:
412,217,51579,2,0,L|337:228,1,55.0000016784668,10|2,0:0|0:0,0:0:0:0:
302,229,51889,1,10,0:0:0:0:
213,163,52198,1,10,0:0:0:0:
215,53,52507,6,0,P|162:78|107:61,1,110.000003356934,10|10,0:0|0:0,0:0:0:0:
56,38,52971,1,2,3:2:0:0:
56,38,53126,2,0,L|54:150,1,110.000003356934,10|10,0:0|0:0,0:0:0:0:
31,255,53744,2,0,L|94:262,1,55.0000016784668,10|8,0:0|0:0,0:0:0:0:
137,280,54054,2,0,L|191:273,1,55.0000016784668,8|8,0:0|0:0,0:0:0:0:
241,250,54363,1,8,0:0:0:0:
289,348,54672,2,0,L|354:350,1,55.0000016784668,10|8,0:0|0:0,0:0:0:0:
398,355,54981,6,0,P|380:302|417:242,1,110.000003356934,14|10,0:0|0:0,0:0:0:0:
470,169,55600,2,0,P|488:116|451:56,1,110.000003356934,14|10,0:0|0:0,0:0:0:0:
350,37,56219,6,0,P|308:58|248:51,1,99.9999999999999,6|2,3:2|0:0,0:0:0:0:
214,27,56683,1,2,0:0:0:0:
214,27,56837,2,0,L|97:48,1,99.9999999999999,10|2,0:0|0:0,0:0:0:0:
51,121,57456,1,2,0:0:0:0:
51,121,57610,2,0,L|0:110,2,50,2|2|2,0:0|0:0|3:2,0:0:0:0:
86,156,58074,2,0,L|94:259,1,99.9999999999999,10|2,0:0|0:0,0:0:0:0:
87,355,58693,6,0,B|138:343|138:343|190:354,1,99.9999999999999,2|2,3:2|0:0,0:0:0:0:
232,367,59157,1,2,0:0:0:0:
232,367,59311,2,0,P|218:322|239:268,1,99.9999999999999,10|2,0:0|0:0,0:0:0:0:
317,217,59930,2,0,L|311:162,2,50,2|10|2,0:0|0:0|0:0,0:0:0:0:
360,251,60394,1,2,3:2:0:0:
360,251,60549,2,0,L|354:300,2,50,10|2|2,0:0|0:0|3:2,0:0:0:0:
419,170,61167,6,0,P|471:137|471:86,1,99.9999999999999,2|2,3:2|0:0,0:0:0:0:
461,54,61631,1,2,0:0:0:0:
461,54,61786,2,0,L|351:65,1,99.9999999999999,10|2,0:0|0:0,0:0:0:0:
270,104,62404,2,0,L|260:48,1,50,2|2,0:0|0:0,0:0:0:0:
253,5,62713,1,2,3:2:0:0:
60,234,63641,5,6,0:0:0:0:
319,343,64878,1,8,0:0:0:0:
319,343,65033,1,10,0:0:0:0:
319,343,66116,6,0,P|348:305|338:240,1,99.9999999999999,6|0,3:2|0:0,0:0:0:0:
306,225,66579,1,2,0:0:0:0:
306,225,66734,2,0,L|190:245,1,99.9999999999999,10|0,0:0|3:2,0:0:0:0:
43,357,67662,1,2,3:2:0:0:
37,257,67971,1,10,0:0:0:0:
31,157,68280,1,2,0:0:0:0:
113,99,68590,6,0,P|166:115|230:96,1,99.9999999999999,2|0,3:2|0:0,0:0:0:0:
299,151,69208,2,0,P|348:143|395:159,1,99.9999999999999,10|0,0:0|3:2,0:0:0:0:
424,200,69672,2,0,L|435:312,1,99.9999999999999,2|2,0:0|0:0,0:0:0:0:
440,349,70136,1,2,3:2:0:0:
340,353,70445,2,0,L|238:347,1,99.9999999999999,8|2,0:0|0:0,0:0:0:0:
160,284,71064,6,0,P|193:238|178:193,1,99.9999999999999,10|8,3:2|3:2,0:0:0:0:
139,186,71528,1,8,0:0:0:0:
139,186,71683,2,0,L|131:133,1,50,10|8,3:2|3:2,0:0:0:0:
98,99,71992,2,0,L|106:46,1,50,10|8,3:2|3:2,0:0:0:0:
140,14,72301,1,2,0:0:0:0:
140,14,73538,5,4,3:2:0:0:
221,81,73847,1,10,0:0:0:0:
221,81,74002,2,0,P|279:97|319:79,1,99.9999999999999,2|2,0:0|3:2,0:0:0:0:
350,48,74466,1,10,0:0:0:0:
350,48,74621,2,0,P|396:33|443:49,1,99.9999999999999,2|2,0:0|0:0,0:0:0:0:
472,90,75085,1,10,0:0:0:0:
426,179,75394,1,2,0:0:0:0:
469,269,75703,1,10,0:0:0:0:
411,350,76012,6,0,P|362:339|310:354,1,99.9999999999999,2|8,3:2|0:0,0:0:0:0:
268,370,76476,1,2,0:0:0:0:
268,370,76631,2,0,L|280:263,1,99.9999999999999,2|8,0:0|0:0,0:0:0:0:
335,187,77250,2,0,L|330:135,1,50,0|0,3:2|3:2,0:0:0:0:
326,87,77559,1,10,0:0:0:0:
235,129,77868,1,2,0:0:0:0:
140,96,78177,1,10,0:0:0:0:
49,138,78487,6,0,B|30:191|30:191|42:245,1,99.9999999999999,2|8,3:2|0:0,0:0:0:0:
101,312,79105,2,0,L|93:365,2,50,2|0|8,0:0|3:2|0:0,0:0:0:0:
146,291,79569,2,0,L|249:283,1,99.9999999999999,2|0,0:0|0:0,0:0:0:0:
292,300,80033,1,8,0:0:0:0:
428,374,80497,1,0,3:2:0:0:
428,374,80652,2,0,L|433:324,1,50,10|0,0:0|0:0,0:0:0:0:
463,284,80961,6,0,L|459:230,1,50,10|2,0:0|0:0,0:0:0:0:
448,185,81270,1,10,0:0:0:0:
380,111,81579,2,0,L|385:58,2,50,10|2|10,0:0|0:0|0:0,0:0:0:0:
342,142,82043,2,0,P|286:123|237:142,1,99.9999999999999,2|10,0:0|0:0,0:0:0:0:
211,167,82507,1,10,0:0:0:0:
177,261,82817,2,0,L|115:270,1,50,10|8,0:0|0:0,0:0:0:0:
92,303,83126,2,0,L|42:295,1,50,8|8,0:0|0:0,0:0:0:0:
13,254,83435,5,4,3:2:0:0:
3,154,83744,2,0,P|-3:102|38:69,1,99.9999999999999,2|10,0:0|0:0,0:0:0:0:
78,76,84208,1,2,0:0:0:0:
78,76,84363,1,2,0:0:0:0:
174,99,84672,2,0,L|234:94,1,50,2|10,0:0|0:0,0:0:0:0:
273,93,84981,2,0,B|323:110|323:110|377:92,1,99.9999999999999,2|10,0:0|0:0,0:0:0:0:
403,60,85445,1,2,0:0:0:0:
487,123,85755,1,2,0:0:0:0:
487,123,85909,6,0,P|500:172|485:231,1,99.9999999999999,2|2,3:2|0:0,0:0:0:0:
462,262,86373,1,2,0:0:0:0:
462,262,86528,2,0,L|471:317,2,50,10|2|2,0:0|0:0|0:0,0:0:0:0:
402,181,87146,2,0,L|297:171,1,99.9999999999999,2|2,0:0|0:0,0:0:0:0:
258,185,87610,1,2,3:2:0:0:
258,185,87765,2,0,L|158:194,1,99.9999999999999,10|2,0:0|0:0,0:0:0:0:
62,166,88384,6,0,L|54:223,1,50,2|2,3:2|0:0,0:0:0:0:
44,264,88693,1,2,0:0:0:0:
119,329,89002,2,0,L|172:307,1,50,10|2,0:0|0:0,0:0:0:0:
212,292,89311,1,2,0:0:0:0:
303,333,89621,2,0,P|357:353|407:334,1,99.9999999999999,2|2,0:0|0:0,0:0:0:0:
436,312,90085,1,2,3:2:0:0:
436,312,90239,2,0,L|431:254,1,50,10|2,0:0|0:0,0:0:0:0:
429,211,90549,1,2,0:0:0:0:
463,117,90858,6,0,P|407:112|360:139,1,99.9999999999999,2|2,3:2|0:0,0:0:0:0:
337,170,91322,1,2,0:0:0:0:
337,170,91476,2,0,L|283:181,1,50,10|10,0:0|0:0,0:0:0:0:
238,191,91786,1,10,0:0:0:0:
145,168,92095,1,10,0:0:0:0:
145,168,92250,2,0,P|110:194|52:192,1,99.9999999999999,10|10,0:0|0:0,0:0:0:0:
16,161,92713,2,0,L|0:59,1,99.9999999999999,10|8,0:0|0:0,0:0:0:0:
94,31,93332,6,0,P|151:59|198:41,1,99.9999999999999,6|2,3:2|3:2,0:0:0:0:
284,53,93951,2,0,P|332:46|373:72,1,99.9999999999999,2|2,3:2|3:2,0:0:0:0:
434,152,94569,2,0,L|424:264,1,99.9999999999999,2|2,3:2|3:2,0:0:0:0:
424,305,95033,1,2,0:0:0:0:
424,305,95188,2,0,L|431:360,2,50,2|2|2,3:2|0:0|3:2,0:0:0:0:
329,272,95806,6,0,P|276:288|230:276,1,99.9999999999999,2|2,3:2|3:2,0:0:0:0:
193,186,96425,2,0,P|144:176|97:191,1,99.9999999999999,2|2,3:2|3:2,0:0:0:0:
35,270,97043,2,0,L|43:386,1,99.9999999999999,2|2,3:2|3:2,0:0:0:0:
143,350,97662,1,2,3:2:0:0:
143,350,97817,2,0,L|139:295,2,50,2|2|2,0:0|3:2|0:0,0:0:0:0:
184,377,98280,5,10,0:0:0:0:
279,347,98590,2,0,L|331:340,1,50,10|2,0:0|0:0,0:0:0:0:
371,314,98899,2,0,P|412:321|449:309,2,74.9999999999999,10|10|10,0:0|0:0|0:0,0:0:0:0:
351,267,99518,5,10,0:0:0:0:
401,180,99827,1,10,0:0:0:0:
354,91,100136,2,0,P|347:48|354:9,2,74.9999999999999,10|10|10,0:0|0:0|0:0,0:0:0:0:
320,128,100755,6,0,L|261:136,1,50,10|2,0:0|0:0,0:0:0:0:
220,139,101064,1,10,0:0:0:0:
185,45,101373,2,0,L|122:40,1,50,10|2,0:0|0:0,0:0:0:0:
84,36,101683,1,10,0:0:0:0:
17,110,101992,6,0,L|24:165,1,50,10|10,3:2|0:0,0:0:0:0:
54,198,102301,2,0,L|47:253,1,50,10|10,3:2|0:0,0:0:0:0:
21,290,102610,2,0,B|111:265|81:320|172:293,1,150,10|0,3:2|0:0,0:0:0:0:
213,276,103229,1,6,3:2:0:0:
303,233,103538,2,0,L|293:131,2,99.9999999999999,2|2|2,0:0|0:0|0:0,0:0:0:0:
364,315,104466,6,0,P|421:331|478:306,1,110.000003356934,6|8,3:2|0:0,0:0:0:0:
503,210,105085,2,0,L|491:78,1,110.000003356934,0|8,3:2|0:0,0:0:0:0:
388,67,105703,2,0,L|378:12,2,55.0000016784668,2|2|10,3:2|0:0|0:0,0:0:0:0:
343,99,106167,1,2,0:0:0:0:
343,99,106322,1,2,3:2:0:0:
245,144,106631,1,10,0:0:0:0:
245,144,106786,6,0,P|216:189|155:211,1,110.000003356934,2|2,0:0|0:0,0:0:0:0:
128,251,107250,1,10,0:0:0:0:
128,251,107404,2,0,P|166:299|212:311,1,110.000003356934,2|0,0:0|0:0,0:0:0:0:
266,307,107868,1,8,0:0:0:0:
354,371,108177,2,0,P|375:326|366:261,1,110.000003356934,0|8,3:2|0:0,0:0:0:0:
377,212,108641,1,2,0:0:0:0:
447,127,108951,6,0,L|440:66,1,55.0000016784668,2|10,0:0|0:0,0:0:0:0:
432,17,109260,2,0,P|380:41|321:24,1,110.000003356934,2|2,0:0|0:0,0:0:0:0:
282,15,109724,1,10,0:0:0:0:
282,15,109878,1,2,0:0:0:0:
208,97,110188,6,0,L|204:163,1,55.0000016784668,2|10,0:0|0:0,0:0:0:0:
200,206,110497,2,0,P|158:191|93:210,1,110.000003356934,2|2,0:0|0:0,0:0:0:0:
46,221,110961,1,10,0:0:0:0:
46,221,111116,2,0,L|54:331,1,110.000003356934,2|0,0:0|0:0,0:0:0:0:
62,384,111579,1,10,0:0:0:0:
165,345,111889,6,0,L|285:355,1,110.000003356934,2|8,3:2|0:0,0:0:0:0:
323,379,112353,1,2,0:0:0:0:
323,379,112507,1,0,3:2:0:0:
429,351,112817,2,0,L|432:289,1,55.0000016784668,10|2,0:0|0:0,0:0:0:0:
432,240,113126,1,8,0:0:0:0:
365,151,113435,1,2,3:2:0:0:
259,180,113744,2,0,L|195:192,1,55.0000016784668,10|8,0:0|0:0,0:0:0:0:
154,214,114054,2,0,L|99:203,1,55.0000016784668,10|8,0:0|0:0,0:0:0:0:
53,174,114363,6,0,P|80:119|64:68,1,110.000003356934,6|8,3:2|0:0,0:0:0:0:
159,13,114981,2,0,L|272:23,1,110.000003356934,0|8,3:2|0:0,0:0:0:0:
309,59,115445,1,2,0:0:0:0:
309,59,115600,2,0,L|299:114,2,55.0000016784668,2|2|10,3:2|0:0|0:0,0:0:0:0:
419,59,116219,2,0,L|409:114,1,55.0000016784668,2|2,3:2|0:0,0:0:0:0:
399,167,116528,1,10,0:0:0:0:
399,167,116683,6,0,P|421:201|405:269,1,110.000003356934,2|2,0:0|0:0,0:0:0:0:
361,295,117146,1,10,0:0:0:0:
361,295,117301,2,0,L|233:288,1,110.000003356934,2|0,0:0|0:0,0:0:0:0:
158,348,117920,1,2,0:0:0:0:
158,348,118074,6,0,P|99:363|40:351,1,110.000003356934,2|10,3:2|0:0,0:0:0:0:
11,316,118538,2,0,L|6:196,1,110.000003356934,2|2,0:0|0:0,0:0:0:0:
13,151,119002,2,0,L|22:90,1,55.0000016784668,10|2,0:0|0:0,0:0:0:0:
19,41,119311,5,12,0:0:0:0:
115,94,119621,2,0,L|179:99,1,55.0000016784668,10|2,0:0|0:0,0:0:0:0:
224,102,119930,1,10,0:0:0:0:
326,62,120239,1,10,0:0:0:0:
422,114,120549,6,0,P|392:162|411:223,1,110.000003356934,10|10,0:0|0:0,0:0:0:0:
439,251,121012,1,2,3:2:0:0:
439,251,121167,2,0,L|450:364,1,110.000003356934,10|10,0:0|0:0,0:0:0:0:
339,356,121786,6,0,L|268:353,1,55.0000016784668,10|8,0:0|0:0,0:0:0:0:
234,330,122095,2,0,L|179:332,1,55.0000016784668,8|8,0:0|0:0,0:0:0:0:
128,354,122404,1,8,0:0:0:0:
106,246,122713,2,0,L|118:173,1,55.0000016784668,10|8,0:0|0:0,0:0:0:0:
155,153,123023,6,0,P|201:169|266:137,1,110.000003356934,14|10,0:0|0:0,0:0:0:0:
365,141,123641,2,0,P|414:161|466:146,1,110.000003356934,14|10,0:0|0:0,0:0:0:0:
464,45,124260,6,0,P|417:27|367:37,2,99.9999999999999,6|8|0,3:2|0:0|3:2,0:0:0:0:
470,150,125188,1,10,0:0:0:0:
470,150,125342,2,0,L|483:262,1,99.9999999999999,2|2,0:0|0:0,0:0:0:0:
422,329,125961,2,0,L|320:320,1,99.9999999999999,2|2,0:0|0:0,0:0:0:0:
272,312,126425,1,10,0:0:0:0:
272,312,126579,6,0,P|217:335|160:325,1,99.9999999999999,2|2,0:0|0:0,0:0:0:0:
208,236,127198,1,2,0:0:0:0:
208,236,127353,2,0,L|201:178,1,50,2|2,3:2|0:0,0:0:0:0:
234,148,127662,2,0,L|241:90,1,50,10|2,0:0|0:0,0:0:0:0:
210,58,127971,6,0,P|165:72|106:50,1,99.9999999999999,2|10,3:2|0:0,0:0:0:0:
70,34,128435,1,2,0:0:0:0:
15,117,128744,1,2,0:0:0:0:
48,211,129054,1,2,0:0:0:0:
147,223,129363,6,0,P|173:259|230:264,1,99.9999999999999,2|2,0:0|0:0,0:0:0:0:
260,231,129827,1,2,3:2:0:0:
260,231,129981,2,0,L|256:177,1,50,2|10,0:0|0:0,0:0:0:0:
256,130,130291,1,2,0:0:0:0:
338,74,130600,2,0,P|384:51|436:73,1,99.9999999999999,2|2,0:0|0:0,0:0:0:0:
462,101,131064,1,2,3:2:0:0:
474,200,131373,1,8,0:0:0:0:
484,303,131683,6,0,P|431:289|389:318,1,99.9999999999999,2|10,3:2|0:0,0:0:0:0:
364,350,132146,1,2,0:0:0:0:
364,350,132301,2,0,L|307:342,1,50,2|2,3:2|0:0,0:0:0:0:
264,343,132610,2,0,L|214:349,1,50,10|2,0:0|0:0,0:0:0:0:
165,361,132920,1,10,0:0:0:0:
165,361,133074,1,8,0:0:0:0:
71,340,133384,1,2,3:2:0:0:
71,340,133538,2,0,L|62:223,1,99.9999999999999,10|10,0:0|0:0,0:0:0:0:
62,190,134002,1,10,0:0:0:0:
62,190,134157,6,0,P|112:202|159:186,1,99.9999999999999,6|10,3:2|0:0,0:0:0:0:
252,158,134775,2,0,L|263:215,1,50,2|2,3:2|0:0,0:0:0:0:
278,254,135085,1,10,0:0:0:0:
374,279,135394,2,0,L|431:268,1,50,2|2,3:2|0:0,0:0:0:0:
470,253,135704,1,10,0:0:0:0:
478,153,136012,2,0,L|453:52,1,99.9999999999999,2|10,3:2|0:0,0:0:0:0:
407,37,136476,1,2,0:0:0:0:
407,37,136631,6,0,P|362:97|256:57,1,200,2|2,3:2|3:2,0:0:0:0:
162,28,137559,1,10,0:0:0:0:
99,106,137868,2,0,L|106:167,1,50,2|2,3:2|0:0,0:0:0:0:
109,205,138177,1,10,0:0:0:0:
109,205,138332,2,0,P|75:238|71:296,1,99.9999999999999,2|2,0:0|0:0,0:0:0:0:
94,331,138796,1,10,0:0:0:0:
193,331,139105,6,0,L|189:382,2,50,2|2|10,3:2|0:0|0:0,0:0:0:0:
237,308,139569,2,0,P|288:317|338:298,1,99.9999999999999,2|2,0:0|0:0,0:0:0:0:
366,264,140033,1,10,0:0:0:0:
366,264,140188,1,2,0:0:0:0:
324,173,140497,2,0,L|319:119,1,50,2|10,0:0|0:0,0:0:0:0:
300,76,140806,2,0,P|236:93|189:70,1,99.9999999999999,2|2,0:0|0:0,0:0:0:0:
169,48,141270,1,10,0:0:0:0:
131,140,141579,6,0,L|122:201,2,50,10|2|10,0:0|0:0|0:0,0:0:0:0:
90,110,142043,1,2,0:0:0:0:
90,110,142198,2,0,L|32:119,1,50,10|2,0:0|0:0,0:0:0:0:
1,149,142507,1,10,0:0:0:0:
7,249,142817,6,0,P|-1:303|86:328,1,150,10|10,0:0|0:0,0:0:0:0:
122,316,143435,2,0,L|179:309,1,50,10|10,0:0|0:0,0:0:0:0:
221,311,143744,2,0,L|270:317,1,50,10|8,0:0|0:0,0:0:0:0:
319,328,144054,1,4,3:2:0:0:
50,115,153951,6,0,P|39:151|96:250,2,150,2|2|2,3:2|0:0|0:0,0:0:0:0:
134,61,155188,1,2,0:0:0:0:
256,147,155652,1,2,0:0:0:0:
378,61,156116,1,2,0:0:0:0:
462,115,156425,6,0,P|473:151|416:250,2,150,2|2|2,3:2|0:0|0:0,0:0:0:0:
378,61,157662,1,2,0:0:0:0:
256,147,158126,1,2,0:0:0:0:
134,61,158590,1,2,0:0:0:0:
50,115,158899,6,0,P|39:151|96:250,2,150,2|2|2,3:2|0:0|0:0,0:0:0:0:
134,61,160136,2,0,P|201:88|231:155,1,150,2|2,3:2|0:0,0:0:0:0:
209,278,161064,1,2,0:0:0:0:
300,318,161373,6,0,P|364:338|444:295,2,150,2|2|2,3:2|0:0|0:0,0:0:0:0:
290,218,162610,2,0,P|355:185|426:204,1,150,2|2,3:2|0:0,0:0:0:0:
470,227,163229,1,0,3:2:0:0:
489,129,163538,1,2,0:0:0:0:
442,40,163847,5,2,3:2:0:0:
256,192,164002,12,8,166322,0:0:0:0:
39,38,167559,6,0,P|20:73|54:141,1,99.9999999999999,8|8,0:0|0:0,0:0:0:0:
86,150,168023,1,8,0:0:0:0:
86,150,168177,2,0,L|145:140,1,50,8|8,0:0|0:0,0:0:0:0:
185,140,168487,2,0,L|234:148,1,50,8|8,0:0|0:0,0:0:0:0:
281,164,168796,5,0,3:2:0:0:
430,296,169414,2,0,P|496:235|501:127,2,200,2|2|2,0:0|0:0|0:0,0:0:0:0:
214,342,171270,6,0,P|161:354|106:340,1,110.000003356934,6|8,3:2|0:0,0:0:0:0:
39,254,171889,2,0,L|53:123,1,110.000003356934,0|8,3:2|0:0,0:0:0:0:
128,67,172507,2,0,P|181:55|234:68,1,110.000003356934,2|10,3:2|0:0,0:0:0:0:
265,113,172971,1,2,0:0:0:0:
265,113,173126,2,0,L|257:172,2,55.0000016784668,2|2|10,3:2|0:0|0:0,0:0:0:0:
319,103,173590,5,2,0:0:0:0:
390,186,173899,2,0,L|398:250,1,55.0000016784668,2|10,0:0|0:0,0:0:0:0:
400,295,174208,2,0,P|352:328|299:312,1,110.000003356934,2|0,0:0|0:0,0:0:0:0:
264,278,174672,1,8,0:0:0:0:
169,221,174981,2,0,P|186:157|169:106,1,110.000003356934,0|8,3:2|0:0,0:0:0:0:
137,75,175445,1,2,0:0:0:0:
38,124,175755,6,0,L|38:184,1,55.0000016784668,2|10,0:0|0:0,0:0:0:0:
61,227,176064,2,0,P|35:270|42:337,1,110.000003356934,2|2,0:0|0:0,0:0:0:0:
88,365,176528,1,10,0:0:0:0:
88,365,176683,1,2,0:0:0:0:
193,333,176992,6,0,L|255:324,1,55.0000016784668,2|10,0:0|0:0,0:0:0:0:
295,351,177301,2,0,P|277:300|299:237,1,110.000003356934,2|2,0:0|0:0,0:0:0:0:
338,220,177765,1,10,0:0:0:0:
338,220,177920,2,0,L|453:222,1,110.000003356934,2|0,0:0|0:0,0:0:0:0:
501,207,178384,1,10,0:0:0:0:
507,97,178693,6,0,P|490:36|447:26,1,110.000003356934,2|8,3:2|0:0,0:0:0:0:
401,50,179157,1,2,0:0:0:0:
401,50,179311,1,0,3:2:0:0:
320,125,179621,2,0,L|259:120,1,55.0000016784668,10|2,0:0|0:0,0:0:0:0:
211,106,179930,1,8,0:0:0:0:
112,57,180239,1,2,3:2:0:0:
33,134,180549,2,0,L|42:203,1,55.0000016784668,10|8,0:0|0:0,0:0:0:0:
26,242,180858,2,0,L|35:311,1,55.0000016784668,10|8,0:0|0:0,0:0:0:0:
22,350,181167,6,0,P|82:368|135:339,1,110.000003356934,6|8,3:2|0:0,0:0:0:0:
206,277,181786,2,0,L|194:159,1,110.000003356934,0|8,3:2|0:0,0:0:0:0:
254,75,182404,2,0,P|307:55|362:59,1,110.000003356934,2|10,3:2|0:0,0:0:0:0:
391,103,182868,1,2,0:0:0:0:
391,103,183023,2,0,L|384:160,2,55.0000016784668,2|2|10,3:2|0:0|0:0,0:0:0:0:
442,82,183487,5,2,0:0:0:0:
506,170,183796,2,0,L|512:226,1,55.0000016784668,2|10,0:0|0:0,0:0:0:0:
510,279,184105,2,0,P|470:304|402:301,1,110.000003356934,2|0,0:0|0:0,0:0:0:0:
357,283,184569,1,8,0:0:0:0:
276,208,184878,2,0,L|159:230,1,110.000003356934,2|10,3:2|0:0,0:0:0:0:
122,259,185342,1,2,0:0:0:0:
28,211,185652,1,2,0:0:0:0:
28,211,185806,2,0,L|22:151,1,55.0000016784668,10|2,0:0|0:0,0:0:0:0:
17,101,186116,5,12,0:0:0:0:
102,31,186425,2,0,L|175:33,1,55.0000016784668,10|2,0:0|0:0,0:0:0:0:
212,32,186734,1,10,0:0:0:0:
274,122,187043,1,10,3:2:0:0:
359,52,187353,6,0,P|420:42|474:65,1,110.000003356934,10|10,0:0|0:0,0:0:0:0:
504,103,187817,1,2,3:2:0:0:
504,103,187971,2,0,L|493:219,1,110.000003356934,10|10,0:0|0:0,0:0:0:0:
430,303,188590,6,0,L|366:315,1,55.0000016784668,10|8,0:0|0:0,0:0:0:0:
322,325,188899,2,0,L|267:314,1,55.0000016784668,8|8,0:0|0:0,0:0:0:0:
213,303,189208,1,8,0:0:0:0:
136,223,189518,2,0,L|144:154,1,55.0000016784668,10|8,0:0|0:0,0:0:0:0:
146,113,189827,6,0,P|204:96|262:116,1,110.000003356934,14|10,0:0|0:0,0:0:0:0:
360,112,190445,2,0,P|412:99|464:116,1,110.000003356934,14|10,0:0|0:0,0:0:0:0:
475,216,191064,6,0,P|491:275|475:328,1,99.9999999999999,6|2,3:2|0:0,0:0:0:0:
444,344,191528,1,2,0:0:0:0:
444,344,191683,2,0,L|344:337,1,99.9999999999999,10|2,0:0|0:0,0:0:0:0:
245,349,192301,2,0,P|262:289|243:246,1,99.9999999999999,2|2,0:0|0:0,0:0:0:0:
204,233,192765,1,2,3:2:0:0:
204,233,192920,2,0,L|144:245,2,50,10|2|2,0:0|0:0|0:0,0:0:0:0:
291,184,193538,6,0,L|279:74,1,99.9999999999999,2|2,3:2|0:0,0:0:0:0:
241,62,194002,1,2,0:0:0:0:
241,62,194157,2,0,P|190:75|136:65,1,99.9999999999999,10|2,0:0|0:0,0:0:0:0:
44,60,194775,2,0,L|36:7,2,50,2|10|2,0:0|0:0|0:0,0:0:0:0:
62,111,195239,1,2,3:2:0:0:
62,111,195394,2,0,L|50:226,1,99.9999999999999,10|2,0:0|3:2,0:0:0:0:
37,309,196012,6,0,P|95:295|139:308,1,99.9999999999999,2|2,3:2|0:0,0:0:0:0:
175,341,196476,1,2,0:0:0:0:
175,341,196631,2,0,L|283:329,1,99.9999999999999,10|2,0:0|0:0,0:0:0:0:
304,234,197250,2,0,P|325:182|312:134,1,99.9999999999999,2|2,0:0|0:0,0:0:0:0:
282,103,197713,1,2,3:2:0:0:
282,103,197868,2,0,L|226:115,2,50,10|2|2,0:0|0:0|0:0,0:0:0:0:
289,3,198487,6,0,L|181:19,1,99.9999999999999,2|2,3:2|0:0,0:0:0:0:
144,27,198951,1,2,0:0:0:0:
144,27,199105,2,0,P|115:72|135:132,1,99.9999999999999,10|10,0:0|0:0,0:0:0:0:
152,155,199569,1,6,3:2:0:0:
