osu file format v14

[General]
AudioFilename: audio.mp3
AudioLeadIn: 0
PreviewTime: 103461
Countdown: 0
SampleSet: Soft
StackLeniency: 0.4
Mode: 0
LetterboxInBreaks: 0
WidescreenStoryboard: 1

[Editor]
DistanceSpacing: 1.57
BeatDivisor: 4
GridSize: 32
TimelineZoom: 3.299999

[Metadata]
Title:#NULL!*Peta
TitleUnicode:#NULL!*Peta
Artist:Null (CV: Waki Azumi), Peta (CV: Ueda Reina)
ArtistUnicode:ぬる (CV: 和氣あず未)、ぺた (CV: 上田麗奈)
Creator:[Karcher]
Version:Extra: Peta!
Source:ぬるぺた
Tags:null & peta -Invasion of the Queen Bug- Japanese pop Anime jpop j-pop video game TOKYOTOON やしきん 岸田勇気
BeatmapID:3150648
BeatmapSetID:1541134

[Difficulty]
HPDrainRate:6
CircleSize:4
OverallDifficulty:9.1
ApproachRate:9.4
SliderMultiplier:1.8
SliderTickRate:1

[Events]
//Background and Video events
0,0,"bg.jpg",0,0
//Break Periods
2,144672,153397
//Storyboard Layer 0 (Background)
//Storyboard Layer 1 (Fail)
//Storyboard Layer 2 (Pass)
//Storyboard Layer 3 (Foreground)
//Storyboard Layer 4 (Overlay)
//Storyboard Sound Samples

[TimingPoints]
549,309.278350515464,4,2,1,40,1,0
549,-100,4,2,1,40,0,0
858,-100,4,2,1,50,0,0
1167,-100,4,2,1,60,0,0
1476,-100,4,2,1,70,0,0
1786,-100,4,2,2,60,0,0
8280,-200,4,2,2,60,0,0
10368,-200,4,2,2,5,0,0
10445,-200,4,2,2,40,0,0
17868,-200,4,2,2,30,0,0
18487,-200,4,2,2,40,0,0
19105,-200,4,2,2,50,0,0
19414,-200,4,2,2,55,0,0
19724,-200,4,2,2,60,0,0
20342,-111.111111111111,4,2,2,55,0,0
30239,-100,4,2,1,65,0,0
30471,-142.857142857143,4,2,1,5,0,0
30549,-100,4,2,1,65,0,0
30780,-142.857142857143,4,2,1,5,0,0
30858,-100,4,2,1,65,0,0
35188,-142.857142857143,4,2,3,65,0,0
35265,-142.857142857143,4,2,2,65,0,0
35806,-500,4,2,2,65,0,0
36425,-76.9230769230769,4,2,3,80,0,1
55213,-76.9230769230769,4,2,3,5,0,1
55291,-76.9230769230769,4,2,3,80,0,1
55523,-76.9230769230769,4,2,3,5,0,1
55600,-76.9230769230769,4,2,3,80,0,1
55832,-76.9230769230769,4,2,3,5,0,1
55909,-76.9230769230769,4,2,3,80,0,1
56141,-76.9230769230769,4,2,3,5,0,1
56219,-100,4,2,2,60,0,0
62713,-200,4,2,2,60,0,0
63564,-200,4,2,2,5,0,0
63641,-200,4,2,2,40,0,0
71064,-100,4,2,2,40,0,0
71528,-100,4,2,2,50,0,0
71992,-100,4,2,2,60,0,0
72301,-200,4,2,4,70,0,0
73538,-111.111111111111,4,2,2,55,0,0
83435,-200,4,2,1,65,0,0
83744,-71.4285714285714,4,2,1,65,0,0
88693,-47.6190476190476,4,2,1,65,0,0
89002,-71.4285714285714,4,2,1,65,0,0
89311,-47.6190476190476,4,2,1,65,0,0
89543,-71.4285714285714,4,2,1,65,0,0
91476,-71.4285714285714,4,2,3,45,0,0
92095,-71.4285714285714,4,2,3,50,0,0
92404,-71.4285714285714,4,2,3,55,0,0
92713,-71.4285714285714,4,2,3,65,0,0
93023,-71.4285714285714,4,2,3,75,0,0
93332,-100,4,2,3,70,0,0
93487,-100,4,2,4,70,0,0
95188,-100,4,2,1,70,0,0
95961,-100,4,2,4,70,0,0
97662,-100,4,2,1,70,0,0
98280,-71.4285714285714,4,2,1,70,0,0
100755,-71.4285714285714,4,2,3,70,0,0
101992,-83.3333333333333,4,2,2,70,0,0
103229,-83.3333333333333,4,2,2,50,0,0
104157,-83.3333333333333,4,2,2,60,0,0
104466,-76.9230769230769,4,2,3,80,0,1
123255,-76.9230769230769,4,2,3,5,0,1
123332,-76.9230769230769,4,2,3,80,0,1
123564,-76.9230769230769,4,2,3,5,0,1
123641,-76.9230769230769,4,2,3,80,0,1
123873,-76.9230769230769,4,2,3,5,0,1
123951,-76.9230769230769,4,2,3,80,0,1
124183,-76.9230769230769,4,2,3,5,0,1
124260,-100,4,2,2,80,0,0
132920,-66.6666666666667,4,2,3,80,0,0
134157,-83.3333333333333,4,2,2,80,0,0
141579,-83.3333333333333,4,2,3,85,0,1
144054,-83.3333333333333,4,2,2,70,0,0
153951,-166.666666666667,4,2,4,40,0,0
158899,-166.666666666667,4,2,4,47,0,0
163847,-111.111111111111,4,2,2,55,0,0
166322,-111.111111111111,4,2,2,40,0,0
166940,-111.111111111111,4,2,2,50,0,0
167559,-111.111111111111,4,2,3,60,0,0
168177,-111.111111111111,4,2,3,70,0,0
169414,-249.999999999999,4,2,2,50,0,0
169956,-249.999999999999,4,2,2,5,0,0
170033,-166.666666666667,4,2,2,60,0,0
170574,-166.666666666667,4,2,2,5,0,0
170652,-125,4,2,2,70,0,0
171193,-125,4,2,2,5,0,0
171270,-76.9230769230769,4,2,3,80,0,1
190059,-76.9230769230769,4,2,3,5,0,1
190136,-76.9230769230769,4,2,3,80,0,1
190368,-76.9230769230769,4,2,3,5,0,1
190445,-76.9230769230769,4,2,3,80,0,1
190677,-76.9230769230769,4,2,3,5,0,1
190755,-76.9230769230769,4,2,3,80,0,1
190987,-76.9230769230769,4,2,3,5,0,1
191064,-100,4,2,2,65,0,0

[Colours]
Combo1 : 193,158,224
Combo2 : 255,239,128

[HitObjects]
42,44,549,5,2,0:0:0:0:
42,44,626,1,2,0:0:0:0:
42,44,703,2,0,L|46:103,1,45,2|2,0:0|0:0,0:0:0:0:
180,102,858,1,2,0:0:0:0:
180,102,935,1,2,0:0:0:0:
180,102,1012,2,0,L|176:161,1,45,2|2,0:0|0:0,0:0:0:0:
56,227,1167,5,2,0:0:0:0:
37,267,1244,1,2,0:0:0:0:
69,297,1322,1,2,0:0:0:0:
107,275,1399,1,2,0:0:0:0:
99,232,1477,1,10,0:0:0:0:
99,232,1786,6,0,L|156:240,1,45,6|0,3:2|0:0,0:0:0:0:
174,356,1940,2,0,L|218:349,1,45,2|0,0:0|0:0,0:0:0:0:
287,243,2095,1,2,0:0:0:0:
329,230,2172,1,2,0:0:0:0:
374,231,2250,1,2,0:0:0:0:
415,249,2327,1,2,0:0:0:0:
443,283,2404,6,0,P|435:237|446:193,1,90,10|2,0:0|0:0,0:0:0:0:
493,108,2636,1,2,0:0:0:0:
490,81,2713,1,2,0:0:0:0:
488,53,2791,1,2,0:0:0:0:
486,26,2868,1,2,3:2:0:0:
287,147,3023,5,2,0:0:0:0:
176,202,3177,1,2,0:0:0:0:
176,211,3229,1,2,0:0:0:0:
175,219,3280,2,0,L|178:255,1,30,2|2,0:0|0:0,0:0:0:0:
87,126,3487,1,2,3:2:0:0:
307,29,3641,6,0,L|305:61,1,22.5,10|0,0:0|0:0,0:0:0:0:
317,36,3796,6,0,L|315:58,1,22.5,2|0,0:0|0:0,0:0:0:0:
327,43,3951,6,0,L|325:65,1,22.5,2|0,0:0|0:0,0:0:0:0:
337,50,4105,6,0,L|335:72,1,22.5,2|0,0:0|0:0,0:0:0:0:
386,155,4260,5,2,3:2:0:0:
219,73,4414,1,2,0:0:0:0:
205,70,4492,1,2,0:0:0:0:
187,69,4569,1,2,0:0:0:0:
165,73,4646,1,2,0:0:0:0:
141,86,4724,1,2,0:0:0:0:
120,109,4801,1,2,0:0:0:0:
107,142,4878,6,0,L|109:174,1,22.5,10|0,0:0|0:0,0:0:0:0:
97,149,5033,6,0,L|98:171,1,22.5,2|0,0:0|0:0,0:0:0:0:
87,156,5188,6,0,L|88:178,1,22.5,2|0,0:0|0:0,0:0:0:0:
77,163,5342,6,0,L|78:185,1,22.5,2|0,3:2|0:0,0:0:0:0:
16,294,5497,5,2,0:0:0:0:
55,315,5574,1,2,0:0:0:0:
100,317,5652,1,10,0:0:0:0:
143,307,5729,1,2,0:0:0:0:
182,285,5806,1,2,0:0:0:0:
227,280,5884,1,2,0:0:0:0:
271,285,5961,1,2,3:2:0:0:
305,313,6038,1,2,0:0:0:0:
321,355,6116,6,0,P|302:367|274:368,3,45,10|2|2|2,0:0|0:0|0:0|0:0,0:0:0:0:
457,306,6425,2,0,P|476:318|504:319,3,45,2|2|2|2,3:2|0:0|3:2|3:2,0:0:0:0:
352,195,6734,6,0,L|357:239,1,45,2|0,3:2|0:0,0:0:0:0:
234,147,6889,2,0,L|228:191,1,45,2|0,0:0|0:0,0:0:0:0:
169,291,7043,1,2,0:0:0:0:
128,311,7121,1,2,0:0:0:0:
83,317,7198,1,2,0:0:0:0:
38,311,7275,1,2,0:0:0:0:
1,284,7353,6,0,L|-1:252,1,22.5,10|0,0:0|0:0,0:0:0:0:
11,277,7508,6,0,L|9:254,1,22.5,2|0,0:0|0:0,0:0:0:0:
21,270,7663,6,0,L|19:247,1,22.5,2|0,0:0|0:0,0:0:0:0:
31,263,7817,6,0,L|29:240,1,22.5,2|0,3:2|0:0,0:0:0:0:
94,34,7971,5,2,0:0:0:0:
85,55,8049,1,2,0:0:0:0:
88,78,8126,1,2,0:0:0:0:
101,97,8203,1,2,0:0:0:0:
141,110,8280,6,0,B|175:102|175:102|215:127|266:112|266:112|271:212|371:269|491:216|535:123|497:41|410:25|369:112,1,607.5,2|0,3:2|0:0,0:0:0:0:
368,112,10445,5,6,0:0:0:0:
427,285,10755,1,2,0:0:0:0:
427,285,10909,2,0,P|375:298|338:292,1,90,2|2,0:0|0:0,0:0:0:0:
252,261,11373,1,2,0:0:0:0:
252,261,11528,2,0,P|207:255|164:268,1,90,2|2,0:0|0:0,0:0:0:0:
44,354,11992,5,2,0:0:0:0:
36,193,12301,1,2,0:0:0:0:
28,32,12610,1,2,0:0:0:0:
36,193,12920,6,0,P|82:178|136:192,1,90,2|0,0:0|0:0,0:0:0:0:
230,153,13384,1,2,0:0:0:0:
230,153,13538,2,0,P|274:159|316:144,1,90,2|0,0:0|0:0,0:0:0:0:
512,208,14157,5,2,0:0:0:0:
377,250,14466,1,2,0:0:0:0:
242,208,14775,1,2,0:0:0:0:
107,250,15085,1,2,0:0:0:0:
242,208,15394,6,0,L|236:106,1,90,2|0,3:2|0:0,0:0:0:0:
22,53,16012,2,0,L|16:142,1,90,2|0,0:0|0:0,0:0:0:0:
126,159,16476,2,0,L|132:70,1,90,2|2,0:0|0:0,0:0:0:0:
252,51,16940,1,2,0:0:0:0:
252,51,17095,2,0,L|247:140,1,90,2|0,0:0|0:0,0:0:0:0:
260,272,17559,2,0,L|317:264,1,45,2|0,0:0|0:0,0:0:0:0:
159,312,17868,5,10,3:2:0:0:
138,320,17945,1,8,0:0:0:0:
115,324,18023,1,8,0:0:0:0:
92,324,18100,1,8,0:0:0:0:
70,318,18177,2,0,L|66:285,3,22.5,8|8|8|8,0:0|0:0|0:0|0:0,0:0:0:0:
198,236,18487,5,10,3:2:0:0:
224,263,18564,1,8,0:0:0:0:
260,272,18641,1,8,0:0:0:0:
298,273,18719,1,8,0:0:0:0:
334,262,18796,2,0,L|338:226,3,22.5,10|8|8|8,0:0|0:0|0:0|0:0,0:0:0:0:
181,153,19105,5,10,3:2:0:0:
137,176,19183,1,8,0:0:0:0:
87,174,19260,1,8,0:0:0:0:
46,147,19337,1,8,0:0:0:0:
37,98,19414,5,8,3:2:0:0:
81,74,19492,1,8,0:0:0:0:
130,76,19569,1,10,0:0:0:0:
172,103,19646,1,8,0:0:0:0:
181,153,19723,5,10,3:2:0:0:
237,161,19801,1,8,3:2:0:0:
292,168,19878,1,8,3:2:0:0:
348,175,19956,1,8,3:2:0:0:
403,183,20033,1,8,3:2:0:0:
263,319,20342,5,4,3:2:0:0:
403,183,20652,1,10,0:0:0:0:
454,266,20806,2,0,P|411:276|371:271,1,80.9999975280763,2|0,0:0|0:0,0:0:0:0:
183,192,21116,1,2,3:2:0:0:
118,275,21270,1,10,0:0:0:0:
61,94,21425,6,0,B|101:68|101:68|77:188,1,161.999995056153,2|2,0:0|0:0,0:0:0:0:
228,285,21889,2,0,P|272:293|308:281,1,80.9999975280763,10|0,0:0|0:0,0:0:0:0:
477,273,22198,2,0,L|467:361,1,80.9999975280763,2|0,0:0|3:2,0:0:0:0:
314,362,22507,2,0,L|304:281,1,80.9999975280763,10|0,0:0|0:0,0:0:0:0:
453,156,22817,6,0,P|495:176|474:274,1,161.999995056153,2|8,3:2|0:0,0:0:0:0:
285,259,23280,1,2,0:0:0:0:
314,362,23435,2,0,B|216:335|251:390|153:360,1,161.999995056153,2|8,0:0|0:0,0:0:0:0:
60,104,24054,5,0,3:2:0:0:
60,104,24208,1,0,3:2:0:0:
60,26,24363,2,0,P|51:68|61:105,1,80.9999975280763,10|0,0:0|0:0,0:0:0:0:
215,104,24672,2,0,P|183:75|146:65,1,80.9999975280763,2|0,0:0|3:2,0:0:0:0:
70,200,24981,2,0,P|110:186|137:159,1,80.9999975280763,10|0,0:0|0:0,0:0:0:0:
343,114,25291,6,0,B|417:103|417:103|434:112|434:112|511:99,1,161.999995056153,2|8,3:2|0:0,0:0:0:0:
501,100,25755,1,0,0:0:0:0:
331,33,25909,2,0,L|344:120,1,80.9999975280763,2|0,0:0|3:2,0:0:0:0:
503,251,26219,1,8,0:0:0:0:
253,357,26373,6,0,P|196:369|204:288,1,161.999995056153,2|0,0:0|0:0,0:0:0:0:
398,286,26837,2,0,L|405:371,1,80.9999975280763,8|0,0:0|0:0,0:0:0:0:
296,275,27146,1,0,0:0:0:0:
296,275,27301,1,0,3:2:0:0:
436,172,27456,1,10,0:0:0:0:
271,133,27610,1,2,0:0:0:0:
196,213,27765,6,0,L|106:224,1,80.9999975280763,10|2,0:0|0:0,0:0:0:0:
111,51,28074,2,0,L|201:62,1,80.9999975280763,10|2,0:0|0:0,0:0:0:0:
342,208,28384,6,0,L|432:219,1,80.9999975280763,10|2,0:0|0:0,0:0:0:0:
422,46,28693,2,0,L|332:57,1,80.9999975280763,10|2,0:0|0:0,0:0:0:0:
196,213,29002,5,8,0:0:0:0:
196,213,29157,1,10,0:0:0:0:
191,60,29311,1,10,0:0:0:0:
191,60,29466,1,8,0:0:0:0:
342,207,29621,6,0,L|390:213,1,40.4999987640381,10|8,0:0|0:0,0:0:0:0:
341,55,29775,2,0,L|390:47,1,40.4999987640381,8|8,0:0|0:0,0:0:0:0:
196,213,29930,5,8,0:0:0:0:
201,248,30007,1,8,0:0:0:0:
206,284,30085,1,8,0:0:0:0:
210,319,30162,1,8,0:0:0:0:
214,354,30239,6,0,B|263:333|263:333|345:350,1,135,4|0,3:2|0:0,0:0:0:0:
436,377,30549,2,0,P|390:357|402:279,1,135,2|0,0:0|0:0,0:0:0:0:
461,222,30858,1,10,0:0:0:0:
205,264,31012,2,0,L|215:368,1,90,2|0,0:0|0:0,0:0:0:0:
300,258,31322,5,2,3:2:0:0:
149,191,31476,1,2,0:0:0:0:
261,88,31631,2,0,L|243:199,1,90,10|0,0:0|0:0,0:0:0:0:
111,314,31940,5,2,3:2:0:0:
300,258,32095,1,10,0:0:0:0:
321,271,32172,1,2,0:0:0:0:
349,276,32250,1,2,0:0:0:0:
380,276,32327,1,2,0:0:0:0:
413,268,32404,1,2,0:0:0:0:
444,246,32481,1,2,0:0:0:0:
462,209,32559,1,2,0:0:0:0:
469,165,32636,1,2,0:0:0:0:
456,119,32713,5,2,3:2:0:0:
272,162,32868,2,0,L|375:180,1,90,2|0,0:0|0:0,0:0:0:0:
444,246,33177,1,2,0:0:0:0:
228,311,33332,5,10,0:0:0:0:
228,311,33487,1,2,0:0:0:0:
140,228,33641,1,2,0:0:0:0:
140,228,33796,1,2,3:2:0:0:
14,331,33951,5,2,0:0:0:0:
53,356,34028,1,2,0:0:0:0:
96,359,34105,1,2,0:0:0:0:
136,351,34183,1,2,0:0:0:0:
167,330,34260,1,2,0:0:0:0:
197,314,34337,1,2,0:0:0:0:
228,311,34414,1,2,3:2:0:0:
256,315,34492,1,2,0:0:0:0:
277,328,34569,6,0,P|277:349|269:375,3,45,10|2|2|2,0:0|0:0|3:2|3:2,0:0:0:0:
438,315,34878,2,0,P|434:299|438:270,3,45,2|2|2|2,3:2|3:2|3:2|3:2,0:0:0:0:
337,228,35188,5,10,0:0:0:0:
505,78,35342,1,8,0:0:0:0:
458,98,35420,1,8,0:0:0:0:
408,105,35497,1,10,0:0:0:0:
357,104,35574,1,8,0:0:0:0:
307,93,35652,1,8,0:0:0:0:
262,70,35729,1,8,0:0:0:0:
221,39,35806,6,0,L|214:0,1,36,2|2,3:2|0:0,0:0:0:0:
176,116,36425,6,0,P|136:158|15:66,2,233.999989288331,6|8|0,3:2|0:0|3:2,0:0:0:0:
275,220,37198,1,0,0:0:0:0:
396,127,37353,2,0,L|517:139,1,116.999994644165,8|2,0:0|0:0,0:0:0:0:
291,369,37662,5,2,3:2:0:0:
275,220,37817,1,2,0:0:0:0:
260,71,37971,1,10,0:0:0:0:
260,71,38126,1,2,0:0:0:0:
156,232,38280,5,2,3:2:0:0:
275,220,38434,1,2,0:0:0:0:
394,207,38589,1,10,0:0:0:0:
512,35,38744,6,0,B|453:-1|453:-1|488:178,1,233.999989288331,2|2,0:0|0:0,0:0:0:0:
411,339,39208,1,10,0:0:0:0:
275,220,39363,1,2,0:0:0:0:
155,365,39518,5,2,3:2:0:0:
132,371,39595,1,2,0:0:0:0:
108,373,39672,1,2,0:0:0:0:
84,371,39750,1,2,0:0:0:0:
62,362,39827,2,0,P|52:334|52:301,3,58.4999973220826,10|2|2|2,0:0|0:0|0:0|0:0,0:0:0:0:
179,262,40136,6,0,P|233:298|269:211,1,175.499991966248,2|0,3:2|0:0,0:0:0:0:
267,161,40445,2,0,L|275:226,1,58.4999973220826,10|0,0:0|0:0,0:0:0:0:
409,364,40600,6,0,P|396:294|481:227,1,175.499991966248,2|0,0:0|0:0,0:0:0:0:
483,313,40909,1,2,0:0:0:0:
312,363,41064,1,10,0:0:0:0:
229,312,41219,6,0,P|202:364|109:327,1,175.499991966248,2|0,0:0|0:0,0:0:0:0:
96,253,41528,1,2,0:0:0:0:
286,211,41683,1,10,0:0:0:0:
224,139,41837,6,0,P|238:204|226:322,1,175.499991966248,2|0,0:0|0:0,0:0:0:0:
312,363,42146,1,2,0:0:0:0:
495,220,42301,1,10,0:0:0:0:
501,131,42456,6,0,B|453:133|426:166|426:166|377:170|337:130,1,175.499991966248,2|0,0:0|0:0,0:0:0:0:
291,71,42765,1,2,0:0:0:0:
119,196,42920,1,10,0:0:0:0:
46,73,43074,6,0,P|54:107|52:139,1,58.4999973220826,2|0,0:0|0:0,0:0:0:0:
195,243,43229,1,2,3:2:0:0:
184,263,43306,1,2,0:0:0:0:
178,285,43384,1,2,0:0:0:0:
178,308,43461,1,2,0:0:0:0:
183,330,43538,2,0,P|212:349|246:352,3,58.4999973220826,10|0|0|0,0:0|0:0|0:0|0:0,0:0:0:0:
291,225,43847,6,0,P|261:174|105:213,1,233.999989288331,2|8,3:2|0:0,0:0:0:0:
111,198,44311,1,2,0:0:0:0:
299,341,44466,2,0,L|290:223,1,116.999994644165,0|0,3:2|0:0,0:0:0:0:
492,94,44775,1,10,0:0:0:0:
272,53,44930,1,2,0:0:0:0:
396,296,45085,5,8,0:0:0:0:
396,296,45162,1,8,0:0:0:0:
396,296,45239,2,0,L|388:224,1,58.4999973220826,8|0,0:0|0:0,0:0:0:0:
203,358,45394,2,0,L|194:240,1,116.999994644165,2|0,3:2|0:0,0:0:0:0:
12,61,45703,5,10,0:0:0:0:
30,75,45780,1,8,0:0:0:0:
58,82,45858,1,8,0:0:0:0:
92,84,45935,1,8,0:0:0:0:
132,78,46012,1,10,0:0:0:0:
176,61,46090,1,8,0:0:0:0:
228,54,46167,1,8,0:0:0:0:
285,61,46244,1,8,0:0:0:0:
344,85,46322,6,0,P|313:141|447:189,2,233.999989288331,6|8|0,3:2|0:0|3:2,0:0:0:0:
494,97,47095,1,0,0:0:0:0:
442,321,47250,2,0,L|430:203,1,116.999994644165,8|2,0:0|0:0,0:0:0:0:
258,4,47559,5,2,3:2:0:0:
269,153,47714,1,2,0:0:0:0:
280,302,47868,1,10,0:0:0:0:
280,302,48023,1,2,0:0:0:0:
388,145,48177,5,2,3:2:0:0:
269,153,48332,1,2,0:0:0:0:
149,162,48486,1,10,0:0:0:0:
70,276,48641,6,0,P|152:282|142:158,1,233.999989288331,2|2,0:0|0:0,0:0:0:0:
19,82,49105,1,10,0:0:0:0:
160,44,49260,2,0,L|147:167,1,116.999994644165,2|2,0:0|3:2,0:0:0:0:
284,239,49569,5,2,0:0:0:0:
303,252,49646,1,2,0:0:0:0:
326,256,49724,1,10,0:0:0:0:
349,256,49801,1,2,0:0:0:0:
372,253,49878,2,0,L|379:190,1,58.4999973220826,0|2,0:0|0:0,0:0:0:0:
284,239,50033,5,0,3:2:0:0:
234,222,50110,1,0,3:2:0:0:
181,227,50188,1,0,3:2:0:0:
133,248,50265,1,0,3:2:0:0:
103,291,50342,2,0,L|113:359,1,58.4999973220826,10|0,0:0|0:0,0:0:0:0:
284,384,50497,2,0,L|275:326,3,58.4999973220826,2|0|8|0,3:2|3:2|3:2|3:2,0:0:0:0:
181,227,50806,5,2,3:2:0:0:
163,189,50884,1,0,3:2:0:0:
167,148,50961,1,10,0:0:0:0:
194,118,51038,1,0,3:2:0:0:
234,111,51116,1,2,3:2:0:0:
273,121,51193,1,0,3:2:0:0:
297,153,51270,6,0,P|299:186|290:217,3,58.4999973220826,12|0|0|0,0:0|3:2|3:2|3:2,0:0:0:0:
284,375,51579,2,0,P|254:360|232:336,1,58.4999973220826,10|0,0:0|3:2,0:0:0:0:
355,268,51734,2,0,P|327:286|296:293,1,58.4999973220826,2|0,3:2|3:2,0:0:0:0:
151,251,51889,5,10,0:0:0:0:
151,251,51966,1,0,3:2:0:0:
151,251,52043,2,0,L|213:256,1,58.4999973220826,0|0,3:2|3:2,0:0:0:0:
355,268,52198,1,10,0:0:0:0:
399,295,52275,1,0,3:2:0:0:
452,292,52353,1,0,3:2:0:0:
497,265,52430,1,0,3:2:0:0:
511,214,52507,6,0,L|504:147,3,58.4999973220826,10|0|0|0,0:0|3:2|3:2|3:2,0:0:0:0:
372,71,52817,2,0,P|338:66|310:71,1,58.4999973220826,10|0,0:0|3:2,0:0:0:0:
372,160,52971,2,0,P|343:163|314:158,1,58.4999973220826,2|0,3:2|3:2,0:0:0:0:
220,115,53126,6,0,L|143:129,3,58.4999973220826,10|0|0|0,0:0|3:2|3:2|3:2,0:0:0:0:
18,58,53435,2,0,L|95:72,3,58.4999973220826,10|0|0|0,0:0|3:2|3:2|3:2,0:0:0:0:
220,2,53744,5,10,0:0:0:0:
264,12,53822,1,0,3:2:0:0:
298,41,53899,1,8,0:0:0:0:
316,84,53976,1,0,3:2:0:0:
314,130,54054,1,8,0:0:0:0:
292,170,54131,1,0,3:2:0:0:
255,196,54208,1,8,0:0:0:0:
210,203,54286,1,0,3:2:0:0:
166,190,54363,5,8,0:0:0:0:
218,158,54440,1,8,0:0:0:0:
279,161,54517,1,8,0:0:0:0:
329,196,54595,1,8,0:0:0:0:
351,253,54672,1,10,0:0:0:0:
339,312,54750,1,8,0:0:0:0:
297,356,54827,1,8,0:0:0:0:
238,370,54904,1,8,0:0:0:0:
184,349,54981,6,0,B|149:276|68:308|68:308|86:308|104:315,1,175.499991966248,14|0,0:0|0:0,0:0:0:0:
197,327,55291,2,0,B|232:254|313:286|313:286|295:286|277:293,1,175.499991966248,10|0,0:0|0:0,0:0:0:0:
184,305,55600,2,0,B|149:232|68:264|68:264|86:264|104:271,1,175.499991966248,14|0,0:0|0:0,0:0:0:0:
197,283,55909,2,0,B|232:210|313:242|313:242|295:242|277:249,1,175.499991966248,10|0,0:0|0:0,0:0:0:0:
168,175,56219,6,0,L|161:116,1,45,6|0,3:2|0:0,0:0:0:0:
21,125,56373,2,0,L|28:66,1,45,2|0,0:0|0:0,0:0:0:0:
155,13,56528,1,2,0:0:0:0:
193,35,56605,1,2,0:0:0:0:
237,42,56683,1,2,0:0:0:0:
281,39,56760,1,2,0:0:0:0:
322,20,56837,6,0,P|370:7|419:15,1,90,10|2,0:0|0:0,0:0:0:0:
484,68,57069,1,2,0:0:0:0:
487,94,57146,1,2,0:0:0:0:
490,120,57224,1,2,0:0:0:0:
494,147,57301,1,2,3:2:0:0:
321,287,57456,5,2,0:0:0:0:
401,168,57610,1,2,0:0:0:0:
401,158,57662,1,2,0:0:0:0:
399,149,57713,2,0,L|392:113,1,30,2|2,0:0|0:0,0:0:0:0:
512,261,57920,1,2,3:2:0:0:
321,287,58074,6,0,L|323:255,1,22.5,10|0,0:0|0:0,0:0:0:0:
311,280,58229,6,0,L|313:257,1,22.5,2|0,0:0|0:0,0:0:0:0:
301,273,58384,6,0,L|303:250,1,22.5,2|0,0:0|0:0,0:0:0:0:
291,266,58538,6,0,L|293:243,1,22.5,2|0,0:0|0:0,0:0:0:0:
244,350,58693,5,2,3:2:0:0:
55,349,58847,1,2,0:0:0:0:
65,340,58925,1,2,0:0:0:0:
77,327,59002,1,2,0:0:0:0:
86,306,59079,1,2,0:0:0:0:
90,279,59157,1,2,0:0:0:0:
88,247,59234,1,2,0:0:0:0:
70,215,59311,6,0,L|38:213,1,22.5,10|0,0:0|0:0,0:0:0:0:
63,225,59466,6,0,L|40:223,1,22.5,2|0,0:0|0:0,0:0:0:0:
56,235,59621,6,0,L|33:233,1,22.5,2|0,0:0|0:0,0:0:0:0:
49,245,59775,6,0,L|26:243,1,22.5,2|0,3:2|0:0,0:0:0:0:
169,176,59930,5,2,0:0:0:0:
212,186,60007,1,2,0:0:0:0:
256,179,60085,1,10,0:0:0:0:
295,158,60162,1,2,0:0:0:0:
322,122,60239,1,2,0:0:0:0:
361,99,60317,1,2,0:0:0:0:
405,92,60394,1,2,3:2:0:0:
449,96,60471,1,2,0:0:0:0:
490,114,60549,6,0,P|497:138|498:168,3,45,10|2|2|2,0:0|0:0|0:0|0:0,0:0:0:0:
396,249,60858,2,0,P|397:226|404:204,3,45,2|2|2|2,3:2|0:0|3:2|3:2,0:0:0:0:
319,121,61167,6,0,L|268:136,1,45,2|0,3:2|0:0,0:0:0:0:
182,67,61322,2,0,L|138:54,1,45,2|0,0:0|0:0,0:0:0:0:
56,150,61476,1,2,0:0:0:0:
38,191,61554,1,2,0:0:0:0:
36,235,61631,1,2,0:0:0:0:
48,278,61708,1,2,0:0:0:0:
83,306,61786,6,0,L|106:308,1,22.5,10|0,0:0|0:0,0:0:0:0:
90,296,61940,6,0,L|113:298,1,22.5,2|0,0:0|0:0,0:0:0:0:
97,286,62095,6,0,L|120:288,1,22.5,2|0,0:0|0:0,0:0:0:0:
104,277,62250,6,0,L|126:278,1,22.5,2|0,3:2|0:0,0:0:0:0:
336,170,62404,5,2,0:0:0:0:
345,191,62482,1,2,0:0:0:0:
342,214,62559,1,2,0:0:0:0:
329,233,62636,1,2,0:0:0:0:
297,254,62713,6,0,B|154:290|231:149|78:185,1,247.5,2|0,3:2|0:0,0:0:0:0:
81,184,63641,5,6,0:0:0:0:
338,332,63951,1,2,0:0:0:0:
338,332,64105,1,2,0:0:0:0:
250,373,64260,2,0,P|241:347|243:324,1,45,2|2,0:0|0:0,0:0:0:0:
286,254,64569,2,0,P|295:228|293:205,1,45,2|2,0:0|0:0,0:0:0:0:
162,63,64878,5,8,0:0:0:0:
340,117,65033,1,10,0:0:0:0:
340,117,65497,6,0,L|369:112,1,22.5,2|0,0:0|0:0,0:0:0:0:
376,215,65652,2,0,L|389:241,1,22.5,2|0,0:0|0:0,0:0:0:0:
293,280,65806,2,0,L|271:301,1,22.5,2|0,0:0|0:0,0:0:0:0:
204,223,65961,2,0,L|177:209,1,22.5,2|0,0:0|0:0,0:0:0:0:
233,121,66116,6,0,L|240:21,1,90,6|0,3:2|0:0,0:0:0:0:
116,58,66579,1,2,0:0:0:0:
116,58,66734,2,0,L|122:147,1,90,10|0,0:0|3:2,0:0:0:0:
219,323,67353,5,0,0:0:0:0:
219,323,67662,2,0,L|165:333,1,45,2|0,3:2|0:0,0:0:0:0:
66,363,67971,2,0,L|84:311,1,45,10|0,0:0|0:0,0:0:0:0:
107,211,68280,2,0,L|142:252,1,45,2|0,0:0|0:0,0:0:0:0:
219,323,68590,6,0,B|263:313|263:313|307:319,1,90,2|0,3:2|0:0,0:0:0:0:
396,378,69054,1,0,0:0:0:0:
396,378,69208,2,0,B|440:384|440:384|484:374,1,90,10|0,0:0|3:2,0:0:0:0:
486,277,69672,2,0,B|442:271|442:271|398:281,1,90,2|2,0:0|0:0,0:0:0:0:
307,319,70136,1,2,3:2:0:0:
307,319,70291,1,2,0:0:0:0:
204,300,70445,2,0,L|214:210,1,90,8|2,0:0|0:0,0:0:0:0:
453,93,71064,5,10,3:2:0:0:
453,93,71141,1,8,0:0:0:0:
453,93,71219,2,0,L|391:107,1,45,8|8,0:0|0:0,0:0:0:0:
288,135,71373,1,8,3:2:0:0:
288,135,71450,1,8,0:0:0:0:
288,135,71528,2,0,L|226:121,1,45,8|8,0:0|0:0,0:0:0:0:
97,40,71683,5,10,3:2:0:0:
75,35,71760,1,8,0:0:0:0:
49,44,71837,1,8,3:2:0:0:
34,71,71914,1,8,0:0:0:0:
40,106,71992,1,10,3:2:0:0:
73,128,72069,1,8,3:2:0:0:
117,130,72146,1,8,3:2:0:0:
163,111,72224,1,8,3:2:0:0:
186,62,72301,5,2,0:0:0:0:
306,31,72456,2,0,L|310:2,2,22.5,2|2|2,0:0|0:0|0:0,0:0:0:0:
405,105,72765,1,2,0:0:0:0:
252,249,72920,5,2,0:0:0:0:
256,282,72997,1,2,0:0:0:0:
260,315,73074,1,2,0:0:0:0:
263,348,73152,1,2,0:0:0:0:
266,381,73229,1,10,0:0:0:0:
503,213,73538,5,4,3:2:0:0:
252,249,73847,1,10,0:0:0:0:
215,169,74002,2,0,P|254:162|296:172,1,80.9999975280763,2|0,0:0|0:0,0:0:0:0:
430,276,74311,1,2,3:2:0:0:
342,248,74466,1,10,0:0:0:0:
388,105,74621,6,0,B|422:70|422:70|409:193,1,161.999995056153,2|2,0:0|0:0,0:0:0:0:
356,340,75085,2,0,P|313:356|271:345,1,80.9999975280763,10|0,0:0|0:0,0:0:0:0:
129,273,75394,2,0,L|121:361,1,80.9999975280763,2|0,0:0|3:2,0:0:0:0:
279,349,75703,2,0,L|271:268,1,80.9999975280763,10|0,0:0|0:0,0:0:0:0:
71,194,76012,6,0,P|50:251|133:268,1,161.999995056153,2|8,3:2|0:0,0:0:0:0:
300,247,76476,1,2,0:0:0:0:
279,349,76631,2,0,B|377:318|342:383|447:344,1,161.999995056153,2|8,0:0|0:0,0:0:0:0:
498,94,77250,5,0,3:2:0:0:
498,94,77404,1,0,3:2:0:0:
499,16,77559,2,0,P|507:64|493:104,1,80.9999975280763,10|0,0:0|0:0,0:0:0:0:
338,91,77868,2,0,P|375:60|417:52,1,80.9999975280763,2|0,0:0|3:2,0:0:0:0:
483,192,78177,2,0,P|437:174|409:142,1,80.9999975280763,10|0,0:0|0:0,0:0:0:0:
265,198,78487,6,0,B|213:227|213:227|109:202,1,161.999995056153,2|8,3:2|0:0,0:0:0:0:
113,203,78951,1,0,0:0:0:0:
186,49,79105,2,0,L|194:135,1,80.9999975280763,2|0,0:0|3:2,0:0:0:0:
326,293,79414,1,8,0:0:0:0:
512,162,79569,6,0,P|528:120|436:129,1,161.999995056153,2|0,0:0|0:0,0:0:0:0:
344,212,80033,2,0,L|428:195,1,80.9999975280763,8|0,0:0|0:0,0:0:0:0:
283,130,80342,1,0,0:0:0:0:
283,130,80497,1,0,3:2:0:0:
240,225,80652,2,0,L|233:315,1,80.9999975280763,10|0,0:0|0:0,0:0:0:0:
101,128,80961,5,10,0:0:0:0:
283,130,81116,1,2,0:0:0:0:
283,130,81270,2,0,L|276:49,1,80.9999975280763,10|2,0:0|0:0,0:0:0:0:
105,37,81579,5,10,0:0:0:0:
101,128,81734,1,2,0:0:0:0:
97,219,81889,2,0,L|95:313,1,80.9999975280763,10|2,0:0|0:0,0:0:0:0:
369,362,82198,5,8,0:0:0:0:
446,302,82353,1,10,0:0:0:0:
465,207,82507,1,10,0:0:0:0:
412,124,82662,1,8,0:0:0:0:
281,280,82817,5,10,0:0:0:0:
242,291,82894,1,8,0:0:0:0:
202,284,82971,1,8,0:0:0:0:
169,261,83049,1,8,0:0:0:0:
149,226,83126,1,8,0:0:0:0:
146,186,83203,1,8,0:0:0:0:
160,149,83280,1,8,0:0:0:0:
189,121,83358,1,8,0:0:0:0:
227,108,83435,6,0,P|268:115|296:101,1,67.5,4|0,3:2|0:0,0:0:0:0:
365,40,83744,6,0,P|340:97|366:164,1,125.999996154785,2|0,0:0|0:0,0:0:0:0:
476,237,83976,5,0,0:0:0:0:
476,237,84054,2,0,L|400:248,1,62.9999980773926,10|0,0:0|0:0,0:0:0:0:
253,232,84208,2,0,L|329:243,1,62.9999980773926,2|0,0:0|0:0,0:0:0:0:
478,332,84363,6,0,L|402:343,1,62.9999980773926,2|0,0:0|0:0,0:0:0:0:
255,327,84517,2,0,L|331:338,1,62.9999980773926,2|0,3:2|0:0,0:0:0:0:
476,237,84672,5,2,0:0:0:0:
456,130,84827,1,10,0:0:0:0:
265,92,84981,5,2,0:0:0:0:
255,327,85136,1,2,3:2:0:0:
68,202,85291,5,10,0:0:0:0:
88,188,85368,1,2,0:0:0:0:
118,182,85445,1,2,0:0:0:0:
156,182,85523,1,2,0:0:0:0:
198,191,85600,1,2,0:0:0:0:
239,218,85677,1,2,0:0:0:0:
257,265,85755,2,0,P|260:302|253:330,1,62.9999980773926,2|2,0:0|0:0,0:0:0:0:
341,204,85909,6,0,P|405:182|471:198,1,125.999996154785,2|2,3:2|0:0,0:0:0:0:
467,294,86141,1,0,0:0:0:0:
467,294,86219,2,0,P|403:316|337:300,1,125.999996154785,2|2,0:0|0:0,0:0:0:0:
198,191,86528,5,10,0:0:0:0:
218,306,86683,1,2,0:0:0:0:
30,358,86837,5,2,0:0:0:0:
45,137,86992,1,2,3:2:0:0:
218,306,87146,5,2,0:0:0:0:
307,243,87301,1,10,0:0:0:0:
356,233,87378,1,2,0:0:0:0:
404,247,87456,1,2,0:0:0:0:
480,328,87610,1,2,3:2:0:0:
358,127,87765,5,10,0:0:0:0:
305,106,87842,1,2,0:0:0:0:
254,108,87920,1,2,0:0:0:0:
218,133,87997,1,2,0:0:0:0:
204,167,88074,1,2,0:0:0:0:
182,190,88152,1,2,0:0:0:0:
152,201,88229,1,2,0:0:0:0:
120,202,88306,1,2,0:0:0:0:
90,189,88384,6,0,L|104:54,1,125.999996154785,2|2,3:2|0:0,0:0:0:0:
218,133,88616,5,0,0:0:0:0:
218,133,88693,2,0,P|206:228|306:149,1,283.499991348267,2|0,0:0|0:0,0:0:0:0:
283,16,89002,6,0,L|292:86,1,62.9999980773926,10|2,0:0|0:0,0:0:0:0:
469,134,89157,2,0,L|460:204,1,62.9999980773926,2|2,0:0|0:0,0:0:0:0:
365,277,89311,6,0,P|368:360|288:328,1,188.999994232178,2|2,0:0|3:2,0:0:0:0:
204,246,89543,5,0,0:0:0:0:
204,246,89621,2,0,L|269:236,1,62.9999980773926,2|0,0:0|0:0,0:0:0:0:
117,336,89775,2,0,L|179:345,1,62.9999980773926,10|0,0:0|0:0,0:0:0:0:
88,223,89930,6,0,L|96:147,1,62.9999980773926,2|0,0:0|0:0,0:0:0:0:
263,138,90085,2,0,L|255:62,1,62.9999980773926,2|0,3:2|0:0,0:0:0:0:
71,13,90239,5,10,0:0:0:0:
51,14,90317,1,2,0:0:0:0:
30,28,90394,1,2,0:0:0:0:
20,57,90471,1,2,0:0:0:0:
29,94,90549,1,2,0:0:0:0:
65,118,90626,1,2,0:0:0:0:
115,121,90703,1,2,0:0:0:0:
168,104,90780,1,2,0:0:0:0:
204,59,90858,6,0,P|269:42|331:58,1,125.999996154785,2|2,3:2|0:0,0:0:0:0:
391,138,91090,1,0,0:0:0:0:
391,138,91167,2,0,P|452:150|512:133,1,125.999996154785,2|2,0:0|0:0,0:0:0:0:
263,138,91476,6,0,L|269:210,1,62.9999980773926,10|8,0:0|0:0,0:0:0:0:
380,254,91631,1,10,0:0:0:0:
380,254,91708,1,10,0:0:0:0:
380,254,91786,2,0,L|374:326,3,62.9999980773926,10|8|10|8,0:0|0:0|0:0|0:0,0:0:0:0:
265,368,92095,5,10,0:0:0:0:
236,380,92172,1,8,0:0:0:0:
204,382,92250,1,10,0:0:0:0:
174,372,92327,1,8,0:0:0:0:
153,348,92404,5,8,0:0:0:0:
123,315,92481,1,8,0:0:0:0:
80,303,92559,1,10,0:0:0:0:
36,310,92636,1,8,0:0:0:0:
2,338,92713,5,10,0:0:0:0:
59,340,92791,1,8,0:0:0:0:
113,327,92868,1,8,0:0:0:0:
160,297,92945,1,8,0:0:0:0:
197,253,93023,1,8,0:0:0:0:
247,227,93100,1,8,0:0:0:0:
302,219,93177,1,8,0:0:0:0:
358,225,93255,1,8,0:0:0:0:
408,249,93332,5,6,3:2:0:0:
346,351,93487,1,2,0:0:0:0:
345,337,93564,1,2,0:0:0:0:
344,323,93641,1,2,3:2:0:0:
239,355,93796,1,2,0:0:0:0:
238,341,93873,1,2,0:0:0:0:
237,327,93950,1,2,3:2:0:0:
122,359,94105,1,2,0:0:0:0:
121,345,94182,1,2,0:0:0:0:
120,331,94259,1,2,3:2:0:0:
333,197,94414,6,0,L|336:248,1,45,2|2,0:0|0:0,0:0:0:0:
344,323,94569,1,2,3:2:0:0:
226,201,94724,2,0,L|229:252,1,45,2|2,0:0|0:0,0:0:0:0:
237,327,94879,1,2,3:2:0:0:
109,205,95033,2,0,L|112:256,1,45,2|2,0:0|0:0,0:0:0:0:
120,330,95188,5,2,3:2:0:0:
106,332,95265,1,2,0:0:0:0:
88,332,95342,1,2,0:0:0:0:
66,326,95420,1,2,0:0:0:0:
43,310,95497,1,2,3:2:0:0:
34,279,95574,1,2,0:0:0:0:
39,242,95652,1,2,0:0:0:0:
66,212,95729,1,2,0:0:0:0:
109,205,95806,5,2,3:2:0:0:
246,262,95961,1,2,0:0:0:0:
232,262,96038,1,2,0:0:0:0:
218,263,96116,1,2,3:2:0:0:
239,155,96270,1,2,0:0:0:0:
225,155,96347,1,2,0:0:0:0:
211,156,96425,1,2,3:2:0:0:
237,44,96579,1,2,0:0:0:0:
223,44,96656,1,2,0:0:0:0:
209,45,96734,1,2,3:2:0:0:
87,267,96889,6,0,L|139:265,1,45,2|2,0:0|0:0,0:0:0:0:
218,263,97043,1,2,3:2:0:0:
80,160,97198,2,0,L|132:158,1,45,2|2,0:0|0:0,0:0:0:0:
211,156,97352,1,2,3:2:0:0:
78,49,97507,2,0,L|130:47,1,45,2|2,0:0|0:0,0:0:0:0:
209,45,97661,5,2,3:2:0:0:
248,67,97739,1,2,0:0:0:0:
288,70,97817,1,2,0:0:0:0:
323,68,97894,1,2,0:0:0:0:
354,64,97971,1,2,3:2:0:0:
380,55,98049,1,2,0:0:0:0:
402,51,98126,1,2,0:0:0:0:
419,52,98203,1,2,0:0:0:0:
435,57,98280,6,0,P|454:119|437:179,1,125.999996154785,10|0,0:0|0:0,0:0:0:0:
265,337,98590,1,10,0:0:0:0:
265,232,98744,1,2,0:0:0:0:
486,278,98899,6,0,L|352:288,1,125.999996154785,10|0,0:0|0:0,0:0:0:0:
202,239,99131,1,10,0:0:0:0:
202,239,99208,2,0,L|267:231,1,62.9999980773926
202,344,99363,2,0,L|265:337,1,62.9999980773926,10|0,0:0|0:0,0:0:0:0:
367,185,99518,6,0,P|383:112|361:60,1,125.999996154785,10|2,0:0|0:0,0:0:0:0:
104,174,99827,2,0,P|88:101|110:49,1,125.999996154785,10|2,0:0|0:0,0:0:0:0:
299,124,100136,6,0,L|161:114,1,125.999996154785,10|0,0:0|0:0,0:0:0:0:
206,30,100368,1,10,0:0:0:0:
206,30,100445,2,0,L|270:35,1,62.9999980773926
196,203,100600,2,0,L|260:208,1,62.9999980773926,10|0,0:0|0:0,0:0:0:0:
475,133,100755,5,10,0:0:0:0:
298,317,100909,1,2,0:0:0:0:
384,285,101064,6,0,P|391:320|383:354,1,62.9999980773926,10|0,0:0|0:0,0:0:0:0:
217,353,101219,2,0,P|210:318|218:284,1,62.9999980773926,2|0,0:0|0:0,0:0:0:0:
475,133,101373,5,10,0:0:0:0:
484,109,101451,1,2,0:0:0:0:
485,83,101528,1,2,0:0:0:0:
478,58,101605,1,2,0:0:0:0:
463,36,101683,6,0,L|389:45,1,62.9999980773926,10|0,0:0|0:0,0:0:0:0:
294,216,101837,2,0,L|231:208,1,62.9999980773926,2|0,0:0|0:0,0:0:0:0:
177,18,101992,5,10,3:2:0:0:
129,11,102069,1,8,0:0:0:0:
81,21,102146,1,10,0:0:0:0:
43,52,102224,1,8,0:0:0:0:
29,98,102301,5,10,3:2:0:0:
57,122,102378,1,8,0:0:0:0:
94,130,102456,1,10,0:0:0:0:
131,129,102533,1,8,0:0:0:0:
166,115,102610,5,10,3:2:0:0:
148,102,102688,1,8,0:0:0:0:
127,96,102765,1,8,0:0:0:0:
105,98,102842,1,8,0:0:0:0:
85,108,102920,5,8,3:2:0:0:
116,137,102997,1,8,0:0:0:0:
158,145,103074,1,8,0:0:0:0:
201,144,103152,1,8,0:0:0:0:
240,126,103229,6,0,L|250:64,7,53.9999983520508,6|2|2|2|2|2|2|2,3:2|0:0|0:0|0:0|0:0|0:0|0:0|0:0,0:0:0:0:
342,169,103847,5,2,0:0:0:0:
351,173,103925,1,2,0:0:0:0:
366,176,104002,1,2,0:0:0:0:
387,176,104079,1,2,0:0:0:0:
413,169,104157,1,2,0:0:0:0:
441,153,104234,1,2,0:0:0:0:
463,122,104311,1,2,0:0:0:0:
467,78,104389,1,2,0:0:0:0:
449,33,104466,6,0,P|406:88|310:2,2,233.999989288331,6|8|0,3:2|0:0|3:2,0:0:0:0:
499,189,105239,1,0,0:0:0:0:
395,313,105394,2,0,L|384:190,1,116.999994644165,8|2,0:0|0:0,0:0:0:0:
120,24,105703,5,2,3:2:0:0:
135,173,105857,1,2,0:0:0:0:
151,322,106012,1,10,0:0:0:0:
151,322,106167,1,2,0:0:0:0:
255,161,106322,5,2,3:2:0:0:
135,173,106477,1,2,0:0:0:0:
16,185,106631,1,10,0:0:0:0:
258,59,106786,6,0,P|323:87|309:236,1,233.999989288331,2|2,0:0|0:0,0:0:0:0:
413,384,107250,1,10,0:0:0:0:
512,254,107404,1,2,0:0:0:0:
316,230,107559,5,2,3:2:0:0:
287,237,107636,1,2,0:0:0:0:
261,251,107713,1,2,0:0:0:0:
239,271,107791,1,2,0:0:0:0:
226,297,107868,2,0,P|220:329|221:369,3,58.4999973220826,10|2|2|2,0:0|0:0|0:0|0:0,0:0:0:0:
355,312,108177,6,0,P|403:256|373:157,1,175.499991966248,2|0,3:2|0:0,0:0:0:0:
384,105,108487,2,0,L|379:170,1,58.4999973220826,10|0,0:0|0:0,0:0:0:0:
316,230,108641,6,0,P|229:240|181:166,1,175.499991966248,2|0,0:0|0:0,0:0:0:0:
222,102,108951,1,2,0:0:0:0:
14,66,109105,1,10,0:0:0:0:
88,3,109260,6,0,P|66:64|67:189,1,175.499991966248,2|0,0:0|0:0,0:0:0:0:
90,258,109569,1,2,0:0:0:0:
266,332,109724,1,10,0:0:0:0:
354,298,109878,6,0,P|357:226|282:251,1,175.499991966248,2|0,0:0|0:0,0:0:0:0:
201,271,110188,1,2,0:0:0:0:
410,107,110342,1,10,0:0:0:0:
471,178,110497,6,0,P|502:118|446:20,1,175.499991966248,2|0,0:0|0:0,0:0:0:0:
371,21,110806,1,2,0:0:0:0:
150,150,110961,1,10,0:0:0:0:
52,69,111116,6,0,P|65:106|65:131,1,58.4999973220826,2|0,0:0|0:0,0:0:0:0:
19,346,111270,1,2,3:2:0:0:
9,318,111347,1,2,0:0:0:0:
10,288,111425,1,2,0:0:0:0:
20,260,111502,1,2,0:0:0:0:
36,235,111579,2,0,P|63:223|96:222,3,58.4999973220826,10|0|0|0,0:0|0:0|0:0|0:0,0:0:0:0:
180,267,111889,6,0,B|308:219|265:301|415:254,1,233.999989288331,2|8,3:2|0:0,0:0:0:0:
408,256,112353,1,2,0:0:0:0:
321,45,112507,2,0,L|334:172,1,116.999994644165,0|0,3:2|0:0,0:0:0:0:
512,260,112817,1,10,0:0:0:0:
314,313,112971,1,2,0:0:0:0:
433,90,113126,5,8,0:0:0:0:
433,90,113203,1,8,0:0:0:0:
433,90,113280,2,0,L|438:152,1,58.4999973220826,8|0,0:0|0:0,0:0:0:0:
213,51,113435,2,0,L|226:178,1,116.999994644165,2|0,3:2|0:0,0:0:0:0:
502,243,113744,5,10,0:0:0:0:
482,255,113822,1,8,0:0:0:0:
454,264,113899,1,8,0:0:0:0:
419,267,113976,1,8,0:0:0:0:
377,262,114054,1,10,0:0:0:0:
334,242,114131,1,8,0:0:0:0:
282,230,114208,1,8,0:0:0:0:
223,236,114286,1,8,0:0:0:0:
169,271,114363,6,0,P|147:358|31:318,2,233.999989288331,6|8|0,3:2|0:0|3:2,0:0:0:0:
223,87,115136,1,0,0:0:0:0:
22,39,115291,2,0,L|41:171,1,116.999994644165,8|2,0:0|0:0,0:0:0:0:
169,271,115600,5,2,3:2:0:0:
317,248,115754,1,2,0:0:0:0:
464,224,115909,1,10,0:0:0:0:
464,224,116064,1,2,0:0:0:0:
300,130,116219,5,2,3:2:0:0:
317,248,116373,1,2,0:0:0:0:
336,365,116528,1,10,0:0:0:0:
509,122,116683,6,0,B|443:76|443:76|292:132,1,233.999989288331,2|2,0:0|0:0,0:0:0:0:
154,232,117146,1,10,0:0:0:0:
55,57,117301,2,0,L|40:175,1,116.999994644165,2|2,0:0|3:2,0:0:0:0:
145,339,117610,5,2,0:0:0:0:
164,352,117688,1,2,0:0:0:0:
186,355,117765,1,10,0:0:0:0:
208,351,117842,1,2,0:0:0:0:
228,339,117920,2,0,L|222:277,1,58.4999973220826,2|2,0:0|0:0,0:0:0:0:
512,295,118074,5,2,3:2:0:0:
469,327,118152,1,0,3:2:0:0:
417,338,118229,1,0,3:2:0:0:
365,329,118306,1,0,3:2:0:0:
325,293,118384,2,0,L|319:231,1,58.4999973220826,10|0,0:0|0:0,0:0:0:0:
243,112,118538,2,0,L|248:170,3,58.4999973220826,2|0|8|0,3:2|3:2|3:2|3:2,0:0:0:0:
418,231,118847,5,2,3:2:0:0:
455,212,118925,1,0,3:2:0:0:
473,175,119002,1,10,0:0:0:0:
466,134,119079,1,0,3:2:0:0:
435,106,119157,1,2,3:2:0:0:
394,102,119234,1,0,3:2:0:0:
358,121,119311,6,0,P|346:155|347:186,3,58.4999973220826,12|0|0|0,0:0|3:2|3:2|3:2,0:0:0:0:
315,359,119621,2,0,P|350:352|376:336,1,58.4999973220826,10|0,0:0|3:2,0:0:0:0:
268,228,119776,2,0,P|291:255|318:270,1,58.4999973220826,2|0,3:2|3:2,0:0:0:0:
464,244,119930,5,10,0:0:0:0:
464,244,120007,1,0,3:2:0:0:
464,244,120085,2,0,L|393:255,1,58.4999973220826,0|0,3:2|3:2,0:0:0:0:
231,314,120239,1,10,0:0:0:0:
186,342,120317,1,0,3:2:0:0:
134,352,120394,1,0,3:2:0:0:
82,343,120471,1,0,3:2:0:0:
41,309,120549,6,0,L|32:243,3,58.4999973220826,10|0|0|0,0:0|3:2|3:2|3:2,0:0:0:0:
118,101,120858,2,0,P|150:88|182:92,1,58.4999973220826,10|0,0:0|3:2,0:0:0:0:
135,189,121012,2,0,P|164:189|190:177,1,58.4999973220826,2|0,3:2|3:2,0:0:0:0:
267,119,121167,6,0,L|326:123,3,58.4999973220826,10|0|0|0,0:0|3:2|3:2|3:2,0:0:0:0:
472,10,121476,2,0,L|413:13,3,58.4999973220826,10|0|0|0,0:0|3:2|3:2|3:2,0:0:0:0:
512,173,121786,5,10,0:0:0:0:
498,215,121863,1,0,3:2:0:0:
464,247,121940,1,8,0:0:0:0:
421,261,122018,1,0,3:2:0:0:
375,261,122095,1,8,0:0:0:0:
330,251,122172,1,0,3:2:0:0:
291,224,122250,1,8,0:0:0:0:
267,184,122327,1,0,3:2:0:0:
263,138,122404,5,8,0:0:0:0:
250,197,122481,1,8,0:0:0:0:
209,243,122559,1,8,0:0:0:0:
153,261,122636,1,8,0:0:0:0:
93,251,122713,1,10,0:0:0:0:
48,211,122791,1,8,0:0:0:0:
27,155,122868,1,8,0:0:0:0:
37,95,122945,1,8,0:0:0:0:
83,52,123023,6,0,P|146:88|225:32,1,175.499991966248,14|0,0:0|0:0,0:0:0:0:
309,128,123332,2,0,P|247:164|256:260,1,175.499991966248,10|0,0:0|0:0,0:0:0:0:
131,285,123641,2,0,P|130:213|42:172,1,175.499991966248,14|0,0:0|0:0,0:0:0:0:
83,52,123951,2,0,P|146:88|225:32,1,175.499991966248,10|0,0:0|0:0,0:0:0:0:
309,128,124260,6,0,P|247:164|258:262,1,180,6|8,3:2|0:0,0:0:0:0:
257,261,124724,1,0,0:0:0:0:
465,237,124878,2,0,L|366:223,1,90,0|2,3:2|0:0,0:0:0:0:
226,366,125188,1,10,0:0:0:0:
81,266,125342,6,0,B|186:230|148:294|260:259,1,180,2|2,0:0|0:0,0:0:0:0:
362,144,125806,1,8,0:0:0:0:
197,88,125961,2,0,L|207:178,1,90,2|0,0:0|3:2,0:0:0:0:
388,257,126270,1,2,0:0:0:0:
473,178,126425,1,10,0:0:0:0:
373,54,126579,6,0,B|329:22|329:22|365:155,1,180,2|2,0:0|0:0,0:0:0:0:
445,335,127043,2,0,P|398:352|353:344,1,90,8|2,0:0|0:0,0:0:0:0:
305,278,127275,1,2,0:0:0:0:
305,278,127353,2,0,P|260:273|219:289,1,90,2|2,3:2|0:0,0:0:0:0:
53,361,127662,1,10,0:0:0:0:
10,267,127817,1,2,0:0:0:0:
128,188,127971,6,0,L|120:291,1,90,2|0,3:2|0:0,0:0:0:0:
240,135,128280,1,10,0:0:0:0:
143,64,128435,2,0,L|54:80,1,90,2|2,0:0|3:2,0:0:0:0:
240,135,128744,2,0,L|329:151,1,90,2|10,0:0|0:0,0:0:0:0:
512,12,129054,6,0,P|455:-1|451:99,1,180,2|2,0:0|0:0,0:0:0:0:
506,164,129440,1,2,0:0:0:0:
506,164,129518,2,0,L|494:268,1,90,10|2,0:0|0:0,0:0:0:0:
437,316,129750,1,2,0:0:0:0:
437,316,129827,5,2,3:2:0:0:
261,242,129981,1,2,0:0:0:0:
138,368,130136,1,10,0:0:0:0:
334,304,130291,6,0,P|355:250|289:148,1,180,2|2,0:0|0:0,0:0:0:0:
210,162,130677,1,2,0:0:0:0:
210,162,130755,1,10,0:0:0:0:
23,106,130909,1,2,0:0:0:0:
15,150,130987,1,2,0:0:0:0:
30,197,131064,5,2,3:2:0:0:
30,197,131141,2,0,P|54:199|80:194,1,45,2|0,0:0|0:0,0:0:0:0:
182,82,131296,2,0,P|204:78|226:80,1,45,2|8,0:0|0:0,0:0:0:0:
334,216,131451,1,2,0:0:0:0:
334,216,131528,2,0,P|356:218|378:214,1,45,2|0,0:0|0:0,0:0:0:0:
505,16,131683,5,2,3:2:0:0:
485,56,131760,1,2,0:0:0:0:
446,78,131837,1,2,0:0:0:0:
401,83,131914,1,2,0:0:0:0:
357,69,131992,5,10,0:0:0:0:
327,58,132069,1,2,0:0:0:0:
295,58,132146,1,2,0:0:0:0:
264,66,132224,1,2,0:0:0:0:
239,85,132301,2,0,L|236:142,3,45,2|2|2|2,3:2|0:0|0:0|0:0,0:0:0:0:
330,280,132610,5,10,0:0:0:0:
332,248,132688,1,2,0:0:0:0:
334,216,132765,2,0,L|337:167,1,45,2|0,0:0|0:0,0:0:0:0:
150,94,132920,5,10,0:0:0:0:
90,83,132997,1,8,0:0:0:0:
31,99,133074,2,0,B|-54:170|-30:279|56:284|91:216|71:185,1,270.000010299683,8|2,0:0|3:2,0:0:0:0:
78,203,133461,1,2,0:0:0:0:
81,216,133538,5,10,0:0:0:0:
129,253,133616,1,8,0:0:0:0:
179,262,133693,1,8,0:0:0:0:
227,250,133770,1,8,0:0:0:0:
267,219,133847,1,10,0:0:0:0:
305,188,133925,1,8,0:0:0:0:
354,176,134002,1,10,0:0:0:0:
403,184,134079,1,8,0:0:0:0:
445,212,134157,6,0,L|428:321,1,107.999996704102,6|0,3:2|0:0,0:0:0:0:
175,157,134466,1,10,0:0:0:0:
335,91,134621,1,2,0:0:0:0:
81,216,134775,1,2,3:2:0:0:
355,265,134930,1,2,0:0:0:0:
77,111,135085,1,10,0:0:0:0:
423,11,135239,1,2,0:0:0:0:
185,264,135394,6,0,L|173:142,1,107.999996704102,2|2,3:2|0:0,0:0:0:0:
512,59,135703,2,0,L|501:166,1,107.999996704102,10|2,0:0|0:0,0:0:0:0:
299,276,136012,2,0,L|287:154,1,107.999996704102,2|2,3:2|0:0,0:0:0:0:
412,24,136322,1,10,0:0:0:0:
289,285,136476,1,2,0:0:0:0:
146,18,136631,5,2,3:2:0:0:
97,13,136708,1,2,0:0:0:0:
52,33,136786,1,2,0:0:0:0:
29,75,136863,1,2,0:0:0:0:
35,122,136940,5,10,0:0:0:0:
66,113,137018,1,2,0:0:0:0:
98,115,137095,1,2,0:0:0:0:
128,126,137172,1,2,0:0:0:0:
151,148,137250,5,2,3:2:0:0:
135,150,137327,1,2,0:0:0:0:
120,156,137404,1,2,0:0:0:0:
107,166,137481,1,2,0:0:0:0:
97,179,137559,5,10,0:0:0:0:
132,212,137636,1,2,0:0:0:0:
180,217,137713,1,2,0:0:0:0:
228,209,137791,1,2,0:0:0:0:
270,185,137868,6,0,P|319:169|381:179,1,107.999996704102,2|2,3:2|0:0,0:0:0:0:
455,232,138100,1,2,0:0:0:0:
455,232,138177,1,10,0:0:0:0:
469,24,138332,2,0,L|464:138,1,107.999996704102,2|0,0:0|3:2,0:0:0:0:
374,340,138641,1,2,0:0:0:0:
371,307,138719,1,2,0:0:0:0:
368,274,138796,1,10,0:0:0:0:
276,119,138951,1,2,0:0:0:0:
273,152,139028,1,2,0:0:0:0:
270,185,139106,5,2,3:2:0:0:
148,247,139260,1,2,0:0:0:0:
19,58,139414,1,10,0:0:0:0:
115,9,139569,2,0,P|123:65|107:117,1,107.999996704102,2|0,0:0|3:2,0:0:0:0:
125,327,139878,1,2,0:0:0:0:
125,327,139956,1,2,0:0:0:0:
125,327,140033,1,10,0:0:0:0:
270,185,140188,6,0,B|397:148|357:222|492:178,1,215.999993408203,2|2,0:0|0:0,0:0:0:0:
278,58,140652,1,10,0:0:0:0:
270,185,140806,2,0,L|286:293,1,107.999996704102,2|0,0:0|3:2,0:0:0:0:
421,39,141116,5,2,0:0:0:0:
421,39,141193,1,2,0:0:0:0:
421,39,141270,2,0,L|428:98,1,53.9999983520508,10|2,0:0|0:0,0:0:0:0:
481,181,141425,2,0,L|474:240,1,53.9999983520508,2|2,0:0|0:0,0:0:0:0:
377,342,141579,5,10,0:0:0:0:
200,219,141734,1,2,0:0:0:0:
227,369,141889,1,10,0:0:0:0:
350,192,142043,1,2,0:0:0:0:
284,283,142198,5,10,0:0:0:0:
67,30,142353,1,2,0:0:0:0:
49,265,142507,1,10,0:0:0:0:
302,48,142662,1,2,0:0:0:0:
49,265,142817,5,10,0:0:0:0:
86,303,142894,1,2,0:0:0:0:
132,315,142971,1,10,0:0:0:0:
175,314,143049,1,2,0:0:0:0:
208,296,143126,1,10,0:0:0:0:
235,279,143203,1,2,0:0:0:0:
261,274,143280,1,10,0:0:0:0:
282,276,143358,1,2,0:0:0:0:
296,283,143435,6,0,L|333:278,1,26.9999991760254,10|2,0:0|0:0,0:0:0:0:
288,229,143512,6,0,L|325:224,1,26.9999991760254,10|2,0:0|0:0,0:0:0:0:
280,175,143590,6,0,L|317:170,1,26.9999991760254,10|2,0:0|0:0,0:0:0:0:
272,121,143667,6,0,L|309:116,1,26.9999991760254,10|2,0:0|0:0,0:0:0:0:
264,67,143744,5,10,0:0:0:0:
211,58,143822,1,8,0:0:0:0:
185,106,143899,1,8,0:0:0:0:
223,145,143976,1,8,0:0:0:0:
272,121,144053,1,4,3:2:0:0:
118,65,153951,6,0,P|103:108|192:156,2,161.999995056153,2|2|2,3:2|0:0|0:0,0:0:0:0:
213,25,155188,2,0,P|285:43|282:118,1,161.999995056153,2|2,0:0|0:0,0:0:0:0:
269,217,156116,2,0,L|274:241,6,13.4999995880127,2|0|0|0|0|0|0,0:0|0:0|0:0|0:0|0:0|0:0|0:0,0:0:0:0:
292,309,156425,6,0,P|347:290|447:313,2,161.999995056153,2|2|2,3:2|0:0|0:0,0:0:0:0:
203,284,157662,2,0,P|148:303|48:280,1,161.999995056153,2|2,0:0|0:0,0:0:0:0:
23,192,158590,2,0,L|20:178,6,13.4999995880127,2|0|0|0|0|0|0,0:0|0:0|0:0|0:0|0:0|0:0|0:0,0:0:0:0:
14,94,158899,6,0,P|68:76|128:85,1,107.999996704102,2|0,3:2|0:0,0:0:0:0:
186,148,159363,2,0,P|239:152|289:135,1,107.999996704102,2|0,0:0|0:0,0:0:0:0:
321,52,159827,1,2,0:0:0:0:
497,251,160136,6,0,L|484:125,1,107.999996704102,2|0,3:2|0:0,0:0:0:0:
381,129,160600,2,0,L|392:236,1,107.999996704102,2|0,0:0|0:0,0:0:0:0:
433,322,161064,2,0,L|430:336,6,13.4999995880127,2|0|0|0|0|0|0,0:0|0:0|0:0|0:0|0:0|0:0|0:0,0:0:0:0:
340,324,161373,6,0,B|286:317|286:317|222:333,1,107.999996704102,2|0,3:2|0:0,0:0:0:0:
150,363,161837,2,0,B|98:375|98:375|44:368,1,107.999996704102,2|0,0:0|0:0,0:0:0:0:
0,295,162301,1,2,0:0:0:0:
172,156,162610,6,0,L|163:284,1,107.999996704102,2|0,3:2|0:0,0:0:0:0:
303,283,163074,1,2,0:0:0:0:
303,283,163229,2,0,L|307:224,1,53.9999983520508,0|0,3:2|0:0,0:0:0:0:
301,116,163538,2,0,L|298:102,6,13.4999995880127,2|0|0|0|0|0|0,0:0|0:0|0:0|0:0|0:0|0:0|0:0,0:0:0:0:
265,25,163847,6,0,P|316:19|349:35,1,80.9999975280763,2|0,3:2|0:0,0:0:0:0:
438,73,164157,2,0,P|459:119|454:155,1,80.9999975280763,0|0,3:2|0:0,0:0:0:0:
445,252,164466,2,0,P|407:286|371:293,1,80.9999975280763,0|0,3:2|0:0,0:0:0:0:
276,314,164775,2,0,P|231:288|213:256,1,80.9999975280763,0|0,3:2|0:0,0:0:0:0:
193,102,165084,6,0,P|169:134|165:174,1,80.9999975280763,0|0,3:2|0:0,0:0:0:0:
216,264,165394,2,0,P|239:297|276:314,1,80.9999975280763,0|0,3:2|0:0,0:0:0:0:
379,293,165703,2,0,P|417:281|445:252,1,80.9999975280763,0|0,3:2|0:0,0:0:0:0:
457,148,166012,2,0,P|457:108|438:73,1,80.9999975280763,0|0,3:2|0:0,0:0:0:0:
265,24,166322,5,8,0:0:0:0:
284,18,166399,1,8,0:0:0:0:
304,17,166476,1,8,0:0:0:0:
324,21,166554,1,8,0:0:0:0:
342,30,166631,2,0,P|356:52|362:86,3,40.4999987640381,8|8|8|8,0:0|0:0|0:0|0:0,0:0:0:0:
361,154,166940,5,8,0:0:0:0:
331,169,167018,1,8,0:0:0:0:
299,174,167095,1,8,0:0:0:0:
266,171,167172,1,8,0:0:0:0:
236,156,167250,2,0,P|227:133|226:112,3,40.4999987640381,8|8|8|8,0:0|0:0|0:0|0:0,0:0:0:0:
265,24,167559,5,8,0:0:0:0:
308,13,167636,1,8,0:0:0:0:
351,18,167713,1,8,0:0:0:0:
391,36,167791,1,8,0:0:0:0:
415,73,167868,1,8,0:0:0:0:
417,117,167945,1,8,0:0:0:0:
400,158,168023,1,8,0:0:0:0:
369,189,168100,1,8,0:0:0:0:
327,204,168177,5,8,0:0:0:0:
273,205,168255,1,8,0:0:0:0:
221,193,168332,1,8,0:0:0:0:
179,160,168409,1,8,0:0:0:0:
126,153,168487,1,8,0:0:0:0:
80,178,168564,1,8,0:0:0:0:
60,226,168641,1,8,0:0:0:0:
77,276,168719,1,8,0:0:0:0:
122,302,168796,1,0,3:2:0:0:
122,302,169414,6,0,P|189:289|250:271,1,126,2|0,0:0|0:0,0:0:0:0:
328,237,170033,6,0,P|239:231|141:188,1,188.999994232178,2|0,0:0|0:0,0:0:0:0:
27,161,170652,6,0,P|143:153|271:96,1,252,2|0,0:0|0:0,0:0:0:0:
316,0,171270,6,0,P|304:78|435:107,2,233.999989288331,6|8|0,3:2|0:0|3:2,0:0:0:0:
243,192,172043,1,0,0:0:0:0:
90,27,172198,2,0,L|113:156,1,116.999994644165,8|2,0:0|0:0,0:0:0:0:
350,320,172507,6,0,L|363:189,1,116.999994644165,2|0,3:2|0:0,0:0:0:0:
378,55,172816,1,10,0:0:0:0:
378,55,172971,1,2,0:0:0:0:
243,192,173126,5,2,3:2:0:0:
362,204,173281,1,2,0:0:0:0:
481,216,173435,1,10,0:0:0:0:
261,74,173590,6,0,B|212:28|212:28|243:195,1,233.999989288331,2|2,0:0|0:0,0:0:0:0:
119,340,174054,1,10,0:0:0:0:
39,193,174208,1,2,0:0:0:0:
207,279,174363,5,2,3:2:0:0:
235,286,174440,1,2,0:0:0:0:
264,285,174518,1,2,0:0:0:0:
291,275,174595,1,2,0:0:0:0:
312,255,174672,2,0,P|323:227|323:195,3,58.4999973220826,10|2|2|2,0:0|0:0|0:0|0:0,0:0:0:0:
418,223,174981,6,0,P|482:227|483:131,1,175.499991966248,2|0,3:2|0:0,0:0:0:0:
389,73,175291,2,0,L|400:138,1,58.4999973220826,10|0,0:0|0:0,0:0:0:0:
312,255,175445,6,0,P|261:287|166:224,1,175.499991966248,2|0,0:0|0:0,0:0:0:0:
202,150,175755,1,2,0:0:0:0:
40,41,175909,1,10,0:0:0:0:
37,132,176064,6,0,B|143:131|85:64|190:52,1,175.499991966248,2|0,0:0|0:0,0:0:0:0:
276,90,176373,1,2,0:0:0:0:
496,74,176528,1,10,0:0:0:0:
439,0,176683,6,0,P|446:63|435:181,1,175.499991966248,2|0,0:0|0:0,0:0:0:0:
407,255,176992,1,2,0:0:0:0:
186,196,177146,1,10,0:0:0:0:
170,288,177301,6,0,P|233:280|272:176,1,175.499991966248,2|0,0:0|0:0,0:0:0:0:
218,109,177610,1,2,0:0:0:0:
23,277,177765,1,10,0:0:0:0:
98,169,177920,6,0,P|93:200|100:238,1,58.4999973220826,2|0,0:0|0:0,0:0:0:0:
263,357,178074,1,2,3:2:0:0:
291,364,178152,1,2,0:0:0:0:
320,365,178229,1,2,0:0:0:0:
348,361,178306,1,2,0:0:0:0:
373,346,178384,2,0,P|388:318|392:284,3,58.4999973220826,10|0|0|0,0:0|0:0|0:0|0:0,0:0:0:0:
414,162,178693,6,0,P|360:196|347:80,1,233.999989288331,2|8,3:2|0:0,0:0:0:0:
343,81,179157,1,2,0:0:0:0:
128,21,179311,2,0,L|149:151,1,116.999994644165,0|0,3:2|0:0,0:0:0:0:
325,294,179621,1,10,0:0:0:0:
101,307,179775,1,2,0:0:0:0:
238,58,179930,5,8,0:0:0:0:
238,58,180007,1,8,0:0:0:0:
238,58,180085,2,0,L|246:118,1,58.4999973220826,8|0,0:0|0:0,0:0:0:0:
22,35,180239,2,0,L|43:165,1,116.999994644165,2|0,3:2|0:0,0:0:0:0:
173,241,180549,5,10,0:0:0:0:
195,248,180626,1,8,0:0:0:0:
224,247,180703,1,8,0:0:0:0:
257,237,180780,1,8,0:0:0:0:
286,208,180858,1,10,0:0:0:0:
301,164,180935,1,8,0:0:0:0:
341,131,181012,1,8,0:0:0:0:
398,117,181090,1,8,0:0:0:0:
461,125,181167,6,0,P|408:199|511:222,2,233.999989288331,6|8|0,3:2|0:0|3:2,0:0:0:0:
321,23,181940,1,0,0:0:0:0:
128,107,182095,2,0,L|143:227,1,116.999994644165,8|2,0:0|0:0,0:0:0:0:
290,321,182404,5,2,3:2:0:0:
305,172,182558,1,2,0:0:0:0:
321,23,182713,1,10,0:0:0:0:
321,23,182868,1,2,0:0:0:0:
186,160,183023,5,2,3:2:0:0:
305,172,183178,1,2,0:0:0:0:
424,184,183332,1,10,0:0:0:0:
183,363,183487,6,0,B|129:332|129:332|212:270|301:327,1,233.999989288331,2|2,0:0|0:0,0:0:0:0:
405,379,183951,1,10,0:0:0:0:
447,164,184105,2,0,L|468:287,1,116.999994644165,2|2,0:0|3:2,0:0:0:0:
305,172,184414,5,2,0:0:0:0:
283,162,184492,1,2,0:0:0:0:
259,158,184569,1,10,0:0:0:0:
235,158,184646,1,2,0:0:0:0:
212,165,184724,2,0,L|217:239,1,58.4999973220826,2|2,0:0|0:0,0:0:0:0:
305,172,184878,5,2,3:2:0:0:
352,148,184956,1,0,3:2:0:0:
404,147,185033,1,0,3:2:0:0:
453,165,185110,1,0,3:2:0:0:
492,200,185188,2,0,L|483:260,1,58.4999973220826,10|0,0:0|0:0,0:0:0:0:
368,351,185342,2,0,L|359:293,3,58.4999973220826,2|0|8|0,3:2|3:2|3:2|3:2,0:0:0:0:
305,172,185652,5,2,3:2:0:0:
274,198,185729,1,0,3:2:0:0:
234,207,185806,1,10,0:0:0:0:
193,200,185884,1,0,3:2:0:0:
159,177,185961,1,2,3:2:0:0:
148,137,186038,1,0,3:2:0:0:
157,96,186116,6,0,P|186:74|213:65,3,58.4999973220826,12|0|0|0,0:0|3:2|3:2|3:2,0:0:0:0:
305,172,186425,1,10,0:0:0:0:
344,183,186502,1,0,3:2:0:0:
384,180,186579,1,2,3:2:0:0:
423,169,186657,1,0,3:2:0:0:
451,139,186734,5,10,0:0:0:0:
458,93,186811,1,0,3:2:0:0:
441,48,186889,1,0,3:2:0:0:
399,26,186966,1,0,3:2:0:0:
352,22,187043,5,10,3:2:0:0:
305,58,187121,1,0,3:2:0:0:
247,69,187198,1,0,3:2:0:0:
188,67,187275,1,0,3:2:0:0:
133,44,187353,6,0,P|102:25|86:2,3,58.4999973220826,10|0|0|0,0:0|3:2|3:2|3:2,0:0:0:0:
305,58,187662,2,0,L|301:131,1,58.4999973220826,10|0,0:0|3:2,0:0:0:0:
185,167,187817,2,0,L|189:240,1,58.4999973220826,2|0,3:2|3:2,0:0:0:0:
312,311,187971,5,10,0:0:0:0:
336,328,188049,1,0,3:2:0:0:
365,336,188126,1,0,3:2:0:0:
395,336,188203,1,0,3:2:0:0:
424,328,188280,5,10,0:0:0:0:
398,293,188358,1,8,0:0:0:0:
358,277,188435,1,8,3:2:0:0:
316,276,188512,1,8,0:0:0:0:
275,291,188590,5,10,0:0:0:0:
246,330,188667,1,0,3:2:0:0:
200,346,188744,1,8,0:0:0:0:
150,346,188822,1,0,3:2:0:0:
105,324,188899,1,8,0:0:0:0:
82,280,188976,1,0,3:2:0:0:
86,230,189054,1,8,0:0:0:0:
114,190,189131,1,0,3:2:0:0:
158,171,189208,5,8,0:0:0:0:
183,230,189286,1,8,0:0:0:0:
236,266,189363,1,8,0:0:0:0:
301,265,189440,1,8,0:0:0:0:
354,228,189518,1,10,0:0:0:0:
376,168,189595,1,8,0:0:0:0:
361,105,189672,1,8,0:0:0:0:
312,61,189750,1,8,0:0:0:0:
248,53,189827,6,0,B|178:27|130:74|130:74|152:56|178:57,1,175.499991966248,14|0,0:0|0:0,0:0:0:0:
194,142,190136,2,0,B|264:116|312:163|312:163|290:145|264:146,1,175.499991966248,10|0,0:0|0:0,0:0:0:0:
245,238,190445,2,0,B|174:212|126:259|126:259|148:241|174:242,1,175.499991966248,14|0,0:0|0:0,0:0:0:0:
194,334,190755,2,0,B|264:308|312:355|312:355|290:337|264:338,1,175.499991966248,10|0,0:0|0:0,0:0:0:0:
111,384,191064,6,0,L|104:331,1,45,6|0,3:2|0:0,0:0:0:0:
7,289,191219,2,0,L|14:236,1,45,2|0,0:0|0:0,0:0:0:0:
112,151,191373,1,2,0:0:0:0:
153,132,191451,1,2,0:0:0:0:
197,132,191528,1,2,0:0:0:0:
239,146,191605,1,2,0:0:0:0:
269,179,191683,6,0,P|316:193|362:175,1,90,10|2,0:0|0:0,0:0:0:0:
413,109,191914,1,2,0:0:0:0:
410,81,191992,1,2,0:0:0:0:
407,54,192069,1,2,0:0:0:0:
405,27,192146,1,2,3:2:0:0:
512,185,192301,5,2,0:0:0:0:
396,259,192456,1,2,0:0:0:0:
396,268,192508,1,2,0:0:0:0:
396,276,192559,2,0,L|399:312,1,30,2|2,0:0|0:0,0:0:0:0:
287,166,192765,1,2,3:2:0:0:
170,315,192920,6,0,L|138:313,1,22.5,10|0,0:0|0:0,0:0:0:0:
163,325,193075,6,0,L|141:323,1,22.5,2|0,0:0|0:0,0:0:0:0:
156,335,193230,6,0,L|134:333,1,22.5,2|0,0:0|0:0,0:0:0:0:
149,345,193384,6,0,L|127:343,1,22.5,2|0,0:0|0:0,0:0:0:0:
58,274,193538,5,2,3:2:0:0:
244,363,193693,1,2,0:0:0:0:
260,369,193770,1,2,0:0:0:0:
282,371,193847,1,2,0:0:0:0:
309,368,193925,1,2,0:0:0:0:
337,354,194002,1,2,0:0:0:0:
360,327,194079,1,2,0:0:0:0:
372,288,194157,6,0,L|374:256,1,22.5,10|0,0:0|0:0,0:0:0:0:
362,281,194312,6,0,L|364:259,1,22.5,2|0,0:0|0:0,0:0:0:0:
352,274,194467,6,0,L|354:252,1,22.5,2|0,0:0|0:0,0:0:0:0:
342,267,194621,6,0,L|344:245,1,22.5,2|0,3:2|0:0,0:0:0:0:
433,158,194775,5,2,0:0:0:0:
392,137,194853,1,2,0:0:0:0:
348,127,194930,1,10,0:0:0:0:
303,131,195007,1,2,0:0:0:0:
264,155,195085,1,2,0:0:0:0:
225,179,195162,1,2,0:0:0:0:
180,183,195239,1,2,3:2:0:0:
136,173,195317,1,2,0:0:0:0:
95,152,195394,6,0,P|84:129|84:100,3,45,10|2|2|2,0:0|0:0|0:0|0:0,0:0:0:0:
199,36,195703,2,0,P|196:58|186:78,3,45,2|2|2|2,3:2|0:0|3:2|3:2,0:0:0:0:
225,179,196012,6,0,L|230:234,1,45,2|0,3:2|0:0,0:0:0:0:
370,250,196167,2,0,L|365:305,1,45,2|0,0:0|0:0,0:0:0:0:
244,356,196322,1,2,0:0:0:0:
201,369,196399,1,2,0:0:0:0:
156,371,196476,1,2,0:0:0:0:
111,361,196554,1,2,0:0:0:0:
78,330,196631,6,0,P|92:278|79:236,1,90,10|2,0:0|0:0,0:0:0:0:
0,212,196863,1,2,0:0:0:0:
3,185,196940,1,2,0:0:0:0:
6,157,197018,1,2,0:0:0:0:
9,130,197095,1,2,3:2:0:0:
176,93,197250,5,2,0:0:0:0:
293,155,197404,1,2,0:0:0:0:
293,164,197456,1,2,0:0:0:0:
293,172,197507,2,0,L|296:208,1,30,2|2,0:0|0:0,0:0:0:0:
377,47,197713,1,2,3:2:0:0:
495,212,197868,6,0,L|463:210,1,22.5,10|0,0:0|0:0,0:0:0:0:
488,222,198023,6,0,L|466:220,1,22.5,2|0,0:0|0:0,0:0:0:0:
481,232,198178,6,0,L|459:230,1,22.5,2|0,0:0|0:0,0:0:0:0:
474,242,198332,6,0,L|452:240,1,22.5,2|0,0:0|0:0,0:0:0:0:
378,185,198487,5,2,3:2:0:0:
276,324,198641,1,2,0:0:0:0:
260,333,198719,1,2,0:0:0:0:
238,338,198796,1,2,0:0:0:0:
211,339,198873,1,2,0:0:0:0:
179,332,198951,1,2,0:0:0:0:
149,311,199028,1,2,0:0:0:0:
130,274,199105,5,10,0:0:0:0:
188,278,199183,1,10,0:0:0:0:
246,282,199260,1,10,0:0:0:0:
304,286,199337,1,10,0:0:0:0:
362,290,199414,1,10,0:0:0:0:
512,47,199569,5,6,3:2:0:0:
