osu file format v14

[General]
AudioFilename: Nujabes - Flowers.mp3
AudioLeadIn: 0
PreviewTime: 58729
Countdown: 1
SampleSet: Normal
StackLeniency: 0.7
Mode: 0
LetterboxInBreaks: 1
WidescreenStoryboard: 1

[Editor]
Bookmarks: 250,5123,9997,14870,19744,24618,29491,34365,39238,44112,48986,53859,58733,63606,68480,73354,78227,83101,87974,92848,97722,102595,107469,112342,117216,122090,126963,131837,136710,141584,146458,151331,156205,161079,165952,170826,175699,180573,185447,190320,195194,200067,204941,209815,214684,219557,224431,229304,234178
DistanceSpacing: 1
BeatDivisor: 4
GridSize: 4
TimelineZoom: 2.300006

[Metadata]
Title:Flowers
TitleUnicode:Flowers
Artist:Nujabes
ArtistUnicode:Nujabes
Creator:whymeman
Version:Standard Bloom
Source:
Tags:Modal Soul
BeatmapID:789804
BeatmapSetID:357121

[Difficulty]
HPDrainRate:1.8
CircleSize:4.5
OverallDifficulty:4
ApproachRate:4.4
SliderMultiplier:1.4
SliderTickRate:2

[Events]
//Background and Video events
0,0,"[Standard Bloom].jpg",0,0
//Break Periods
2,38829,55025
2,136301,154934
//Storyboard Layer 0 (Background)
//Storyboard Layer 1 (Fail)
//Storyboard Layer 2 (Pass)
//Storyboard Layer 3 (Foreground)
//Storyboard Sound Samples

[TimingPoints]
250,609.200763606824,4,1,2,60,1,0
554,-100,4,2,2,60,0,0
859,-100,4,1,1,60,0,0
1163,-100,4,2,1,60,0,0
1773,-100,4,1,2,60,0,0
2077,-100,4,1,1,60,0,0
2382,-100,4,2,1,60,0,0
2686,-100,4,1,2,60,0,0
3296,-100,4,1,1,60,0,0
3905,-100,4,2,1,60,0,0
4209,-100,4,1,2,60,0,0
4514,-100,4,1,1,60,0,0
4819,-100,4,2,2,60,0,0
5123,-100,4,1,2,60,0,0
5428,-100,4,2,2,60,0,0
5732,-100,4,1,1,60,0,0
6037,-100,4,2,2,60,0,0
6342,-100,4,2,1,60,0,0
6646,-100,4,1,2,60,0,0
6951,-100,4,1,1,60,0,0
7560,-100,4,1,2,60,0,0
7865,-100,4,2,2,60,0,0
8169,-100,4,1,1,60,0,0
8474,-100,4,2,2,60,0,0
8778,-100,4,1,2,60,0,0
9388,-100,4,1,1,60,0,0
9997,-100,4,1,2,60,0,0
10301,-100,4,2,2,60,0,0
10606,-100,4,1,1,60,0,0
10911,-100,4,2,2,60,0,0
11215,-100,4,2,1,60,0,0
11520,-100,4,1,2,60,0,0
11824,-100,4,1,1,60,0,0
12434,-100,4,1,2,60,0,0
13043,-100,4,1,1,60,0,0
13347,-100,4,2,2,60,0,0
13652,-100,4,2,1,60,0,0
14261,-100,4,1,1,60,0,0
14566,-100,4,2,2,60,0,0
14870,-100,4,1,2,60,0,0
15175,-100,4,2,2,60,0,0
15480,-100,4,1,1,60,0,0
16089,-100,4,2,1,60,0,0
16393,-100,4,1,2,60,0,0
16698,-100,4,1,1,60,0,0
17307,-100,4,1,2,60,0,0
17612,-100,4,2,2,60,0,0
17916,-100,4,1,1,60,0,0
18221,-100,4,2,2,60,0,0
18526,-100,4,1,2,60,0,0
19135,-100,4,1,1,60,0,0
19439,-100,4,2,2,60,0,0
19744,-100,4,1,2,60,0,0
20049,-100,4,2,2,60,0,0
20353,-100,4,1,1,60,0,0
20962,-100,4,2,1,60,0,0
21267,-100,4,1,2,60,0,0
21572,-100,4,1,1,60,0,0
22181,-100,4,1,2,60,0,0
22790,-100,4,1,1,60,0,0
23095,-100,4,2,2,60,0,0
23399,-100,4,2,1,60,0,0
23704,-100,4,1,2,60,0,0
24008,-100,4,1,1,60,0,0
24313,-100,4,2,2,60,0,0
24618,-100,4,1,2,60,0,0
24922,-100,4,2,2,60,0,0
25227,-100,4,1,1,60,0,0
25531,-100,4,2,2,60,0,0
25836,-100,4,2,1,60,0,0
26141,-100,4,1,2,60,0,0
26445,-100,4,1,1,60,0,0
27054,-100,4,1,2,60,0,0
27359,-100,4,2,2,60,0,0
27664,-100,4,1,1,60,0,0
27968,-100,4,2,1,60,0,0
28273,-100,4,1,2,60,0,0
28882,-100,4,1,1,60,0,0
29187,-100,4,2,1,60,0,0
29491,-100,4,1,2,60,0,0
29796,-100,4,2,1,60,0,0
30100,-100,4,1,1,60,0,0
30710,-100,4,2,1,60,0,0
31014,-100,4,1,2,60,0,0
31319,-100,4,1,1,60,0,0
31623,-100,4,2,1,60,0,0
31928,-100,4,1,2,60,0,0
32537,-100,4,1,1,60,0,0
33146,-100,4,2,1,60,0,0
33451,-100,4,1,2,60,0,0
33756,-100,4,1,1,60,0,0
34060,-100,4,2,1,60,0,0
34365,-100,4,1,2,60,0,0
34669,-100,4,2,1,60,0,0
34974,-100,4,1,1,60,0,0
35583,-100,4,2,1,60,0,0
35888,-100,4,1,2,60,0,0
36192,-100,4,1,1,60,0,0
36497,-100,4,2,1,60,0,0
36802,-100,4,1,2,60,0,0
37106,-100,4,2,1,60,0,0
37411,-100,4,1,1,60,0,0
37715,-100,4,2,1,60,0,0
38020,-100,4,1,2,60,0,0
38629,-100,4,1,1,60,0,0
58733,-100,4,1,2,60,0,1
59037,-100,4,2,1,60,0,1
59342,-100,4,1,1,60,0,1
59647,-100,4,2,1,60,0,1
59951,-100,4,2,1,60,0,1
60256,-100,4,1,2,60,0,1
60560,-100,4,1,1,60,0,1
60865,-100,4,2,1,60,0,1
61170,-100,4,1,2,60,0,1
61779,-100,4,1,1,60,0,1
62083,-100,4,2,1,60,0,1
62388,-100,4,2,1,60,0,1
62693,-100,4,1,2,60,0,1
62997,-100,4,1,1,60,0,1
63302,-100,4,2,1,60,0,1
63606,-100,4,1,2,60,0,1
63911,-100,4,2,1,60,0,1
64216,-100,4,1,1,60,0,1
64520,-100,4,2,1,60,0,1
64825,-100,4,2,1,60,0,1
65129,-100,4,1,2,60,0,1
65434,-100,4,1,1,60,0,1
65739,-100,4,2,1,60,0,1
66043,-100,4,1,2,60,0,1
66348,-100,4,2,1,60,0,1
66652,-100,4,1,1,60,0,1
66957,-100,4,2,1,60,0,1
67262,-100,4,1,2,60,0,1
67871,-100,4,1,1,60,0,1
68480,-100,4,1,2,60,0,1
68785,-100,4,2,2,60,0,1
69089,-100,4,1,1,60,0,1
69394,-100,4,2,1,60,0,1
69698,-100,4,2,1,60,0,1
70003,-100,4,1,2,60,0,1
70308,-100,4,1,1,60,0,1
70612,-100,4,2,1,60,0,1
70917,-100,4,1,2,60,0,1
71221,-100,4,1,3,60,0,1
71526,-100,4,1,1,60,0,1
71831,-100,4,2,1,60,0,1
72135,-100,4,2,1,60,0,1
72744,-100,4,1,1,60,0,1
73049,-100,4,2,1,60,0,1
73354,-100,4,1,2,60,0,1
73658,-100,4,2,0,60,0,1
73963,-100,4,1,1,60,0,1
74267,-100,4,2,1,60,0,1
74877,-100,4,1,2,60,0,1
75181,-100,4,1,1,60,0,1
75486,-100,4,2,1,60,0,1
75790,-100,4,1,2,60,0,1
76095,-100,4,2,1,60,0,1
76400,-100,4,1,1,60,0,1
76704,-100,4,2,1,60,0,1
77009,-100,4,1,2,60,0,1
77313,-100,4,1,3,60,0,1
77618,-100,4,1,1,60,0,1
78227,-100,4,1,2,60,0,0
78836,-100,4,1,1,60,0,0
79446,-100,4,2,1,60,0,0
80055,-100,4,1,1,60,0,0
80664,-100,4,1,2,60,0,0
81273,-100,4,1,1,60,0,0
81882,-100,4,2,1,60,0,0
82492,-100,4,1,1,60,0,0
83101,-100,4,1,2,60,0,0
83405,-100,4,2,2,60,0,0
83710,-100,4,1,1,60,0,0
84319,-100,4,2,1,60,0,0
84624,-100,4,1,2,60,0,0
84928,-100,4,1,1,60,0,0
85538,-100,4,1,2,60,0,0
85842,-100,4,2,2,60,0,0
86147,-100,4,1,1,60,0,0
86756,-100,4,1,2,60,0,0
87365,-100,4,1,1,60,0,0
87974,-100,4,1,2,60,0,0
88584,-100,4,1,1,60,0,0
89193,-100,4,2,1,60,0,0
89802,-100,4,1,1,60,0,0
90411,-100,4,1,2,60,0,0
91020,-100,4,1,1,60,0,0
91630,-100,4,2,1,60,0,0
92239,-100,4,1,1,60,0,0
92848,-100,4,1,2,60,0,0
93457,-100,4,1,1,60,0,0
94066,-100,4,2,1,60,0,0
94371,-100,4,1,2,60,0,0
94676,-100,4,1,1,60,0,0
95285,-100,4,1,2,60,0,0
95894,-100,4,1,1,60,0,0
96503,-100,4,1,2,60,0,0
97112,-100,4,1,1,60,0,0
97722,-100,4,1,2,60,0,0
98331,-100,4,1,1,60,0,0
98940,-100,4,2,1,60,0,0
99549,-100,4,1,1,60,0,0
100158,-100,4,1,2,60,0,0
100768,-100,4,1,1,60,0,0
101377,-100,4,2,1,60,0,0
101681,-100,4,1,2,60,0,0
101986,-100,4,1,1,60,0,0
102595,-100,4,1,2,60,0,0
103204,-100,4,1,1,60,0,0
103814,-100,4,2,1,60,0,0
104118,-100,4,1,2,60,0,0
104423,-100,4,1,1,60,0,0
105032,-100,4,1,2,60,0,0
105337,-100,4,2,1,60,0,0
105641,-100,4,1,1,60,0,0
106250,-100,4,1,2,60,0,0
106860,-100,4,1,1,60,0,0
107469,-100,4,1,2,60,0,0
108078,-100,4,1,1,60,0,0
108687,-100,4,2,1,60,0,0
109296,-100,4,1,1,60,0,0
109906,-100,4,1,2,60,0,0
110515,-100,4,1,1,60,0,0
111124,-100,4,2,1,60,0,0
111733,-100,4,1,1,60,0,0
112342,-100,4,1,2,60,0,0
112952,-100,4,1,1,60,0,0
113561,-100,4,2,1,60,0,0
113865,-100,4,1,2,60,0,0
114170,-100,4,1,1,60,0,0
114779,-100,4,1,2,60,0,0
115388,-100,4,1,1,60,0,0
115998,-100,4,1,2,60,0,0
116607,-100,4,1,1,60,0,0
117216,-100,4,1,2,60,0,1
117825,-100,4,1,1,60,0,1
118434,-100,4,2,1,60,0,1
118739,-100,4,1,2,60,0,1
119044,-100,4,1,1,60,0,1
119653,-100,4,1,2,60,0,1
120262,-100,4,1,1,60,0,1
120871,-100,4,2,1,60,0,1
121480,-100,4,1,1,60,0,1
122090,-100,4,1,2,60,0,1
122394,-100,4,2,1,60,0,1
122699,-100,4,1,1,60,0,1
123308,-100,4,2,1,60,0,1
123613,-100,4,1,2,60,0,1
123917,-100,4,1,1,60,0,1
124526,-100,4,1,2,60,0,1
125136,-100,4,1,1,60,0,1
125745,-100,4,1,2,60,0,1
126354,-100,4,1,1,60,0,1
126963,-100,4,1,2,60,0,1
127268,-100,4,2,2,60,0,1
127572,-100,4,1,1,60,0,1
128182,-100,4,2,1,60,0,1
128486,-100,4,1,2,60,0,1
128791,-100,4,1,1,60,0,1
129400,-100,4,1,2,60,0,1
130009,-100,4,1,1,60,0,1
130618,-100,4,2,1,60,0,1
131228,-100,4,1,1,60,0,1
131837,-100,4,1,2,60,0,1
132446,-100,4,1,1,60,0,1
133055,-100,4,2,1,60,0,1
133664,-100,4,1,1,60,0,1
134274,-100,4,1,2,60,0,1
134578,-100,4,2,1,60,0,1
134883,-100,4,1,1,60,0,1
135492,-100,4,1,2,60,0,1
136101,-100,4,1,1,60,0,1
136710,-100,4,1,2,60,0,0
156205,-100,4,1,2,60,0,0
156814,-100,4,1,1,60,0,0
157423,-100,4,2,1,60,0,0
157728,-100,4,1,2,60,0,0
158032,-100,4,1,1,60,0,0
158642,-100,4,1,2,60,0,0
159251,-100,4,1,1,60,0,0
159860,-100,4,2,1,60,0,0
160469,-100,4,1,1,60,0,0
161079,-100,4,1,2,60,0,0
161383,-100,4,2,1,60,0,0
161688,-100,4,1,1,60,0,0
162297,-100,4,2,1,60,0,0
162602,-100,4,1,2,60,0,0
162906,-100,4,1,1,60,0,0
163515,-100,4,1,2,60,0,0
164125,-100,4,1,1,60,0,0
164734,-100,4,1,2,60,0,0
165343,-100,4,1,1,60,0,0
165952,-100,4,1,2,60,0,0
166257,-100,4,2,2,60,0,0
166561,-100,4,1,1,60,0,0
167171,-100,4,2,1,60,0,0
167475,-100,4,1,2,60,0,0
167780,-100,4,1,1,60,0,0
168389,-100,4,1,2,60,0,0
168998,-100,4,1,1,60,0,0
169607,-100,4,2,1,60,0,0
170217,-100,4,1,1,60,0,0
170826,-100,4,1,2,60,0,0
171435,-100,4,1,1,60,0,0
172044,-100,4,2,1,60,0,0
172349,-100,4,1,2,60,0,0
172653,-100,4,1,1,60,0,0
173263,-100,4,1,2,60,0,0
173567,-100,4,2,1,60,0,0
173872,-100,4,1,1,60,0,0
174481,-100,4,1,2,60,0,0
175090,-100,4,1,1,60,0,0
175699,-100,4,1,2,60,0,1
176309,-100,4,1,1,60,0,1
176918,-100,4,2,1,60,0,1
177222,-100,4,1,2,60,0,1
177527,-100,4,1,1,60,0,1
178136,-100,4,1,2,60,0,1
178745,-100,4,1,1,60,0,1
179355,-100,4,2,1,60,0,1
179964,-100,4,1,1,60,0,1
180573,-100,4,1,2,60,0,1
180878,-100,4,2,2,60,0,1
181182,-100,4,1,1,60,0,1
181791,-100,4,2,1,60,0,1
182096,-100,4,1,2,60,0,1
182401,-100,4,1,1,60,0,1
183010,-100,4,1,2,60,0,1
183314,-100,4,2,2,60,0,1
183619,-100,4,1,1,60,0,1
184228,-100,4,1,2,60,0,1
184837,-100,4,1,1,60,0,1
185447,-100,4,1,2,60,0,1
186056,-100,4,1,1,60,0,1
186665,-100,4,2,1,60,0,1
187274,-100,4,1,1,60,0,1
187883,-100,4,1,2,60,0,1
188493,-100,4,1,1,60,0,1
189102,-100,4,2,1,60,0,1
189711,-100,4,1,1,60,0,1
190320,-100,4,1,2,60,0,1
190625,-100,4,2,1,60,0,1
190929,-100,4,1,1,60,0,1
191539,-100,4,2,1,60,0,1
191843,-100,4,1,2,60,0,1
192148,-100,4,1,1,60,0,1
192757,-100,4,1,2,60,0,1
193366,-100,4,1,1,60,0,1
193975,-100,4,1,2,60,0,1
194585,-100,4,1,1,60,0,1
195194,-100,4,1,2,60,0,0
195803,-100,4,1,1,60,0,0
196412,-100,4,2,1,60,0,0
197021,-100,4,1,1,60,0,0
197631,-100,4,1,2,60,0,0
198240,-100,4,1,1,60,0,0
198849,-100,4,2,1,60,0,0
199154,-100,4,1,2,60,0,0
199458,-100,4,1,1,60,0,0
200067,-100,4,1,2,60,0,0
200372,-100,4,2,1,60,0,0
200677,-100,4,1,1,60,0,0
201286,-100,4,2,1,60,0,0
201590,-100,4,1,2,60,0,0
201895,-100,4,1,1,60,0,0
202504,-100,4,1,2,60,0,0
202809,-100,4,2,1,60,0,0
203113,-100,4,1,1,60,0,0
203723,-100,4,1,2,60,0,0
204332,-100,4,1,1,60,0,0
204941,-100,4,1,2,60,0,0
205550,-100,4,1,1,60,0,0
206159,-100,4,2,1,60,0,0
206769,-100,4,1,1,60,0,0
207378,-100,4,1,2,60,0,0
207987,-100,4,1,1,60,0,0
208596,-100,4,2,1,60,0,0
209205,-100,4,1,1,60,0,0
209815,-100,4,1,2,60,0,0
210119,-100,4,2,1,60,0,0
210424,-100,4,1,1,60,0,0
211033,-100,4,2,1,60,0,0
211338,-100,4,1,2,60,0,0
211642,-100,4,1,1,60,0,0
212251,-100,4,1,2,60,0,0
212861,-100,4,1,1,60,0,0
213470,-100,4,1,2,60,0,0
214079,-100,4,1,1,60,0,0
214684,609.200763606824,4,2,1,60,1,0
231746,-100,4,2,1,5,0,0

[Colours]
Combo1 : 157,200,13
Combo2 : 242,138,244
Combo3 : 159,155,181
Combo4 : 252,167,188
Combo5 : 243,206,95

[HitObjects]
420,336,250,6,0,P|458:293|450:238,1,70
392,272,859,1,0,0:0:0:0:
424,208,1163,1,0,0:0:0:0:
404,140,1468,2,0,P|372:96|308:96,1,70,2|0,0:0|0:0,0:0:0:0:
336,156,2077,1,0,0:0:0:0:
220,76,2686,5,0,0:0:0:0:
152,96,2991,1,0,0:0:0:0:
200,148,3296,1,0,0:0:0:0:
324,208,3905,2,0,P|296:252|248:268,1,70,2|0,0:0|0:0,0:0:0:0:
212,280,4514,1,0,0:0:0:0:
244,344,4819,1,0,0:0:0:0:
172,340,5123,6,0,B|136:320|136:276|148:232,1,70
172,220,5732,1,0,0:0:0:0:
100,224,6037,1,0,0:0:0:0:
132,160,6342,2,0,P|184:148|232:180,1,70,2|0,0:0|0:0,0:0:0:0:
244,208,6951,1,0,0:0:0:0:
360,284,7560,6,0,P|384:252|376:200,1,70
316,228,8169,2,0,P|328:180|368:156,1,70
412,156,8778,2,0,P|396:120|344:96,1,70
304,108,9388,1,0,0:0:0:0:
208,208,9997,6,0,P|176:164|192:108,1,70
180,80,10606,1,0,0:0:0:0:
116,112,10911,1,0,0:0:0:0:
120,44,11215,1,2,0:0:0:0:
56,72,11520,2,0,P|44:116|64:160,1,70
136,248,12434,5,0,0:0:0:0:
192,292,12738,1,0,0:0:0:0:
128,317,13043,2,0,P|144:345|208:353,1,70
244,340,13652,1,2,0:0:0:0:
296,208,14261,1,0,0:0:0:0:
268,144,14566,1,0,0:0:0:0:
228,200,14870,6,0,P|204:172|216:96,1,70
232,80,15480,1,0,0:0:0:0:
368,48,16089,1,2,0:0:0:0:
428,84,16393,1,0,0:0:0:0:
368,116,16698,1,0,0:0:0:0:
260,208,17307,6,0,P|292:240|332:252,1,70
360,196,17916,2,0,P|385:238|357:289,1,70
444,292,18526,2,0,P|404:324|352:320,1,70
316,328,19135,1,0,0:0:0:0:
252,300,19439,1,0,0:0:0:0:
200,348,19744,6,0,B|164:308|176:248|220:232|244:228,1,140
364,212,20962,1,2,0:0:0:0:
348,144,21267,1,0,0:0:0:0:
416,160,21572,1,0,0:0:0:0:
280,128,22181,5,0,0:0:0:0:
213,110,22485,1,0,0:0:0:0:
259,57,22790,2,0,B|194:16|143:56|122:111|166:160,1,210
204,216,24008,1,0,0:0:0:0:
132,219,24313,1,0,0:0:0:0:
78,172,24618,6,0,P|61:205|70:253,1,70
115,289,25227,1,0,0:0:0:0:
182,282,25531,1,0,0:0:0:0:
157,349,25836,2,0,P|197:352|242:319,1,70,2|0,0:0|0:0,0:0:0:0:
250,275,26445,1,0,0:0:0:0:
384,236,27054,5,0,0:0:0:0:
412,172,27359,1,0,0:0:0:0:
452,232,27664,2,0,P|480:200|480:160,1,70
448,112,28273,1,0,0:0:0:0:
380,112,28577,1,0,0:0:0:0:
412,52,28882,2,0,P|364:44|320:84,1,70
312,112,29491,5,0,0:0:0:0:
340,176,29796,1,0,0:0:0:0:
272,168,30100,1,0,0:0:0:0:
148,232,30710,2,0,P|168:268|252:276,1,70,2|0,0:0|0:0,0:0:0:0:
216,216,31319,1,0,0:0:0:0:
264,268,31623,1,0,0:0:0:0:
328,296,31928,6,0,P|304:327|253:335,2,70
204,332,33146,2,0,P|152:308|140:256,1,70,2|0,0:0|0:0,0:0:0:0:
204,264,33756,1,0,0:0:0:0:
144,232,34060,1,0,0:0:0:0:
76,224,34365,6,0,P|98:180|144:164,2,70
204,264,35583,1,2,0:0:0:0:
240,204,35888,1,0,0:0:0:0:
272,268,36192,1,0,0:0:0:0:
308,208,36497,1,0,0:0:0:0:
376,216,36802,6,0,P|364:168|292:140,1,70
280,144,37411,1,0,0:0:0:0:
324,88,37715,1,0,0:0:0:0:
256,76,38020,1,0,0:0:0:0:
212,132,38325,2,0,P|186:100|189:51,1,70
256,192,56296,12,0,58124,0:0:0:0:
248,200,58733,5,0,0:0:0:0:
292,144,59037,1,0,0:0:0:0:
348,104,59342,2,0,P|360:156|332:196,1,70
316,228,59951,1,2,0:0:0:0:
260,268,60256,1,0,0:0:0:0:
324,300,60560,2,0,P|296:332|248:336,1,70
204,316,61170,6,0,P|188:280|228:200,1,70
236,196,61779,1,0,0:0:0:0:
168,180,62083,1,0,0:0:0:0:
124,232,62388,2,0,P|104:204|116:136,1,70,2|0,0:0|0:0,0:0:0:0:
144,116,62997,1,0,0:0:0:0:
212,124,63302,1,0,0:0:0:0:
260,76,63606,6,0,P|228:56|188:60,2,70
276,144,64520,1,0,0:0:0:0:
292,212,64825,2,0,P|260:212|220:184,2,70,2|0|0,0:0|0:0|0:0,0:0:0:0:
344,164,65739,1,0,0:0:0:0:
328,96,66043,6,0,P|380:104|408:144,3,70
412,180,67262,1,0,0:0:0:0:
364,232,67566,1,0,0:0:0:0:
432,248,67871,1,0,0:0:0:0:
336,352,68480,5,0,0:0:0:0:
268,336,68785,1,0,0:0:0:0:
316,284,69089,1,0,0:0:0:0:
248,268,69394,1,0,0:0:0:0:
296,216,69698,2,0,P|262:199|196:220,1,70,2|0,0:0|0:0,0:0:0:0:
216,132,70308,2,0,P|275:130|312:148,1,70
308,68,70917,6,0,B|252:48|196:52|136:100,1,140
148,140,71831,1,0,0:0:0:0:
104,88,72135,1,2,0:0:0:0:
76,224,72744,1,0,0:0:0:0:
28,172,73049,1,0,0:0:0:0:
8,240,73354,6,0,B|28:316|119:314|160:268|144:192,1,210
76,224,74572,1,2,0:0:0:0:
104,160,74877,1,0,0:0:0:0:
36,164,75181,1,0,0:0:0:0:
68,100,75486,1,0,0:0:0:0:
136,96,75790,5,0,0:0:0:0:
172,156,76095,1,0,0:0:0:0:
242,157,76400,1,0,0:0:0:0:
278,97,76704,1,0,0:0:0:0:
207,94,77009,2,0,P|245:31|328:47,1,140
256,208,78227,6,0,P|299:166|354:174,1,70
20,184,78836,1,0,0:0:0:0:
344,264,79446,2,0,P|408:240|420:168,1,140,2|0,0:0|0:0,0:0:0:0:
20,184,80359,1,0,0:0:0:0:
420,116,80664,5,0,0:0:0:0:
336,64,81273,1,0,0:0:0:0:
328,164,81882,2,0,P|366:219|364:288,1,70,2|0,0:0|0:0,0:0:0:0:
292,212,82492,1,0,0:0:0:0:
216,204,82796,1,0,0:0:0:0:
272,244,83101,6,0,P|272:308|221:342,1,70
208,280,83710,1,0,0:0:0:0:
176,268,84319,2,0,P|147:307|78:326,1,70,2|0,0:0|0:0,0:0:0:0:
84,264,84928,1,0,0:0:0:0:
48,220,85233,1,0,0:0:0:0:
88,228,85538,6,0,B|24:220|-4:152|8:96|52:64,1,210
20,148,86756,1,0,0:0:0:0:
4,212,87061,1,0,0:0:0:0:
132,44,87365,1,0,0:0:0:0:
108,140,87974,6,0,P|171:145|209:208,1,140
144,196,88888,1,0,0:0:0:0:
172,264,89193,2,0,P|236:264|276:228,1,70,2|0,0:0|0:0,0:0:0:0:
180,240,89802,1,0,0:0:0:0:
196,168,90411,6,0,P|224:120|284:100,1,70
172,132,91020,1,0,0:0:0:0:
364,108,91630,1,2,0:0:0:0:
304,120,91934,1,0,0:0:0:0:
308,192,92239,1,0,0:0:0:0:
260,192,92543,1,0,0:0:0:0:
240,264,92848,6,0,P|284:292|360:276,1,70
404,224,94066,1,2,0:0:0:0:
396,124,94676,1,0,0:0:0:0:
312,180,95285,5,0,0:0:0:0:
308,80,95894,2,0,P|248:96|223:131,1,70
208,224,97112,1,0,0:0:0:0:
248,316,97722,6,0,P|199:327|142:295,1,70
56,324,98940,2,0,P|64:260|120:216,1,140,2|0,0:0|0:0,0:0:0:0:
8,172,100158,6,0,P|52:136|124:144,1,70
184,172,101377,1,2,0:0:0:0:
228,260,101986,1,0,0:0:0:0:
152,324,102595,6,0,P|212:360|276:332,1,140
228,260,103814,1,2,0:0:0:0:
320,296,104423,1,0,0:0:0:0:
404,352,105032,5,0,0:0:0:0:
408,252,105641,1,0,0:0:0:0:
308,232,106250,2,0,P|349:167|404:160,1,70
468,160,107469,6,0,P|453:108|390:60,1,70
368,159,108687,2,0,P|328:122|249:116,1,70,2|0,0:0|0:0,0:0:0:0:
236,200,109906,6,0,P|268:216|304:192,2,70
284,111,111124,2,0,P|216:95|184:111,1,70,2|0,0:0|0:0,0:0:0:0:
140,192,112342,6,0,P|93:132|98:67,2,140,0|0|2,0:0|0:0|0:0,0:0:0:0:
236,224,114170,1,0,0:0:0:0:
328,184,114779,6,0,P|334:249|302:297,1,70
228,320,115998,2,0,P|249:353|297:356,2,70
236,224,117216,5,0,0:0:0:0:
228,320,117825,2,0,P|172:300|144:228,1,140,0|2,0:0|0:0,0:0:0:0:
124,176,119044,1,0,0:0:0:0:
24,188,119653,6,0,P|34:130|88:84,1,70
124,176,120871,2,0,P|180:180|231:122,1,70,2|0,0:0|0:0,0:0:0:0:
292,96,122090,6,0,P|264:68|220:80,2,70
252,186,123308,2,0,P|224:170|208:122,2,70,2|0|0,0:0|0:0|0:0,0:0:0:0:
352,176,124526,6,0,P|346:231|292:276,3,70
144,280,128182,2,0,P|128:313|150:361,2,70,2|0|0,0:0|0:0|0:0,0:0:0:0:
92,192,129400,6,0,P|58:214|47:244,2,70
192,184,130618,1,2,0:0:0:0:
140,100,131228,1,0,0:0:0:0:
240,100,131837,6,0,B|296:128|316:204|276:264|212:280,1,210,0|2,0:0|0:0,0:0:0:0:
192,184,133664,1,0,0:0:0:0:
100,140,134274,6,0,P|121:106|166:101,2,70
104,240,135492,2,0,P|142:278|214:281,1,70
440,64,156205,5,0,0:0:0:0:
472,160,156814,2,0,P|360:128|344:40,1,210
248,100,158642,6,0,P|244:68|252:24,2,70
280,196,159860,1,2,0:0:0:0:
208,264,160469,1,0,0:0:0:0:
164,176,161079,5,0,0:0:0:0:
132,80,161688,2,0,B|56:108|44:192|72:232|120:268,1,210
176,296,163515,5,0,0:0:0:0:
276,296,164125,1,0,0:0:0:0:
344,224,164734,2,0,P|368:256|376:300,2,70
248,196,165952,6,0,B|260:136|320:108|372:112|416:148,1,210,0|2,0:0|0:0,0:0:0:0:
344,224,167780,1,0,0:0:0:0:
340,324,168389,6,0,P|384:320|408:288,2,70
256,272,169607,1,2,0:0:0:0:
184,340,170217,1,0,0:0:0:0:
156,244,170826,5,0,0:0:0:0:
224,172,171435,1,0,0:0:0:0:
168,88,172044,2,0,P|140:112|132:144,2,70,2|0|0,0:0|0:0|0:0,0:0:0:0:
256,192,173263,12,0,175090,0:0:0:0:
300,304,175699,5,0,0:0:0:0:
364,228,176309,1,0,0:0:0:0:
432,152,176918,2,0,P|456:180|461:211,2,70,2|0|0,0:0|0:0|0:0,0:0:0:0:
416,52,178136,6,0,P|453:49|492:64,2,70
340,120,179355,1,2,0:0:0:0:
328,220,179964,1,0,0:0:0:0:
268,300,180573,6,0,P|304:320|344:304,2,70
200,228,181791,2,0,P|176:262|189:303,2,70,2|0|0,0:0|0:0|0:0,0:0:0:0:
124,160,183010,6,0,P|156:128|240:140,3,70
304,88,185447,6,0,B|326:145|300:205|239:235|185:221,1,210,0|2,0:0|0:0,0:0:0:0:
212,124,187274,1,0,0:0:0:0:
136,60,187883,6,0,P|159:37|212:24,2,70
120,160,189102,2,0,P|152:208|232:212,1,140,2|0,0:0|0:0,0:0:0:0:
256,296,190320,6,0,P|224:316|180:308,2,70
348,256,191539,2,0,P|356:288|348:324,2,70,2|0|0,0:0|0:0|0:0,0:0:0:0:
272,192,192757,5,0,0:0:0:0:
364,156,193366,1,0,0:0:0:0:
284,96,193975,1,0,0:0:0:0:
192,132,194585,1,0,0:0:0:0:
128,60,195194,6,0,B|72:120|92:216|200:232,1,210,0|2,0:0|0:0,0:0:0:0:
252,268,197021,1,0,0:0:0:0:
292,360,197631,6,0,P|328:340|340:296,2,70
192,348,198849,1,2,0:0:0:0:
248,268,199458,1,0,0:0:0:0:
188,188,200067,6,0,P|224:168|272:176,2,70
140,276,201286,2,0,P|108:248|96:204,2,70,2|0|0,0:0|0:0|0:0,0:0:0:0:
240,272,202504,5,0,0:0:0:0:
316,204,203113,1,0,0:0:0:0:
332,64,204941,6,0,P|354:106|333:171,1,70
252,124,206159,1,2,0:0:0:0:
276,220,206769,1,0,0:0:0:0:
196,280,207378,6,0,P|215:305|271:302,2,70
164,184,208596,1,2,0:0:0:0:
264,196,209205,1,0,0:0:0:0:
356,152,209815,6,0,P|365:187|359:223,2,70
392,60,211033,2,0,P|428:76|452:120,2,70,2|0|0,0:0|0:0|0:0,0:0:0:0:
292,76,212251,5,0,0:0:0:0:
252,168,212861,1,0,0:0:0:0:
152,156,213470,2,0,P|164:116|192:80,2,70
56,176,214684,6,0,P|80:228|148:252,1,70
88,344,215902,2,0,P|156:344|200:292,1,140,2|0,0:0|0:0,0:0:0:0:
240,248,217121,5,0,0:0:0:0:
308,320,217730,1,0,0:0:0:0:
340,224,218339,1,2,0:0:0:0:
412,292,218949,1,0,0:0:0:0:
436,196,219557,6,0,P|404:144|336:128,1,70
276,100,220776,1,2,0:0:0:0:
236,192,221385,1,0,0:0:0:0:
176,112,221994,6,0,P|144:152|156:240,3,140
180,292,224431,5,0,0:0:0:0:
236,212,225040,1,0,0:0:0:0:
280,304,225649,2,0,P|320:276|336:208,1,70,2|0,0:0|0:0,0:0:0:0:
236,212,226868,6,0,P|256:164|304:132,1,70
392,120,228086,1,2,0:0:0:0:
328,44,228695,1,0,0:0:0:0:
428,32,229304,6,0,P|472:64|485:129,1,70
456,200,230523,1,2,0:0:0:0:
392,120,231132,1,0,0:0:0:0:
256,192,231742,12,0,233976,0:0:0:0:
