osu file format v14

[General]
AudioFilename: audio.mp3
AudioLeadIn: 0
PreviewTime: 483
Countdown: 0
SampleSet: None
StackLeniency: 0.7
Mode: 0
LetterboxInBreaks: 0
WidescreenStoryboard: 1

[Editor]
DistanceSpacing: 0.8
BeatDivisor: 2
GridSize: 4
TimelineZoom: 4.699997

[Metadata]
Title:Crazy Little Love
TitleUnicode:Crazy Little Love
Artist:Nuage
ArtistUnicode:Nuage
Creator:woynawsenpai
Version:Normal
Source:Initial D
Tags:Initial D Eurobeat
BeatmapID:1836108
BeatmapSetID:607812

[Difficulty]
HPDrainRate:4
CircleSize:3.5
OverallDifficulty:4
ApproachRate:6
SliderMultiplier:1.1
SliderTickRate:1

[Events]
//Background and Video events
0,0,"P6R3JuV.jpg",0,0
//Break Periods
2,14781,27631
//Storyboard Layer 0 (Background)
//Storyboard Layer 1 (Fail)
//Storyboard Layer 2 (Pass)
//Storyboard Layer 3 (Foreground)
//Storyboard Sound Samples

[TimingPoints]
874,391.647465061782,4,3,0,30,1,0
2049,-100,4,3,0,30,0,0
4007,-100,4,3,0,30,0,0
5182,-100,4,3,0,30,0,0
6749,-100,4,3,0,30,0,0
28681,-100,4,3,0,50,0,0
29072,-100,4,3,0,50,0,1
30248,-100,4,3,0,50,0,1
41214,-100,4,3,0,40,0,1
41605,-100,4,3,0,40,0,0
41997,-100,4,3,0,40,0,0
43564,-83.3333333333333,4,3,0,40,0,0
54138,-83.3333333333333,4,3,0,50,0,0
66867,-66.6666666666667,4,3,0,50,0,0
68237,-66.6666666666667,4,3,0,60,0,1
70196,-66.6666666666667,4,3,0,60,0,1
93302,-66.6666666666667,4,3,0,60,0,0

[HitObjects]
348,220,2048,6,2,B|382:267|366:332,2,110
305,143,3223,1,8,0:0:0:0:
238,200,3615,1,8,0:0:0:0:
150,200,4007,6,2,B|114:106|153:48,1,110,8|0,0:0|0:0,0:0:0:0:
210,46,4790,2,2,B|249:45|249:45|281:62|281:62,2,55
136,94,5573,6,2,B|155:185|237:193,1,110
272,226,6357,2,2,B|314:160|282:96,1,110,2|2,0:0|0:0,0:3:0:0:
204,111,7140,5,8,0:0:0:0:
185,197,7532,1,8,0:0:0:0:
165,282,7923,1,8,0:0:0:0:
77,290,8315,6,2,L|78:355,2,55,8|8|2,0:0|0:0|0:0,0:0:0:0:
76,202,9098,1,8,0:0:0:0:
158,171,9490,1,8,0:0:0:0:
125,89,9881,6,0,B|52:38,2,55,0|0|2,0:0|0:0|0:0,0:0:0:0:
197,140,10665,1,8,0:0:0:0:
250,70,11056,1,8,0:0:0:0:
308,136,11448,1,8,0:0:0:0:
291,222,11840,6,10,L|275:277,2,55,2|2|2,0:0|0:0|0:0,0:0:0:0:
378,212,12623,6,2,L|450:261,2,55
308,158,13406,5,8,0:0:0:0:
364,90,13798,1,8,0:0:0:0:
451,100,14190,2,2,L|461:181,2,55
75,171,28681,6,2,P|57:135|33:90,2,55
134,301,29464,1,8,0:0:0:0:
257,228,29856,1,8,0:0:0:0:
391,279,30248,6,2,P|409:321|455:344,2,55,10|2|6,3:0|3:0|3:0,3:0:0:0:
359,139,31031,1,8,0:0:0:0:
466,44,31423,1,8,0:0:0:0:
323,53,31814,6,2,P|266:63|237:94,2,55,10|6|10,0:0|0:0|0:0,0:0:0:0:
281,190,32598,1,8,0:0:0:0:
154,124,32989,1,8,0:0:0:0:
91,252,33381,6,2,P|116:272|169:246,2,55,10|6|10,0:0|0:0|0:0,0:0:0:0:
71,110,34164,1,8,0:0:0:0:
217,131,34556,1,8,0:0:0:0:
227,273,34947,6,2,L|308:297,2,55
85,250,35731,1,8,0:0:0:0:
153,124,36122,1,8,0:0:0:0:
295,141,36514,6,2,P|321:105|351:86,2,55,10|6|10,0:3|0:3|0:3,0:3:0:0:
362,267,37297,2,2,P|388:300|448:303,2,55,10|6|10,0:0|0:0|0:0,0:0:0:0:
334,126,38081,5,8,0:0:0:0:
466,179,38472,1,8,0:0:0:0:
368,284,38864,2,2,P|377:339|418:351,2,55,10|6|10,0:0|0:0|0:0,0:0:0:0:
451,168,39647,6,2,L|493:264,2,55,10|6|10,0:0|0:0|0:0,0:0:0:0:
388,38,40431,1,8,0:0:0:0:
299,150,40822,1,8,0:0:0:0:
265,289,41214,2,2,B|294:332|345:345,2,55,2|6|2,0:0|0:0|0:0,0:0:0:0:
161,190,41997,5,8,0:0:0:0:
225,129,42389,2,2,B|221:43,2,55,10|6|10,0:0|0:0|0:0,0:0:0:0:
237,216,43172,5,8,0:0:0:0:
211,318,43564,2,2,B|135:318|135:318|83:263,1,131.99999597168,10|6,0:0|0:0,0:0:0:0:
37,190,44347,1,8,0:0:0:0:
117,120,44739,1,8,0:0:0:0:
214,162,45130,1,8,0:0:0:0:
154,248,45521,6,2,P|223:301|315:293,1,131.99999597168,10|6,0:0|0:0,0:0:0:0:
371,307,46305,1,8,0:0:0:0:
422,214,46697,1,8,0:0:0:0:
326,169,47089,6,2,P|307:144|265:127,2,65.9999979858399,10|6|2,0:0|0:0|0:0,0:0:0:0:
260,251,47872,1,8,0:0:0:0:
211,157,48263,1,8,0:0:0:0:
158,248,48654,2,0,P|102:198|93:130,1,131.99999597168
196,148,49438,6,2,L|264:227,2,65.9999979858399,10|6|2,0:0|0:0|0:0,0:0:0:0:
136,61,50222,1,8,0:0:0:0:
241,58,50613,1,8,0:0:0:0:
339,97,51005,2,2,P|313:144|321:183,2,65.9999979858399,10|6|10,0:0|0:0|0:0,0:0:0:0:
426,45,51788,5,8,0:0:0:0:
464,143,52180,1,8,0:0:0:0:
433,244,52572,1,8,0:0:0:0:
343,299,52963,2,2,L|312:197,2,65.9999979858399
240,326,53747,5,8,0:0:0:0:
176,242,54138,1,8,0:0:0:0:
72,221,54530,2,2,L|81:299,2,65.9999979858399,10|6|2,0:0|0:0|0:0,0:0:0:0:
58,116,55313,5,8,0:0:0:0:
161,137,55705,2,2,P|160:92|196:50,2,65.9999979858399,10|6|10,0:0|0:0|0:0,0:0:0:0:
199,235,56488,5,8,0:0:0:0:
285,174,56880,1,8,0:0:0:0:
369,237,57271,2,2,B|373:282|373:282|383:320|383:320,2,65.9999979858399,10|6|10,0:0|0:0|0:0,0:0:0:0:
383,132,58055,5,8,0:0:0:0:
327,42,58446,1,8,0:0:0:0:
231,87,58838,2,2,L|175:44,2,65.9999979858399,10|6|10,0:0|0:0|0:0,0:0:0:0:
318,145,59621,5,8,0:0:0:0:
361,241,60013,1,8,0:0:0:0:
279,308,60405,2,2,P|213:332|163:296,1,131.99999597168,10|6,0:0|0:0,0:0:0:0:
103,215,61188,5,8,0:0:0:0:
150,120,61580,2,2,P|199:160|272:153,1,131.99999597168,10|6,0:0|0:0,0:0:0:0:
361,113,62363,5,8,0:0:0:0:
418,201,62754,2,2,L|252:277,1,131.99999597168,2|2,0:3|0:3,0:3:0:0:
204,305,63538,5,8,0:0:0:0:
155,211,63929,1,8,0:0:0:0:
161,105,64321,1,8,0:3:0:0:
256,150,64712,2,2,P|312:91|400:88,1,131.99999597168,10|6,0:0|0:0,0:0:0:0:
464,88,65496,1,8,0:0:0:0:
469,193,65888,2,2,L|332:196,2,131.99999597168
286,130,68237,6,2,L|406:101,2,82.5000031471254
158,164,69021,1,8,0:0:0:0:
203,287,69412,1,8,0:0:0:0:
309,209,69804,1,8,0:0:0:0:
372,93,70195,2,2,P|292:71|190:68,1,165.000006294251,10|2,0:0|0:0,0:0:0:0:
80,87,70978,1,8,0:0:0:0:
167,186,71370,6,2,L|66:193,2,82.5000031471254
299,178,72154,1,8,0:0:0:0:
227,289,72546,1,8,0:0:0:0:
357,307,72937,2,2,P|405:238|382:139,1,165.000006294251,10|2,0:0|0:0,0:0:0:0:
328,47,73720,1,8,0:0:0:0:
204,94,74112,1,8,0:0:0:0:
159,218,74504,6,2,B|204:244|204:244|272:229,2,82.5000031471254,10|6|10,0:0|0:0|0:0,0:0:0:0:
50,142,75287,1,8,0:0:0:0:
149,55,75679,1,8,0:0:0:0:
280,54,76070,2,2,P|358:81|412:155,1,165.000006294251,10|6,0:0|0:0,0:0:0:0:
464,263,76854,1,8,0:0:0:0:
338,304,77245,1,8,0:0:0:0:
211,342,77636,6,2,P|146:305|84:224,1,165.000006294251,10|6,0:0|0:0,0:0:0:0:
39,114,78420,1,8,0:0:0:0:
152,45,78812,1,8,0:0:0:0:
202,167,79204,1,8,0:0:0:0:
304,250,79595,2,2,L|415:263,2,82.5000031471254
172,233,80379,1,8,0:0:0:0:
148,103,80770,6,2,P|75:60|82:13,2,82.5000031471254,10|10|2,0:0|0:0|0:0,0:0:0:0:
271,54,81554,1,8,0:0:0:0:
369,141,81945,1,8,0:0:0:0:
469,226,82336,2,2,P|393:267|285:251,1,165.000006294251,10|6,0:0|0:0,0:0:0:0:
189,226,83120,1,8,0:0:0:0:
284,135,83512,1,8,0:0:0:0:
152,137,83903,6,2,P|101:170|99:245,2,82.5000031471254,10|6|2,0:0|0:0|0:0,0:0:0:0:
282,116,84687,1,8,0:0:0:0:
211,227,85078,1,8,0:0:0:0:
297,326,85469,2,2,P|349:254|358:107,1,165.000006294251,10|6,0:0|0:0,0:0:0:0:
368,49,86253,1,8,0:0:0:0:
247,103,86645,1,8,0:0:0:0:
130,165,87037,6,2,L|254:183,2,82.5000031471254
207,271,87820,1,8,0:0:0:0:
318,199,88212,1,8,0:0:0:0:
227,102,88603,2,2,L|120:61,2,82.5000031471254,10|6|10,0:0|0:0|0:0,0:0:0:0:
350,147,89386,5,8,0:0:0:0:
253,237,89778,2,2,P|247:317|280:341,2,82.5000031471254,10|6|2,0:0|0:0|0:0,0:0:0:0:
353,151,90561,5,8,0:0:0:0:
233,95,90953,1,8,0:0:0:0:
284,216,91345,5,8,0:0:0:0:
162,165,91736,1,8,0:0:0:0:
212,287,92128,6,2,L|131:241,2,82.5000031471254
337,327,92911,2,2,L|482:329,2,82.5000031471254
