osu file format v14

[General]
AudioFilename: audio.mp3
AudioLeadIn: 0
PreviewTime: 483
Countdown: 0
SampleSet: Drum
StackLeniency: 0.7
Mode: 0
LetterboxInBreaks: 0
WidescreenStoryboard: 0

[Editor]
DistanceSpacing: 1
BeatDivisor: 4
GridSize: 4
TimelineZoom: 4.699997

[Metadata]
Title:Crazy Little Love
TitleUnicode:Crazy Little Love
Artist:Nuage
ArtistUnicode:Nuage
Creator:woynawsenpai
Version:Insane
Source:Initial D
Tags:Initial D Eurobeat
BeatmapID:1283730
BeatmapSetID:607812

[Difficulty]
HPDrainRate:6
CircleSize:4
OverallDifficulty:5.3
ApproachRate:9
SliderMultiplier:1.1
SliderTickRate:1

[Events]
//Background and Video events
0,0,"P6R3JuV.jpg",0,0
//Break Periods
//Storyboard Layer 0 (Background)
//Storyboard Layer 1 (Fail)
//Storyboard Layer 2 (Pass)
//Storyboard Layer 3 (Foreground)
//Storyboard Layer 4 (Overlay)
//Storyboard Sound Samples

[TimingPoints]
874,391.646862745098,4,3,0,30,1,0
2049,-50,4,3,0,30,0,0
4007,-100,4,3,0,30,0,0
5182,-100,4,3,0,30,0,0
5574,-133.333333333333,4,3,0,30,0,0
6749,-100,4,3,0,30,0,0
28681,-66.6666666666667,4,3,0,50,0,0
29072,-66.6666666666667,4,3,0,50,0,1
30248,-66.6666666666667,4,3,0,50,0,1
41214,-50,4,3,0,40,0,1
41605,-50,4,3,0,40,0,0
41997,-66.6666666666667,4,3,0,40,0,0
43564,-83.3333333333333,4,3,0,40,0,0
54138,-83.3333333333333,4,3,0,50,0,0
66867,-66.6666666666667,4,3,0,50,0,0
68237,-50,4,3,0,60,0,1
70196,-50,4,3,0,60,0,1
93302,-50,4,3,0,60,0,0

[HitObjects]
256,192,873,12,2,1656,0:0:0:0:
44,200,2049,6,2,B|72:159|111:163|96:181|135:130,2,110
231,42,2637,1,8,0:0:0:0:
396,61,2833,2,8,P|376:137|323:149,1,110,8|4,0:0|0:0,0:0:0:0:
234,171,3224,5,8,0:0:0:0:
150,298,3420,2,8,B|118:265|110:239|109:179,1,110,8|4,0:0|0:0,0:0:0:0:
121,67,3811,5,8,0:0:0:0:
277,40,4007,2,2,B|314:65|314:65|323:102|323:102|367:124,1,110
437,181,4595,2,2,B|410:216|410:216|372:223|372:223|352:261,1,110
226,338,5182,6,8,P|258:318|287:288,1,55,8|4,0:0|0:0,0:0:0:0:
458,113,5574,6,2,B|472:95|471:57|447:23,1,82.5000031471253
358,89,6161,2,2,B|372:107|371:145|357:181,1,82.5000031471254,2|2,0:0|0:0,0:3:0:0:
300,318,6749,6,8,P|257:302|246:285,1,55,8|4,0:0|0:0,0:0:0:0:
166,186,7140,5,0,0:0:0:0:
204,50,7336,1,0,0:0:0:0:
91,82,7531,1,0,0:0:0:0:
272,138,7727,5,0,0:0:0:0:
379,47,7923,1,0,0:0:0:0:
346,214,8119,1,0,0:0:0:0:
257,337,8316,6,2,P|275:306|277:267,1,55,8|8,0:0|0:0,0:0:0:0:
277,69,8707,5,8,0:0:0:0:
206,221,8903,1,8,0:0:0:0:
342,121,9099,1,8,0:0:0:0:
467,154,9295,5,8,0:0:0:0:
335,222,9490,1,8,0:0:0:0:
257,111,9686,1,8,0:0:0:0:
198,246,9882,6,8,B|257:282,1,55,8|4,0:0|0:0,0:0:0:0:
337,315,10273,5,8,0:0:0:0:
410,212,10469,1,8,0:0:0:0:
338,108,10665,1,8,0:0:0:0:
194,231,10861,5,8,0:0:0:0:
140,102,11057,1,8,0:0:0:0:
275,51,11253,1,8,0:0:0:0:
218,136,11449,5,8,0:0:0:0:
283,233,11644,1,8,0:0:0:0:
360,133,11840,2,8,P|383:165|387:186,2,55,8|4|8,0:0|0:0|0:0,0:0:0:0:
136,240,12428,6,8,P|113:208|109:187,2,55,8|4|8,0:0|0:0|0:0,0:0:0:0:
228,304,13015,5,8,0:0:0:0:
226,192,13211,1,8,0:0:0:0:
145,110,13407,1,8,0:0:0:0:
206,59,13603,1,8,0:0:0:0:
284,43,13798,1,8,0:0:0:0:
349,89,13994,1,8,0:0:0:0:
194,160,14190,5,8,0:0:0:0:
181,184,14288,1,8,0:0:0:0:
174,210,14386,1,8,0:0:0:0:
178,237,14484,1,8,0:0:0:0:
193,260,14582,1,8,0:0:0:0:
215,276,14680,1,8,0:0:0:0:
240,286,14778,1,8,0:0:0:0:
267,292,14876,1,8,0:0:0:0:
290,295,14974,6,2,P|328:285|347:262,1,55,10|6,0:0|0:0,0:0:0:0:
401,181,15267,5,0,0:0:0:0:
411,143,15365,1,0,0:0:0:0:
401,109,15463,1,0,0:0:0:0:
379,78,15561,2,2,P|358:98|340:129,1,55,10|6,0:0|0:0,0:0:0:0:
293,205,15855,5,8,0:0:0:0:
264,225,15953,1,8,0:0:0:0:
228,227,16050,1,8,0:0:0:0:
202,212,16148,2,2,P|177:190|166:151,2,55,10|6|10,0:0|0:0|0:0,0:0:0:0:
127,61,16736,6,2,P|111:83|96:125,1,55,10|6,0:0|0:0,0:0:0:0:
289,152,17128,2,2,P|283:193|271:210,1,55,10|6,0:0|0:0,0:0:0:0:
93,80,17519,5,8,0:0:0:0:
104,107,17617,1,8,0:0:0:0:
131,126,17715,1,8,0:0:0:0:
332,81,17911,2,2,P|334:127|312:151,1,55,10|6,0:0|0:0,0:0:0:0:
232,270,18302,5,8,0:0:0:0:
213,237,18400,1,8,0:0:0:0:
210,204,18498,1,8,0:0:0:0:
232,84,18694,2,2,P|268:59|271:36,2,55,10|6|10,0:0|0:0|0:0,0:0:0:0:
115,226,19282,5,8,0:0:0:0:
297,50,19477,1,8,0:0:0:0:
423,180,19673,2,2,P|385:228|374:234,1,55,10|6,0:0|0:0,0:0:0:0:
149,207,20065,2,2,P|151:166|160:143,2,55,10|6|10,0:0|0:0|0:0,0:0:0:0:
344,67,20652,5,8,0:0:0:0:
320,101,20750,1,8,0:0:0:0:
284,122,20848,1,8,0:0:0:0:
243,129,20946,1,8,0:0:0:0:
202,118,21044,1,8,0:0:0:0:
306,224,21240,2,2,P|347:204|357:178,2,55,10|6|10,0:0|0:0|0:0,0:0:0:0:
162,242,21827,5,8,0:0:0:0:
173,206,21925,1,8,0:0:0:0:
197,176,22023,1,8,0:0:0:0:
220,153,22121,1,8,0:0:0:0:
252,133,22219,1,8,0:0:0:0:
424,100,22415,2,2,P|418:140|399:162,1,55,8|4,0:0|0:0,0:0:0:0:
175,70,22806,5,8,0:0:0:0:
151,107,22904,1,8,0:0:0:0:
136,148,23002,1,8,0:0:0:0:
142,190,23100,1,8,0:0:0:0:
163,226,23198,1,8,0:0:0:0:
303,90,23394,2,2,P|343:119|344:140,2,55,10|6|10,0:0|0:0|0:0,0:0:0:0:
99,98,23981,5,0,0:0:0:0:
193,285,24177,1,0,0:0:0:0:
301,56,24373,5,0,0:0:0:0:
311,91,24471,1,0,0:0:0:0:
302,127,24569,1,0,0:0:0:0:
282,157,24667,1,0,0:0:0:0:
255,180,24765,1,0,0:0:0:0:
106,259,24960,2,0,P|80:233|76:203,2,55
169,42,25548,5,8,0:0:0:0:
378,84,25744,1,8,0:0:0:0:
372,244,25940,5,8,0:0:0:0:
333,246,26037,1,8,0:0:0:0:
293,248,26135,1,8,0:0:0:0:
254,252,26233,1,8,0:0:0:0:
218,254,26331,1,8,0:0:0:0:
50,168,26527,5,8,0:0:0:0:
143,59,26723,5,8,0:0:0:0:
182,57,26821,1,8,0:0:0:0:
222,55,26919,1,8,0:0:0:0:
261,51,27017,1,8,0:0:0:0:
297,49,27114,1,8,0:0:0:0:
426,145,27310,1,8,0:0:0:0:
75,70,27506,6,2,P|61:102|81:137,1,55,10|6,0:0|0:0,0:0:0:0:
116,241,27898,2,2,P|127:266|171:281,1,55,10|6,0:0|0:0,0:0:0:0:
297,305,28290,2,2,P|294:271|280:241,1,55,10|6,0:0|0:0,0:0:0:0:
184,88,28681,6,2,P|219:117|230:176,1,82.5000031471254
262,291,29073,5,8,0:0:0:0:
290,275,29170,1,8,0:0:0:0:
313,253,29268,1,8,0:0:0:0:
329,225,29366,1,8,0:0:0:0:
338,194,29464,1,8,0:0:0:0:
253,31,29660,5,8,0:0:0:0:
225,47,29758,1,8,0:0:0:0:
201,69,29856,1,8,0:0:0:0:
185,97,29954,1,8,0:0:0:0:
176,128,30052,1,8,0:0:0:0:
152,261,30248,2,2,P|173:299|225:326,2,82.5000031471254,10|2|6,3:0|3:0|3:0,3:0:0:0:
127,67,30834,5,8,0:0:0:0:
156,51,30933,1,8,0:0:0:0:
188,53,31031,1,8,0:0:0:0:
369,159,31227,2,0,P|371:232|342:262,2,82.5000031471254
173,297,31814,2,2,P|139:256|152:207,1,82.5000031471254,10|6,0:0|0:0,0:0:0:0:
212,43,32206,5,8,0:0:0:0:
240,59,32304,1,8,0:0:0:0:
263,81,32402,1,8,0:0:0:0:
279,109,32500,1,8,0:0:0:0:
288,140,32598,1,8,0:0:0:0:
203,303,32793,5,8,0:0:0:0:
175,287,32891,1,8,0:0:0:0:
151,265,32989,1,8,0:0:0:0:
135,237,33087,1,8,0:0:0:0:
126,206,33185,1,8,0:0:0:0:
321,227,33381,2,2,P|371:231|424:205,2,82.5000031471254,10|6|10,0:0|0:0|0:0,0:0:0:0:
134,214,33968,5,8,0:0:0:0:
117,185,34066,1,8,0:0:0:0:
109,152,34164,1,8,0:0:0:0:
112,119,34262,1,8,0:0:0:0:
129,90,34360,1,8,0:0:0:0:
153,66,34458,1,8,0:0:0:0:
182,51,34556,2,2,P|243:45|278:65,1,82.5000031471254,10|6,0:0|0:0,0:0:0:0:
472,132,34947,5,8,0:0:0:0:
280,288,35143,1,8,0:0:0:0:
240,44,35339,2,2,P|302:56|312:70,1,82.5000031471254,10|6,0:0|0:0,0:0:0:0:
331,94,35633,5,8,0:0:0:0:
346,123,35731,1,8,0:0:0:0:
361,152,35829,1,8,0:0:0:0:
372,179,35927,2,2,L|300:238,1,82.5000031471254,10|6,0:0|0:0,0:0:0:0:
197,318,36220,5,8,0:0:0:0:
167,290,36318,1,8,0:0:0:0:
161,249,36416,1,8,0:0:0:0:
137,116,36514,2,2,P|163:80|199:56,2,82.5000031471254,10|6|10,0:3|0:3|0:3,0:3:0:0:
117,232,37101,5,8,0:0:0:0:
123,273,37199,1,8,0:0:0:0:
148,306,37297,2,2,P|174:339|242:345,2,82.5000031471254,10|6|10,0:0|0:0|0:0,0:0:0:0:
83,104,37885,5,8,0:0:0:0:
176,203,38081,1,8,0:0:0:0:
309,176,38276,1,8,0:0:0:0:
330,33,38472,2,2,L|250:102,1,82.5000031471254,10|6,0:0|0:0,0:0:0:0:
248,112,38766,1,8,0:0:0:0:
236,144,38864,2,2,P|243:202|297:215,2,82.5000031471254,10|6|10,0:0|0:0|0:0,0:0:0:0:
343,56,39451,5,8,0:0:0:0:
372,216,39647,2,2,P|323:287|309:284,2,82.5000031471254,10|6|10,0:0|0:0|0:0,0:0:0:0:
347,112,40235,5,8,0:0:0:0:
316,96,40333,1,8,0:0:0:0:
284,88,40431,2,2,P|269:83|201:90,1,82.5000031471254,10|6,0:0|0:0,0:0:0:0:
173,102,40724,1,0,0:0:0:0:
143,116,40822,2,2,P|129:123|88:179,1,82.5000031471254,10|6,0:0|0:0,0:0:0:0:
97,258,41214,2,2,B|127:307|205:327|228:332,1,110,10|6,0:0|0:0,0:0:0:0:
296,320,41605,5,8,0:0:0:0:
400,224,41801,1,8,0:0:0:0:
304,84,41997,2,2,P|290:129|229:160,1,82.5000031471254,10|6,0:0|0:0,0:0:0:0:
144,134,42389,2,2,B|152:94|172:66|208:46,2,82.5000031471254,10|6|10,0:0|0:0|0:0,0:0:0:0:
318,50,42976,5,8,0:0:0:0:
386,111,43172,1,8,0:0:0:0:
223,97,43368,1,8,0:0:0:0:
296,248,43564,2,2,B|220:248|220:248|156:196,1,131.99999597168,10|6,0:0|0:0,0:0:0:0:
66,80,44151,6,2,L|156:74,1,65.9999979858399,10|6,0:0|0:0,0:0:0:0:
256,44,44543,1,8,0:0:0:0:
149,145,44739,1,8,0:0:0:0:
214,280,44934,2,2,L|287:264,2,65.9999979858399,10|6|10,0:0|0:0|0:0,0:0:0:0:
120,230,45423,5,8,0:0:0:0:
108,198,45522,1,8,0:0:0:0:
95,167,45619,1,8,0:0:0:0:
105,135,45717,1,8,0:0:0:0:
127,110,45815,1,8,0:0:0:0:
156,94,45913,2,2,P|178:103|231:149,2,65.9999979858399,8|4|8,0:0|0:0|0:0,0:0:0:0:
168,296,46500,5,8,0:0:0:0:
287,189,46696,1,8,0:0:0:0:
444,217,46893,1,8,0:0:0:0:
382,145,47089,2,2,P|363:120|321:103,1,65.9999979858399,10|6,0:0|0:0,0:0:0:0:
96,97,47480,5,8,0:0:0:0:
33,170,47676,1,8,0:0:0:0:
192,174,47872,2,2,L|270:142,1,65.9999979858399,10|6,0:0|0:0,0:0:0:0:
391,98,48263,5,8,0:0:0:0:
280,35,48459,2,2,P|217:36|192:51,1,65.9999979858399,10|6,0:0|0:0,0:0:0:0:
87,118,48851,5,8,0:0:0:0:
148,258,49047,1,8,0:0:0:0:
149,146,49243,2,2,L|229:176,2,65.9999979858399,10|6|10,0:0|0:0|0:0,0:0:0:0:
38,110,49830,5,8,0:0:0:0:
224,43,50026,1,8,0:0:0:0:
163,231,50222,1,8,0:0:0:0:
332,128,50418,2,2,P|344:180|320:208,1,65.9999979858399,10|6,0:0|0:0,0:0:0:0:
224,320,50809,5,8,0:0:0:0:
176,128,51005,2,2,P|150:79|158:40,2,65.9999979858399,10|6|10,0:0|0:0|0:0,0:0:0:0:
344,288,51592,1,8,0:0:0:0:
384,48,51788,5,8,0:0:0:0:
360,56,51886,1,8,0:0:0:0:
340,76,51984,1,8,0:0:0:0:
328,100,52082,1,8,0:0:0:0:
324,124,52180,1,8,0:0:0:0:
387,285,52376,5,8,0:0:0:0:
319,173,52572,5,8,0:0:0:0:
321,147,52669,1,8,0:0:0:0:
310,121,52767,1,8,0:0:0:0:
293,101,52865,1,8,0:0:0:0:
272,88,52963,1,8,0:0:0:0:
101,44,53159,2,2,L|88:133,1,65.9999979858399,10|6,0:0|0:0,0:0:0:0:
70,293,53551,5,8,0:0:0:0:
416,220,53747,2,2,P|373:222|338:189,1,65.9999979858399,10|6,0:0|0:0,0:0:0:0:
110,114,54138,6,2,L|123:185,1,65.9999979858399,10|6,0:0|0:0,0:0:0:0:
218,114,54530,2,2,L|227:192,1,65.9999979858399,10|6,0:0|0:0,0:0:0:0:
252,318,54921,1,8,0:0:0:0:
369,181,55117,1,8,0:0:0:0:
303,30,55313,2,2,L|269:117,1,65.9999979858399,10|6,0:0|0:0,0:0:0:0:
207,266,55705,2,2,P|167:287|116:285,2,65.9999979858399,10|6|10,0:0|0:0|0:0,0:0:0:0:
438,109,56292,2,2,P|417:71|376:68,1,65.9999979858399,10|6,0:0|0:0,0:0:0:0:
86,41,56684,5,8,0:0:0:0:
74,166,56880,1,8,0:0:0:0:
200,48,57075,1,8,0:0:0:0:
204,180,57271,2,2,B|208:225|208:225|218:263|218:263,2,65.9999979858399,10|6|10,0:0|0:0|0:0,0:0:0:0:
200,48,57859,6,2,P|234:37|272:49,1,65.9999979858399,10|6,0:0|0:0,0:0:0:0:
403,141,58250,5,8,0:0:0:0:
199,151,58446,1,8,0:0:0:0:
364,240,58642,1,8,0:0:0:0:
219,275,58838,2,2,L|129:267,2,65.9999979858399,10|6|10,0:0|0:0|0:0,0:0:0:0:
342,283,59426,6,2,P|372:258|381:228,1,65.9999979858399,10|6,0:0|0:0,0:0:0:0:
392,208,59719,1,8,0:0:0:0:
398,181,59817,1,8,0:0:0:0:
396,154,59915,1,8,0:0:0:0:
385,129,60013,1,8,0:0:0:0:
368,108,60111,1,8,0:0:0:0:
349,92,60209,1,8,0:0:0:0:
207,71,60404,6,2,P|150:112|152:173,1,131.99999597168,10|6,0:0|0:0,0:0:0:0:
233,332,60992,1,8,0:0:0:0:
421,303,61188,2,2,L|366:244,1,65.9999979858399,10|6,0:0|0:0,0:0:0:0:
239,56,61579,2,2,P|177:43|111:76,1,131.99999597168,10|6,0:0|0:0,0:0:0:0:
41,162,62167,5,8,0:0:0:0:
217,245,62363,2,2,L|284:286,1,65.9999979858399,8|4,0:0|0:0,0:0:0:0:
384,262,62755,2,2,L|309:218,1,65.9999979858399,10|6,0:0|0:0,0:0:0:0:
186,161,63146,5,8,0:0:0:0:
357,47,63342,1,8,0:0:0:0:
327,301,63538,1,8,0:0:0:0:
272,101,63733,1,8,0:0:0:0:
254,286,63929,5,8,0:0:0:0:
365,131,64125,1,8,0:0:0:0:
127,97,64321,5,8,0:3:0:0:
394,226,64517,1,8,0:3:0:0:
204,42,64713,5,8,0:3:0:0:
283,280,64908,1,8,0:3:0:0:
346,65,65104,5,8,0:0:0:0:
370,86,65202,1,8,0:0:0:0:
387,114,65300,1,8,0:0:0:0:
399,145,65398,1,8,0:0:0:0:
403,178,65496,1,8,0:0:0:0:
399,211,65594,5,8,0:0:0:0:
388,242,65692,1,8,0:0:0:0:
369,268,65790,1,8,0:0:0:0:
343,289,65888,1,8,0:0:0:0:
314,303,65985,1,8,0:0:0:0:
282,310,66083,1,8,0:0:0:0:
249,309,66181,1,8,0:0:0:0:
223,303,66279,2,8,L|205:297,8,16.49999949646
59,118,66867,6,0,L|115:111,2,41.2500015735627
127,260,67161,2,0,L|158:196,2,41.2500015735627
408,56,67454,2,0,L|448:119,1,41.2500015735627
449,209,67650,2,8,L|402:168,1,41.2500015735627
311,54,67846,2,8,L|349:108,1,41.2500015735627
92,111,68238,6,2,P|106:199|139:208,1,110,10|6,0:0|0:0,0:0:0:0:
307,44,68629,2,2,P|359:93|336:135,1,110,10|6,0:0|0:0,0:0:0:0:
204,315,69021,5,8,0:0:0:0:
224,39,69217,1,8,0:0:0:0:
88,225,69412,1,8,0:0:0:0:
341,81,69608,5,8,0:0:0:0:
69,59,69804,1,8,0:0:0:0:
208,294,70000,1,8,0:0:0:0:
270,151,70196,2,2,B|277:108|265:76|212:53,2,110,10|6|10,0:0|0:0|0:0,0:0:0:0:
223,331,70783,5,8,0:0:0:0:
59,246,70979,1,8,0:0:0:0:
197,137,71175,1,8,0:0:0:0:
417,334,71371,6,2,P|449:266|429:222,1,110,10|6,0:0|0:0,0:0:0:0:
354,122,71762,2,2,P|418:81|426:18,2,110,10|6|10,0:0|0:0|0:0,0:0:0:0:
49,170,72350,5,8,0:0:0:0:
270,339,72546,1,8,0:0:0:0:
170,42,72741,1,8,0:0:0:0:
306,235,72937,2,2,P|382:227|418:207,2,110,10|6|10,0:0|0:0|0:0,0:0:0:0:
48,167,73525,5,8,0:0:0:0:
306,45,73720,1,8,0:0:0:0:
212,273,73916,2,2,B|264:300|264:300|332:285,2,110,10|6|10,0:0|0:0|0:0,0:0:0:0:
429,66,74504,6,2,P|432:144|413:177,1,110,10|6,0:0|0:0,0:0:0:0:
389,270,74895,2,2,P|430:328|487:341,2,110,10|6|10,0:0|0:0|0:0,0:0:0:0:
385,62,75483,5,8,0:0:0:0:
247,315,75679,1,8,0:0:0:0:
61,76,75875,1,8,0:0:0:0:
232,150,76070,2,2,P|200:217|199:255,2,110,10|6|10,0:0|0:0|0:0,0:0:0:0:
363,275,76658,6,2,P|383:203|341:138,2,110,10|6|10,0:0|0:0|0:0,0:0:0:0:
92,54,77245,5,8,0:0:0:0:
186,259,77441,1,8,0:0:0:0:
317,53,77637,5,8,0:0:0:0:
60,206,77833,1,8,0:0:0:0:
326,156,78029,5,8,0:0:0:0:
53,122,78224,1,8,0:0:0:0:
284,285,78420,5,8,0:0:0:0:
123,49,78616,1,8,0:0:0:0:
70,321,78812,5,8,0:0:0:0:
252,56,79008,1,8,0:0:0:0:
250,269,79204,5,8,0:0:0:0:
275,250,79301,1,8,0:0:0:0:
288,220,79399,1,8,0:0:0:0:
290,189,79497,1,8,0:0:0:0:
278,159,79595,1,8,0:0:0:0:
254,137,79693,1,8,0:0:0:0:
224,126,79791,1,8,0:0:0:0:
192,128,79889,1,8,0:0:0:0:
165,144,79987,5,8,0:0:0:0:
148,171,80085,1,8,0:0:0:0:
143,203,80183,1,8,0:0:0:0:
150,234,80281,1,8,0:0:0:0:
169,259,80378,1,8,0:0:0:0:
198,274,80476,1,8,0:0:0:0:
225,278,80574,1,8,0:0:0:0:
251,272,80672,1,0,0:0:0:0:
273,262,80770,6,2,P|260:192|270:134,1,110,10|10,0:0|0:0,0:0:0:0:
172,106,81162,2,2,P|153:181|189:243,2,110,10|6|10,0:0|0:0|0:0,0:0:0:0:
312,334,81749,5,8,0:0:0:0:
404,51,81945,1,8,0:0:0:0:
174,261,82141,1,8,0:0:0:0:
462,183,82337,5,8,0:0:0:0:
224,51,82533,1,8,0:0:0:0:
442,329,82728,1,8,0:0:0:0:
311,42,82924,1,8,0:0:0:0:
152,207,83120,2,2,P|173:258|236:303,1,110,10|6,0:0|0:0,0:0:0:0:
305,97,83512,2,2,P|345:187|341:226,1,110,10|6,0:0|0:0,0:0:0:0:
82,49,83903,6,2,P|82:115|95:187,1,110,10|6,0:0|0:0,0:0:0:0:
299,77,84295,2,2,P|352:96|401:139,2,110,10|6|10,0:0|0:0|0:0,0:0:0:0:
57,320,84882,5,8,0:0:0:0:
178,51,85078,1,8,0:0:0:0:
199,333,85274,5,8,0:0:0:0:
51,74,85470,1,8,0:0:0:0:
275,59,85666,5,8,0:0:0:0:
57,226,85862,1,8,0:0:0:0:
383,227,86058,6,2,P|301:180|295:162,1,110,10|6,0:0|0:0,0:0:0:0:
269,41,86449,1,8,0:0:0:0:
164,205,86645,2,2,P|205:248|278:246,1,110,8|4,0:0|0:0,0:0:0:0:
387,315,87036,5,8,0:0:0:0:
97,122,87232,1,8,0:0:0:0:
241,332,87428,5,8,0:0:0:0:
209,42,87624,1,8,0:0:0:0:
372,90,87820,6,2,L|273:167,1,110,10|6,0:0|0:0,0:0:0:0:
79,327,88211,1,8,0:0:0:0:
96,64,88407,1,8,0:0:0:0:
336,259,88603,2,2,L|223:214,2,110,10|6|10,0:0|0:0|0:0,0:0:0:0:
99,164,89191,6,2,P|152:113|200:90,1,110,10|6,0:0|0:0,0:0:0:0:
317,55,89582,1,8,0:0:0:0:
144,181,89778,2,2,P|138:261|172:285,1,110,10|6,0:0|0:0,0:0:0:0:
238,325,90170,5,8,0:0:0:0:
386,107,90365,1,4,0:0:0:0:
160,326,90561,5,8,0:0:0:0:
322,72,90757,1,4,0:0:0:0:
86,325,90953,5,8,0:0:0:0:
263,36,91149,1,4,0:0:0:0:
238,338,91345,5,8,0:0:0:0:
123,66,91540,1,4,0:0:0:0:
329,315,91736,5,8,0:0:0:0:
65,133,91932,1,4,0:0:0:0:
313,60,92128,5,8,0:0:0:0:
358,90,92226,1,8,0:0:0:0:
387,137,92324,1,8,0:0:0:0:
395,191,92422,1,8,0:0:0:0:
382,244,92520,1,8,0:0:0:0:
349,287,92617,1,8,0:0:0:0:
302,314,92715,1,8,0:0:0:0:
247,320,92813,1,8,0:0:0:0:
203,310,92911,2,8,L|177:278,6,36.6666666666667
