osu file format v14

[General]
AudioFilename: Nthonius - Trapce.mp3
AudioLeadIn: 0
PreviewTime: -1
Countdown: 1
SampleSet: None
StackLeniency: 0.7
Mode: 0
LetterboxInBreaks: 0
WidescreenStoryboard: 0

[Editor]
DistanceSpacing: 0.8
BeatDivisor: 4
GridSize: 4
TimelineZoom: 1

[Metadata]
Title:Trape
TitleUnicode:Trape
Artist:Nthonious
ArtistUnicode:Nthonious
Creator:Viktor
Version:ez
Source:e
Tags:e
BeatmapID:791141
BeatmapSetID:359816

[Difficulty]
HPDrainRate:5
CircleSize:3
OverallDifficulty:5
ApproachRate:9
SliderMultiplier:1.4
SliderTickRate:1

[Events]
//Background and Video events
//Break Periods
//Storyboard Layer 0 (Background)
//Storyboard Layer 1 (Fail)
//Storyboard Layer 2 (Pass)
//Storyboard Layer 3 (Foreground)
//Storyboard Sound Samples

[TimingPoints]
4966.67832167832,419.58041958042,4,1,0,100,1,0

[HitObjects]
256,192,47344,12,0,48603,0:0:0:0:
216,160,48812,5,0,0:0:0:0:
220,336,49022,1,0,0:0:0:0:
332,296,49232,1,0,0:0:0:0:
404,212,49442,1,0,0:0:0:0:
404,112,49651,1,0,0:0:0:0:
368,96,49756,1,0,0:0:0:0:
336,80,49861,1,0,0:0:0:0:
240,60,50071,2,0,L|192:64,1,35
92,72,50281,5,0,0:0:0:0:
88,160,50491,1,0,0:0:0:0:
140,320,50700,1,0,0:0:0:0:
232,180,50910,1,0,0:0:0:0:
336,328,51120,1,0,0:0:0:0:
412,224,51330,1,0,0:0:0:0:
404,180,51435,1,0,0:0:0:0:
392,136,51540,1,0,0:0:0:0:
344,64,51749,1,0,0:0:0:0:
312,64,51854,5,0,0:0:0:0:
192,108,51959,1,0,0:0:0:0:
72,164,52169,1,0,0:0:0:0:
68,336,52379,5,0,0:0:0:0:
184,312,52589,1,0,0:0:0:0:
288,244,52798,1,0,0:0:0:0:
364,156,53008,2,0,L|352:96,2,35
408,272,53428,1,0,0:0:0:0:
396,316,53533,1,0,0:0:0:0:
232,304,53637,5,0,0:0:0:0:
196,276,53742,1,0,0:0:0:0:
164,240,53847,1,0,0:0:0:0:
116,124,54057,1,0,0:0:0:0:
232,116,54267,1,0,0:0:0:0:
288,128,54372,1,0,0:0:0:0:
336,152,54477,2,0,P|304:296|224:240,1,280
216,240,55526,5,0,0:0:0:0:
120,160,55735,1,0,0:0:0:0:
192,52,55945,1,0,0:0:0:0:
288,120,56155,1,0,0:0:0:0:
360,200,56365,2,0,L|384:236,2,35
280,224,56784,1,0,0:0:0:0:
240,240,56889,1,0,0:0:0:0:
136,260,56994,5,0,0:0:0:0:
92,180,57204,1,0,0:0:0:0:
140,72,57414,1,0,0:0:0:0:
272,96,57624,1,0,0:0:0:0:
428,336,57833,1,0,0:0:0:0:
208,332,58043,1,0,0:0:0:0:
164,308,58148,1,0,0:0:0:0:
124,280,58253,1,0,0:0:0:0:
120,176,58463,1,0,0:0:0:0:
136,136,58568,5,0,0:0:0:0:
208,64,58672,1,0,0:0:0:0:
416,64,58882,1,0,0:0:0:0:
316,328,59092,1,0,0:0:0:0:
100,112,59302,1,0,0:0:0:0:
436,228,59512,1,0,0:0:0:0:
340,264,59721,1,0,0:0:0:0:
300,276,59826,1,0,0:0:0:0:
256,288,59931,1,0,0:0:0:0:
152,304,60141,5,0,0:0:0:0:
124,260,60246,1,0,0:0:0:0:
104,164,60351,5,0,0:0:0:0:
116,120,60456,1,0,0:0:0:0:
128,88,60560,1,0,0:0:0:0:
148,60,60665,1,0,0:0:0:0:
176,40,60770,1,0,0:0:0:0:
204,28,60875,1,0,0:0:0:0:
240,28,60980,1,0,0:0:0:0:
272,32,61085,1,0,0:0:0:0:
300,48,61190,1,0,0:0:0:0:
372,192,61610,5,0,0:0:0:0:
