osu file format v14

[General]
AudioFilename: audio.mp3
AudioLeadIn: 0
PreviewTime: 201025
Countdown: 0
SampleSet: Soft
StackLeniency: 0.7
Mode: 3
LetterboxInBreaks: 0
SpecialStyle: 0
WidescreenStoryboard: 0

[Editor]
Bookmarks: 298,3207,9025,20661,26479,38116,49752,61388,73025,78843,84661,96298,107934,119570,131207,137025,148661,171934,177752,189388,195207,201025,212661,224298,235934,247570,259207
DistanceSpacing: 2
BeatDivisor: 6
GridSize: 32
TimelineZoom: 2.899999

[Metadata]
Title:Santa-chan's Winter Wonderland Adventure
TitleUnicode:Santa-chan's Winter Wonderland Adventure
Artist:Nstryder
ArtistUnicode:Nstryder
Creator:Ryax
Version:Kawaii Christmas
Source:
Tags:Electronic Instrumental Rock jrock j-rock dnb drum and bass piano Orchestral lightmusic DACHiTRAX Paraselene christmas holiday snow
BeatmapID:3756594
BeatmapSetID:1830347

[Difficulty]
HPDrainRate:8.6
CircleSize:4
OverallDifficulty:7.4
ApproachRate:5
SliderMultiplier:1.4
SliderTickRate:1

[Events]
//Background and Video events
0,0,"no_rear.jpg",0,0
//Break Periods
//Storyboard Layer 0 (Background)
//Storyboard Layer 1 (Fail)
//Storyboard Layer 2 (Pass)
//Storyboard Layer 3 (Foreground)
//Storyboard Layer 4 (Overlay)
//Storyboard Sound Samples

[TimingPoints]
298,363.636363636364,4,2,1,30,1,0
201025,-100,4,2,1,30,0,1
212298,-100,4,2,1,30,0,0
212661,-100,4,2,1,30,0,1
223934,-100,4,2,1,30,0,0
224298,-100,4,2,1,30,0,1
235570,-100,4,2,1,30,0,0
235934,-100,4,2,1,30,0,1
247570,-100,4,2,1,30,0,0

[HitObjects]
448,192,298,128,0,661:0:0:0:0:
192,192,298,1,0,0:0:0:0:
192,192,661,128,0,1025:0:0:0:0:
320,192,661,1,0,0:0:0:0:
320,192,1025,128,0,1388:0:0:0:0:
64,192,1025,1,0,0:0:0:0:
64,192,1388,128,0,1752:0:0:0:0:
448,192,1388,1,0,0:0:0:0:
448,192,1752,128,0,2116:0:0:0:0:
192,192,1752,1,0,0:0:0:0:
192,192,2116,128,0,2479:0:0:0:0:
320,192,2116,1,0,0:0:0:0:
320,192,2479,128,0,2843:0:0:0:0:
64,192,2479,1,0,0:0:0:0:
64,192,2843,128,0,3207:0:0:0:0:
448,192,2843,1,0,0:0:0:0:
448,192,3207,128,0,3388:0:0:0:0:
192,192,3207,128,0,3388:0:0:0:0:
320,192,3207,128,0,3570:0:0:0:0:
448,192,3570,128,0,3873:0:0:0:0:
192,192,3570,128,0,3691:0:0:0:0:
320,192,3691,128,0,3873:0:0:0:0:
192,192,3813,128,0,3873:0:0:0:0:
64,192,3813,128,0,3873:0:0:0:0:
64,192,3934,128,0,4116:0:0:0:0:
320,192,3934,128,0,4116:0:0:0:0:
448,192,3934,128,0,4298:0:0:0:0:
320,192,4298,128,0,4419:0:0:0:0:
64,192,4298,128,0,4601:0:0:0:0:
192,192,4419,128,0,4601:0:0:0:0:
320,192,4540,128,0,4601:0:0:0:0:
448,192,4540,128,0,4601:0:0:0:0:
64,192,4661,128,0,4934:0:0:0:0:
192,192,4661,128,0,4843:0:0:0:0:
448,192,4661,128,0,4843:0:0:0:0:
448,192,4934,128,0,5025:0:0:0:0:
320,192,4979,128,0,5070:0:0:0:0:
64,192,5025,128,0,5328:0:0:0:0:
192,192,5025,128,0,5146:0:0:0:0:
320,192,5146,128,0,5328:0:0:0:0:
192,192,5267,128,0,5328:0:0:0:0:
448,192,5267,128,0,5328:0:0:0:0:
448,192,5388,128,0,5631:0:0:0:0:
64,192,5388,128,0,5510:0:0:0:0:
320,192,5388,128,0,5510:0:0:0:0:
192,192,5510,128,0,5631:0:0:0:0:
320,192,5631,128,0,5752:0:0:0:0:
64,192,5752,128,0,5994:0:0:0:0:
192,192,5752,128,0,5873:0:0:0:0:
448,192,5752,128,0,5873:0:0:0:0:
320,192,5873,128,0,5994:0:0:0:0:
192,192,5994,128,0,6116:0:0:0:0:
448,192,6116,128,0,6298:0:0:0:0:
64,192,6116,128,0,6298:0:0:0:0:
320,192,6116,128,0,6479:0:0:0:0:
64,192,6479,128,0,6782:0:0:0:0:
448,192,6479,128,0,6601:0:0:0:0:
320,192,6601,128,0,6782:0:0:0:0:
192,192,6722,128,0,6782:0:0:0:0:
448,192,6722,128,0,6782:0:0:0:0:
320,192,6843,128,0,7025:0:0:0:0:
192,192,6843,128,0,7025:0:0:0:0:
64,192,6843,128,0,7207:0:0:0:0:
192,192,7207,128,0,7510:0:0:0:0:
320,192,7207,128,0,7328:0:0:0:0:
448,192,7328,128,0,7510:0:0:0:0:
320,192,7449,128,0,7510:0:0:0:0:
64,192,7449,128,0,7510:0:0:0:0:
320,192,7570,128,0,7752:0:0:0:0:
448,192,7570,128,0,7843:0:0:0:0:
192,192,7570,128,0,7752:0:0:0:0:
64,192,7843,128,0,7934:0:0:0:0:
192,192,7888,128,0,7979:0:0:0:0:
320,192,7934,128,0,8055:0:0:0:0:
448,192,7934,128,0,8237:0:0:0:0:
64,192,8055,128,0,8237:0:0:0:0:
192,192,8176,128,0,8237:0:0:0:0:
320,192,8176,128,0,8237:0:0:0:0:
192,192,8298,128,0,8479:0:0:0:0:
448,192,8298,128,0,8479:0:0:0:0:
64,192,8298,128,0,8388:0:0:0:0:
64,192,8479,128,0,8661:0:0:0:0:
320,192,8479,128,0,8570:0:0:0:0:
448,192,8661,128,0,8843:0:0:0:0:
320,192,8661,128,0,8843:0:0:0:0:
192,192,8661,128,0,8752:0:0:0:0:
192,192,8843,128,0,9025:0:0:0:0:
64,192,8843,128,0,8934:0:0:0:0:
448,192,9025,128,0,9388:0:0:0:0:
320,192,9025,128,0,9207:0:0:0:0:
64,192,9025,128,0,9207:0:0:0:0:
320,192,9388,128,0,9570:0:0:0:0:
192,192,9388,128,0,9570:0:0:0:0:
64,192,9570,128,0,9752:0:0:0:0:
448,192,9570,1,0,0:0:0:0:
192,192,9661,128,0,9843:0:0:0:0:
320,192,9752,128,0,9934:0:0:0:0:
448,192,9843,128,0,10025:0:0:0:0:
192,192,9934,128,0,10116:0:0:0:0:
64,192,10025,128,0,10207:0:0:0:0:
448,192,10116,1,0,0:0:0:0:
320,192,10116,128,0,10298:0:0:0:0:
192,192,10207,128,0,10388:0:0:0:0:
448,192,10298,128,0,10388:0:0:0:0:
320,192,10388,128,0,10479:0:0:0:0:
64,192,10479,128,0,10843:0:0:0:0:
448,192,10479,128,0,10661:0:0:0:0:
192,192,10479,128,0,10661:0:0:0:0:
192,192,10843,128,0,11025:0:0:0:0:
320,192,10843,128,0,11025:0:0:0:0:
448,192,11025,128,0,11207:0:0:0:0:
64,192,11025,1,0,0:0:0:0:
320,192,11116,128,0,11298:0:0:0:0:
192,192,11207,128,0,11388:0:0:0:0:
64,192,11298,128,0,11479:0:0:0:0:
320,192,11388,128,0,11570:0:0:0:0:
448,192,11479,128,0,11661:0:0:0:0:
64,192,11570,1,0,0:0:0:0:
192,192,11570,128,0,11752:0:0:0:0:
320,192,11661,128,0,11843:0:0:0:0:
64,192,11752,128,0,11843:0:0:0:0:
192,192,11843,128,0,11934:0:0:0:0:
320,192,11934,128,0,12116:0:0:0:0:
448,192,11934,128,0,12116:0:0:0:0:
64,192,11934,128,0,12298:0:0:0:0:
192,192,12298,128,0,12479:0:0:0:0:
320,192,12388,128,0,12570:0:0:0:0:
448,192,12479,128,0,12661:0:0:0:0:
64,192,12479,1,0,0:0:0:0:
192,192,12570,128,0,12752:0:0:0:0:
64,192,12661,128,0,12843:0:0:0:0:
448,192,12752,128,0,12934:0:0:0:0:
320,192,12843,128,0,13025:0:0:0:0:
192,192,12934,128,0,13116:0:0:0:0:
448,192,13025,1,0,0:0:0:0:
64,192,13025,128,0,13207:0:0:0:0:
320,192,13116,128,0,13298:0:0:0:0:
192,192,13207,128,0,13388:0:0:0:0:
448,192,13388,128,0,13570:0:0:0:0:
64,192,13388,128,0,13570:0:0:0:0:
320,192,13388,128,0,13752:0:0:0:0:
192,192,13570,128,0,13752:0:0:0:0:
64,192,13661,128,0,13752:0:0:0:0:
448,192,13752,128,0,13934:0:0:0:0:
320,192,13843,128,0,14025:0:0:0:0:
64,192,13934,1,0,0:0:0:0:
192,192,13934,128,0,14025:0:0:0:0:
448,192,14025,128,0,14116:0:0:0:0:
320,192,14116,128,0,14176:0:0:0:0:
192,192,14116,128,0,14176:0:0:0:0:
64,192,14116,128,0,14176:0:0:0:0:
320,192,14237,128,0,14298:0:0:0:0:
192,192,14237,128,0,14298:0:0:0:0:
64,192,14358,128,0,14419:0:0:0:0:
448,192,14358,128,0,14419:0:0:0:0:
448,192,14479,128,0,14540:0:0:0:0:
320,192,14479,128,0,14540:0:0:0:0:
320,192,14601,128,0,14661:0:0:0:0:
192,192,14601,128,0,14661:0:0:0:0:
192,192,14722,128,0,14782:0:0:0:0:
64,192,14722,128,0,14782:0:0:0:0:
448,192,14843,128,0,15025:0:0:0:0:
64,192,14843,128,0,15207:0:0:0:0:
320,192,14843,128,0,15025:0:0:0:0:
192,192,15025,128,0,15207:0:0:0:0:
320,192,15116,128,0,15298:0:0:0:0:
448,192,15207,128,0,15388:0:0:0:0:
64,192,15388,128,0,15570:0:0:0:0:
320,192,15388,1,0,0:0:0:0:
192,192,15479,128,0,15661:0:0:0:0:
320,192,15570,128,0,15752:0:0:0:0:
448,192,15661,128,0,15843:0:0:0:0:
64,192,15752,128,0,15934:0:0:0:0:
320,192,15843,128,0,16025:0:0:0:0:
448,192,15934,1,0,0:0:0:0:
192,192,15934,128,0,16116:0:0:0:0:
64,192,16025,128,0,16207:0:0:0:0:
448,192,16116,128,0,16207:0:0:0:0:
320,192,16207,128,0,16298:0:0:0:0:
192,192,16298,128,0,16661:0:0:0:0:
64,192,16298,128,0,16479:0:0:0:0:
448,192,16298,128,0,16388:0:0:0:0:
448,192,16479,128,0,16661:0:0:0:0:
64,192,16661,128,0,16843:0:0:0:0:
192,192,16752,128,0,16934:0:0:0:0:
320,192,16843,128,0,17025:0:0:0:0:
448,192,16843,1,0,0:0:0:0:
64,192,16934,128,0,17116:0:0:0:0:
448,192,17025,128,0,17207:0:0:0:0:
320,192,17116,128,0,17298:0:0:0:0:
192,192,17207,128,0,17388:0:0:0:0:
64,192,17298,128,0,17479:0:0:0:0:
320,192,17388,1,0,0:0:0:0:
448,192,17388,128,0,17570:0:0:0:0:
192,192,17479,128,0,17661:0:0:0:0:
64,192,17570,128,0,17661:0:0:0:0:
320,192,17661,128,0,17752:0:0:0:0:
192,192,17752,128,0,17934:0:0:0:0:
64,192,17752,128,0,17934:0:0:0:0:
448,192,17752,128,0,18116:0:0:0:0:
64,192,18116,128,0,18298:0:0:0:0:
192,192,18207,128,0,18388:0:0:0:0:
448,192,18298,1,0,0:0:0:0:
320,192,18298,128,0,18479:0:0:0:0:
64,192,18388,128,0,18570:0:0:0:0:
448,192,18479,128,0,18570:0:0:0:0:
192,192,18570,128,0,18752:0:0:0:0:
320,192,18661,128,0,18843:0:0:0:0:
448,192,18752,128,0,18934:0:0:0:0:
64,192,18843,1,0,0:0:0:0:
192,192,18843,128,0,19025:0:0:0:0:
320,192,18934,128,0,19116:0:0:0:0:
64,192,19025,128,0,19116:0:0:0:0:
448,192,19116,128,0,19207:0:0:0:0:
320,192,19207,128,0,19388:0:0:0:0:
64,192,19207,128,0,19388:0:0:0:0:
192,192,19207,128,0,19388:0:0:0:0:
448,192,19388,128,0,19570:0:0:0:0:
192,192,19570,128,0,19752:0:0:0:0:
64,192,19752,128,0,19934:0:0:0:0:
320,192,19752,1,0,0:0:0:0:
448,192,19934,128,0,20116:0:0:0:0:
320,192,20116,128,0,20298:0:0:0:0:
192,192,20298,128,0,20479:0:0:0:0:
448,192,20298,1,0,0:0:0:0:
64,192,20479,128,0,20661:0:0:0:0:
448,192,20661,128,0,21025:0:0:0:0:
320,192,20661,128,0,20843:0:0:0:0:
192,192,20661,128,0,20843:0:0:0:0:
192,192,21025,128,0,21388:0:0:0:0:
320,192,21388,128,0,21752:0:0:0:0:
64,192,21752,128,0,22116:0:0:0:0:
448,192,22116,128,0,22479:0:0:0:0:
192,192,22479,128,0,22843:0:0:0:0:
320,192,22843,128,0,23207:0:0:0:0:
64,192,23207,128,0,23570:0:0:0:0:
448,192,23570,128,0,23934:0:0:0:0:
192,192,23570,1,0,0:0:0:0:
192,192,23934,128,0,24298:0:0:0:0:
320,192,23934,1,0,0:0:0:0:
320,192,24298,128,0,24661:0:0:0:0:
64,192,24298,1,0,0:0:0:0:
64,192,24661,128,0,25025:0:0:0:0:
448,192,24661,1,0,0:0:0:0:
320,192,25025,128,0,25207:0:0:0:0:
192,192,25025,1,0,0:0:0:0:
448,192,25055,128,0,25207:0:0:0:0:
64,192,25207,1,0,0:0:0:0:
448,192,25388,1,0,0:0:0:0:
192,192,25388,1,0,0:0:0:0:
320,192,25388,1,0,0:0:0:0:
192,192,25570,128,0,25752:0:0:0:0:
320,192,25570,1,0,0:0:0:0:
64,192,25601,128,0,25752:0:0:0:0:
448,192,25752,1,0,0:0:0:0:
320,192,25934,1,0,0:0:0:0:
64,192,25934,1,0,0:0:0:0:
192,192,25934,1,0,0:0:0:0:
192,192,26116,1,0,0:0:0:0:
320,192,26207,1,0,0:0:0:0:
448,192,26207,1,0,0:0:0:0:
192,192,26298,1,0,0:0:0:0:
320,192,26388,1,0,0:0:0:0:
448,192,26388,1,0,0:0:0:0:
192,192,26479,128,0,26570:0:0:0:0:
448,192,26479,128,0,26570:0:0:0:0:
64,192,26479,128,0,26570:0:0:0:0:
64,192,26661,1,0,0:0:0:0:
192,192,26843,1,0,0:0:0:0:
320,192,26843,1,0,0:0:0:0:
448,192,26843,1,0,0:0:0:0:
192,192,27025,1,0,0:0:0:0:
64,192,27025,1,0,0:0:0:0:
320,192,27207,1,0,0:0:0:0:
64,192,27388,1,0,0:0:0:0:
192,192,27388,1,0,0:0:0:0:
448,192,27388,1,0,0:0:0:0:
320,192,27570,1,0,0:0:0:0:
448,192,27661,1,0,0:0:0:0:
64,192,27661,1,0,0:0:0:0:
320,192,27752,1,0,0:0:0:0:
64,192,27843,1,0,0:0:0:0:
448,192,27843,1,0,0:0:0:0:
192,192,27934,1,0,0:0:0:0:
448,192,28025,1,0,0:0:0:0:
192,192,28116,1,0,0:0:0:0:
320,192,28116,1,0,0:0:0:0:
448,192,28298,1,0,0:0:0:0:
320,192,28298,1,0,0:0:0:0:
64,192,28298,1,0,0:0:0:0:
192,192,28479,1,0,0:0:0:0:
64,192,28479,1,0,0:0:0:0:
320,192,28661,1,0,0:0:0:0:
448,192,28843,1,0,0:0:0:0:
192,192,28843,1,0,0:0:0:0:
64,192,28843,1,0,0:0:0:0:
320,192,29025,1,0,0:0:0:0:
192,192,29116,1,0,0:0:0:0:
64,192,29116,1,0,0:0:0:0:
320,192,29207,1,0,0:0:0:0:
192,192,29298,1,0,0:0:0:0:
64,192,29298,1,0,0:0:0:0:
320,192,29388,128,0,29479:0:0:0:0:
64,192,29388,128,0,29479:0:0:0:0:
448,192,29388,128,0,29479:0:0:0:0:
448,192,29570,1,0,0:0:0:0:
320,192,29752,1,0,0:0:0:0:
192,192,29752,1,0,0:0:0:0:
64,192,29752,1,0,0:0:0:0:
320,192,29934,1,0,0:0:0:0:
448,192,29934,1,0,0:0:0:0:
192,192,30116,1,0,0:0:0:0:
448,192,30298,1,0,0:0:0:0:
320,192,30298,1,0,0:0:0:0:
64,192,30298,1,0,0:0:0:0:
192,192,30479,1,0,0:0:0:0:
64,192,30570,1,0,0:0:0:0:
448,192,30570,1,0,0:0:0:0:
192,192,30661,1,0,0:0:0:0:
448,192,30752,1,0,0:0:0:0:
64,192,30752,1,0,0:0:0:0:
320,192,30843,1,0,0:0:0:0:
64,192,30934,1,0,0:0:0:0:
320,192,31025,1,0,0:0:0:0:
192,192,31025,1,0,0:0:0:0:
64,192,31207,1,0,0:0:0:0:
192,192,31207,1,0,0:0:0:0:
448,192,31207,1,0,0:0:0:0:
320,192,31388,1,0,0:0:0:0:
448,192,31388,1,0,0:0:0:0:
192,192,31570,1,0,0:0:0:0:
64,192,31752,1,0,0:0:0:0:
320,192,31752,1,0,0:0:0:0:
448,192,31752,1,0,0:0:0:0:
192,192,31934,1,0,0:0:0:0:
320,192,32025,1,0,0:0:0:0:
448,192,32025,1,0,0:0:0:0:
192,192,32116,1,0,0:0:0:0:
320,192,32207,1,0,0:0:0:0:
448,192,32207,1,0,0:0:0:0:
192,192,32298,128,0,32388:0:0:0:0:
448,192,32298,128,0,32388:0:0:0:0:
64,192,32298,128,0,32388:0:0:0:0:
64,192,32479,1,0,0:0:0:0:
192,192,32661,1,0,0:0:0:0:
320,192,32661,1,0,0:0:0:0:
448,192,32661,1,0,0:0:0:0:
192,192,32843,1,0,0:0:0:0:
64,192,32843,1,0,0:0:0:0:
320,192,33025,1,0,0:0:0:0:
64,192,33207,1,0,0:0:0:0:
192,192,33207,1,0,0:0:0:0:
448,192,33207,1,0,0:0:0:0:
320,192,33388,1,0,0:0:0:0:
448,192,33479,1,0,0:0:0:0:
64,192,33479,1,0,0:0:0:0:
320,192,33570,1,0,0:0:0:0:
64,192,33661,1,0,0:0:0:0:
448,192,33661,1,0,0:0:0:0:
192,192,33752,1,0,0:0:0:0:
448,192,33843,1,0,0:0:0:0:
192,192,33934,1,0,0:0:0:0:
320,192,33934,1,0,0:0:0:0:
448,192,34116,1,0,0:0:0:0:
320,192,34116,1,0,0:0:0:0:
64,192,34116,1,0,0:0:0:0:
192,192,34298,1,0,0:0:0:0:
64,192,34298,1,0,0:0:0:0:
320,192,34479,128,0,34570:0:0:0:0:
448,192,34479,128,0,34570:0:0:0:0:
192,192,34479,128,0,34570:0:0:0:0:
448,192,34661,1,0,0:0:0:0:
192,192,34661,1,0,0:0:0:0:
64,192,34661,1,0,0:0:0:0:
320,192,34843,1,0,0:0:0:0:
192,192,34934,1,0,0:0:0:0:
64,192,34934,1,0,0:0:0:0:
320,192,35025,1,0,0:0:0:0:
192,192,35116,1,0,0:0:0:0:
64,192,35116,1,0,0:0:0:0:
320,192,35207,128,0,35298:0:0:0:0:
64,192,35207,128,0,35298:0:0:0:0:
448,192,35207,128,0,35298:0:0:0:0:
448,192,35388,1,0,0:0:0:0:
320,192,35570,1,0,0:0:0:0:
192,192,35570,1,0,0:0:0:0:
64,192,35570,1,0,0:0:0:0:
320,192,35752,1,0,0:0:0:0:
448,192,35752,1,0,0:0:0:0:
192,192,35934,1,0,0:0:0:0:
448,192,36116,1,0,0:0:0:0:
320,192,36116,1,0,0:0:0:0:
64,192,36116,1,0,0:0:0:0:
192,192,36298,1,0,0:0:0:0:
64,192,36388,1,0,0:0:0:0:
448,192,36388,1,0,0:0:0:0:
192,192,36479,1,0,0:0:0:0:
448,192,36570,1,0,0:0:0:0:
64,192,36570,1,0,0:0:0:0:
320,192,36661,1,0,0:0:0:0:
64,192,36752,1,0,0:0:0:0:
320,192,36843,1,0,0:0:0:0:
192,192,36843,1,0,0:0:0:0:
64,192,37025,1,0,0:0:0:0:
192,192,37025,1,0,0:0:0:0:
448,192,37025,1,0,0:0:0:0:
320,192,37207,1,0,0:0:0:0:
448,192,37207,1,0,0:0:0:0:
192,192,37388,1,0,0:0:0:0:
64,192,37570,1,0,0:0:0:0:
320,192,37570,1,0,0:0:0:0:
448,192,37570,1,0,0:0:0:0:
192,192,37752,1,0,0:0:0:0:
320,192,37843,1,0,0:0:0:0:
448,192,37843,1,0,0:0:0:0:
192,192,37934,1,0,0:0:0:0:
320,192,38025,1,0,0:0:0:0:
448,192,38025,1,0,0:0:0:0:
192,192,38116,128,0,38207:0:0:0:0:
448,192,38116,128,0,38207:0:0:0:0:
64,192,38116,128,0,38207:0:0:0:0:
64,192,38298,1,0,0:0:0:0:
64,192,38388,1,0,0:0:0:0:
192,192,38479,1,0,0:0:0:0:
320,192,38479,1,0,0:0:0:0:
448,192,38479,1,0,0:0:0:0:
320,192,38661,1,0,0:0:0:0:
64,192,38661,1,0,0:0:0:0:
192,192,38843,1,0,0:0:0:0:
320,192,38934,1,0,0:0:0:0:
64,192,39025,1,0,0:0:0:0:
192,192,39025,1,0,0:0:0:0:
448,192,39025,1,0,0:0:0:0:
320,192,39116,1,0,0:0:0:0:
64,192,39207,1,0,0:0:0:0:
448,192,39298,1,0,0:0:0:0:
192,192,39298,1,0,0:0:0:0:
320,192,39388,1,0,0:0:0:0:
448,192,39479,1,0,0:0:0:0:
64,192,39479,1,0,0:0:0:0:
320,192,39570,1,0,0:0:0:0:
64,192,39661,1,0,0:0:0:0:
192,192,39752,1,0,0:0:0:0:
320,192,39752,1,0,0:0:0:0:
192,192,39843,1,0,0:0:0:0:
448,192,39934,1,0,0:0:0:0:
320,192,39934,1,0,0:0:0:0:
64,192,39934,1,0,0:0:0:0:
448,192,40116,1,0,0:0:0:0:
192,192,40116,1,0,0:0:0:0:
64,192,40298,1,0,0:0:0:0:
192,192,40388,1,0,0:0:0:0:
448,192,40479,1,0,0:0:0:0:
320,192,40479,1,0,0:0:0:0:
64,192,40479,1,0,0:0:0:0:
192,192,40570,1,0,0:0:0:0:
448,192,40661,1,0,0:0:0:0:
192,192,40752,1,0,0:0:0:0:
64,192,40752,1,0,0:0:0:0:
320,192,40843,1,0,0:0:0:0:
192,192,40934,1,0,0:0:0:0:
64,192,40934,1,0,0:0:0:0:
320,192,41025,128,0,41116:0:0:0:0:
64,192,41025,128,0,41116:0:0:0:0:
448,192,41025,128,0,41116:0:0:0:0:
320,192,41207,1,0,0:0:0:0:
320,192,41298,1,0,0:0:0:0:
448,192,41388,1,0,0:0:0:0:
192,192,41388,1,0,0:0:0:0:
64,192,41388,1,0,0:0:0:0:
320,192,41570,1,0,0:0:0:0:
448,192,41570,1,0,0:0:0:0:
64,192,41752,1,0,0:0:0:0:
192,192,41843,1,0,0:0:0:0:
448,192,41934,1,0,0:0:0:0:
320,192,41934,1,0,0:0:0:0:
64,192,41934,1,0,0:0:0:0:
192,192,42025,1,0,0:0:0:0:
448,192,42116,1,0,0:0:0:0:
64,192,42207,1,0,0:0:0:0:
320,192,42207,1,0,0:0:0:0:
192,192,42298,1,0,0:0:0:0:
320,192,42388,1,0,0:0:0:0:
448,192,42388,1,0,0:0:0:0:
64,192,42479,1,0,0:0:0:0:
192,192,42570,1,0,0:0:0:0:
448,192,42661,1,0,0:0:0:0:
64,192,42661,1,0,0:0:0:0:
448,192,42752,1,0,0:0:0:0:
64,192,42843,1,0,0:0:0:0:
192,192,42843,1,0,0:0:0:0:
320,192,42843,1,0,0:0:0:0:
448,192,42934,1,0,0:0:0:0:
320,192,42979,1,0,0:0:0:0:
64,192,43025,1,0,0:0:0:0:
192,192,43025,1,0,0:0:0:0:
320,192,43207,1,0,0:0:0:0:
448,192,43298,1,0,0:0:0:0:
64,192,43388,1,0,0:0:0:0:
192,192,43388,1,0,0:0:0:0:
320,192,43388,1,0,0:0:0:0:
448,192,43479,1,0,0:0:0:0:
192,192,43570,1,0,0:0:0:0:
64,192,43616,1,0,0:0:0:0:
320,192,43661,1,0,0:0:0:0:
448,192,43661,1,0,0:0:0:0:
192,192,43752,1,0,0:0:0:0:
320,192,43843,1,0,0:0:0:0:
448,192,43843,1,0,0:0:0:0:
192,192,43934,128,0,44025:0:0:0:0:
448,192,43934,128,0,44025:0:0:0:0:
64,192,43934,128,0,44025:0:0:0:0:
320,192,44116,1,0,0:0:0:0:
320,192,44207,1,0,0:0:0:0:
192,192,44298,1,0,0:0:0:0:
64,192,44298,1,0,0:0:0:0:
448,192,44298,1,0,0:0:0:0:
320,192,44479,1,0,0:0:0:0:
64,192,44479,1,0,0:0:0:0:
448,192,44661,1,0,0:0:0:0:
320,192,44752,1,0,0:0:0:0:
64,192,44843,1,0,0:0:0:0:
192,192,44843,1,0,0:0:0:0:
448,192,44843,1,0,0:0:0:0:
320,192,44934,1,0,0:0:0:0:
64,192,45025,1,0,0:0:0:0:
448,192,45116,1,0,0:0:0:0:
192,192,45116,1,0,0:0:0:0:
320,192,45207,1,0,0:0:0:0:
448,192,45298,1,0,0:0:0:0:
64,192,45298,1,0,0:0:0:0:
192,192,45388,1,0,0:0:0:0:
448,192,45479,1,0,0:0:0:0:
192,192,45570,1,0,0:0:0:0:
320,192,45570,1,0,0:0:0:0:
192,192,45661,1,0,0:0:0:0:
448,192,45752,1,0,0:0:0:0:
320,192,45752,1,0,0:0:0:0:
64,192,45752,1,0,0:0:0:0:
448,192,45934,1,0,0:0:0:0:
192,192,45934,1,0,0:0:0:0:
320,192,46025,1,0,0:0:0:0:
64,192,46116,1,0,0:0:0:0:
320,192,46207,1,0,0:0:0:0:
448,192,46298,1,0,0:0:0:0:
192,192,46298,1,0,0:0:0:0:
64,192,46298,1,0,0:0:0:0:
320,192,46388,1,0,0:0:0:0:
448,192,46479,1,0,0:0:0:0:
192,192,46570,1,0,0:0:0:0:
64,192,46570,1,0,0:0:0:0:
320,192,46661,1,0,0:0:0:0:
192,192,46752,1,0,0:0:0:0:
64,192,46752,1,0,0:0:0:0:
320,192,46843,128,0,46934:0:0:0:0:
64,192,46843,128,0,46934:0:0:0:0:
448,192,46843,128,0,47207:0:0:0:0:
192,192,47025,1,0,0:0:0:0:
320,192,47207,1,0,0:0:0:0:
192,192,47207,1,0,0:0:0:0:
64,192,47207,1,0,0:0:0:0:
64,192,47388,1,0,0:0:0:0:
320,192,47388,128,0,47479:0:0:0:0:
448,192,47479,128,0,47570:0:0:0:0:
192,192,47570,128,0,47661:0:0:0:0:
320,192,47661,128,0,47752:0:0:0:0:
192,192,47752,1,0,0:0:0:0:
448,192,47752,1,0,0:0:0:0:
64,192,47752,128,0,47843:0:0:0:0:
320,192,47843,128,0,47934:0:0:0:0:
448,192,47934,128,0,48025:0:0:0:0:
192,192,48025,1,0,0:0:0:0:
64,192,48025,128,0,48116:0:0:0:0:
448,192,48116,128,0,48207:0:0:0:0:
64,192,48207,1,0,0:0:0:0:
320,192,48207,128,0,48298:0:0:0:0:
192,192,48298,128,0,48479:0:0:0:0:
448,192,48298,1,0,0:0:0:0:
64,192,48328,128,0,48479:0:0:0:0:
320,192,48479,1,0,0:0:0:0:
64,192,48661,1,0,0:0:0:0:
192,192,48661,1,0,0:0:0:0:
448,192,48661,1,0,0:0:0:0:
320,192,48843,128,0,49025:0:0:0:0:
64,192,48843,1,0,0:0:0:0:
448,192,48873,128,0,49025:0:0:0:0:
192,192,49025,1,0,0:0:0:0:
64,192,49207,1,0,0:0:0:0:
448,192,49207,1,0,0:0:0:0:
320,192,49207,1,0,0:0:0:0:
192,192,49388,1,0,0:0:0:0:
64,192,49388,1,0,0:0:0:0:
448,192,49479,1,0,0:0:0:0:
320,192,49479,1,0,0:0:0:0:
64,192,49570,1,0,0:0:0:0:
192,192,49570,1,0,0:0:0:0:
448,192,49661,1,0,0:0:0:0:
320,192,49661,1,0,0:0:0:0:
64,192,49752,128,0,49934:0:0:0:0:
448,192,49752,1,0,0:0:0:0:
192,192,49752,128,0,49934:0:0:0:0:
448,192,49934,1,0,0:0:0:0:
320,192,49934,1,0,0:0:0:0:
64,192,50116,1,0,0:0:0:0:
320,192,50116,1,0,0:0:0:0:
320,192,50298,128,0,50479:0:0:0:0:
192,192,50298,128,0,50479:0:0:0:0:
448,192,50388,1,0,0:0:0:0:
64,192,50479,1,0,0:0:0:0:
448,192,50570,1,0,0:0:0:0:
192,192,50661,1,0,0:0:0:0:
64,192,50661,1,0,0:0:0:0:
192,192,50843,128,0,51025:0:0:0:0:
448,192,50843,128,0,51025:0:0:0:0:
320,192,51025,1,0,0:0:0:0:
64,192,51116,1,0,0:0:0:0:
320,192,51207,1,0,0:0:0:0:
448,192,51388,128,0,51570:0:0:0:0:
320,192,51388,128,0,51570:0:0:0:0:
192,192,51570,1,0,0:0:0:0:
64,192,51570,1,0,0:0:0:0:
64,192,51752,1,0,0:0:0:0:
192,192,51843,1,0,0:0:0:0:
448,192,51934,128,0,52116:0:0:0:0:
320,192,51934,128,0,52025:0:0:0:0:
192,192,52025,1,0,0:0:0:0:
320,192,52116,1,0,0:0:0:0:
64,192,52116,1,0,0:0:0:0:
64,192,52298,128,0,52479:0:0:0:0:
320,192,52298,128,0,52388:0:0:0:0:
192,192,52388,1,0,0:0:0:0:
320,192,52479,1,0,0:0:0:0:
192,192,52570,1,0,0:0:0:0:
320,192,52661,128,0,52843:0:0:0:0:
448,192,52661,128,0,52843:0:0:0:0:
64,192,52843,1,0,0:0:0:0:
192,192,52843,1,0,0:0:0:0:
448,192,53025,1,0,0:0:0:0:
64,192,53025,1,0,0:0:0:0:
192,192,53207,128,0,53388:0:0:0:0:
320,192,53207,128,0,53388:0:0:0:0:
64,192,53298,1,0,0:0:0:0:
448,192,53388,1,0,0:0:0:0:
64,192,53479,1,0,0:0:0:0:
320,192,53570,1,0,0:0:0:0:
448,192,53570,1,0,0:0:0:0:
320,192,53752,128,0,53934:0:0:0:0:
64,192,53752,128,0,53934:0:0:0:0:
192,192,53934,1,0,0:0:0:0:
448,192,54025,1,0,0:0:0:0:
192,192,54116,1,0,0:0:0:0:
448,192,54298,128,0,54479:0:0:0:0:
64,192,54298,128,0,54479:0:0:0:0:
192,192,54479,1,0,0:0:0:0:
320,192,54479,1,0,0:0:0:0:
448,192,54661,1,0,0:0:0:0:
320,192,54752,1,0,0:0:0:0:
64,192,54843,128,0,55025:0:0:0:0:
192,192,54843,128,0,54934:0:0:0:0:
320,192,54934,1,0,0:0:0:0:
192,192,55025,1,0,0:0:0:0:
448,192,55025,1,0,0:0:0:0:
448,192,55207,128,0,55388:0:0:0:0:
192,192,55207,128,0,55298:0:0:0:0:
320,192,55298,1,0,0:0:0:0:
64,192,55388,1,0,0:0:0:0:
192,192,55479,1,0,0:0:0:0:
320,192,55570,128,0,55752:0:0:0:0:
448,192,55570,128,0,55752:0:0:0:0:
192,192,55752,1,0,0:0:0:0:
64,192,55752,1,0,0:0:0:0:
192,192,55934,1,0,0:0:0:0:
448,192,55934,1,0,0:0:0:0:
64,192,56116,128,0,56298:0:0:0:0:
448,192,56116,128,0,56298:0:0:0:0:
192,192,56207,1,0,0:0:0:0:
320,192,56298,1,0,0:0:0:0:
192,192,56388,1,0,0:0:0:0:
448,192,56479,1,0,0:0:0:0:
320,192,56479,1,0,0:0:0:0:
192,192,56661,128,0,56843:0:0:0:0:
448,192,56661,128,0,56843:0:0:0:0:
64,192,56843,1,0,0:0:0:0:
320,192,56934,1,0,0:0:0:0:
64,192,57025,1,0,0:0:0:0:
192,192,57207,128,0,57388:0:0:0:0:
64,192,57207,128,0,57388:0:0:0:0:
448,192,57388,1,0,0:0:0:0:
320,192,57388,1,0,0:0:0:0:
320,192,57570,1,0,0:0:0:0:
448,192,57661,1,0,0:0:0:0:
192,192,57752,128,0,57934:0:0:0:0:
64,192,57752,128,0,57843:0:0:0:0:
448,192,57843,1,0,0:0:0:0:
64,192,57934,1,0,0:0:0:0:
320,192,57934,1,0,0:0:0:0:
64,192,58116,128,0,58207:0:0:0:0:
320,192,58116,128,0,58298:0:0:0:0:
448,192,58207,1,0,0:0:0:0:
64,192,58298,1,0,0:0:0:0:
448,192,58388,1,0,0:0:0:0:
64,192,58479,128,0,58661:0:0:0:0:
192,192,58479,128,0,58661:0:0:0:0:
320,192,58661,1,0,0:0:0:0:
448,192,58661,1,0,0:0:0:0:
192,192,58843,1,0,0:0:0:0:
320,192,58843,1,0,0:0:0:0:
64,192,59025,128,0,59207:0:0:0:0:
448,192,59025,128,0,59207:0:0:0:0:
320,192,59116,1,0,0:0:0:0:
192,192,59207,1,0,0:0:0:0:
320,192,59298,1,0,0:0:0:0:
64,192,59388,1,0,0:0:0:0:
192,192,59388,1,0,0:0:0:0:
64,192,59570,128,0,59752:0:0:0:0:
320,192,59570,128,0,59752:0:0:0:0:
448,192,59752,1,0,0:0:0:0:
192,192,59843,1,0,0:0:0:0:
448,192,59934,1,0,0:0:0:0:
192,192,60116,128,0,60298:0:0:0:0:
320,192,60116,128,0,60298:0:0:0:0:
64,192,60298,1,0,0:0:0:0:
448,192,60298,1,0,0:0:0:0:
192,192,60479,1,0,0:0:0:0:
64,192,60570,1,0,0:0:0:0:
320,192,60661,128,0,60843:0:0:0:0:
448,192,60661,128,0,60752:0:0:0:0:
64,192,60752,1,0,0:0:0:0:
192,192,60843,1,0,0:0:0:0:
448,192,60843,1,0,0:0:0:0:
192,192,61025,128,0,61207:0:0:0:0:
448,192,61025,128,0,61116:0:0:0:0:
64,192,61116,1,0,0:0:0:0:
448,192,61207,1,0,0:0:0:0:
64,192,61298,1,0,0:0:0:0:
448,192,61388,128,0,61570:0:0:0:0:
320,192,61388,128,0,61570:0:0:0:0:
64,192,61570,1,0,0:0:0:0:
192,192,61570,128,0,61661:0:0:0:0:
320,192,61661,128,0,61752:0:0:0:0:
64,192,61752,1,0,0:0:0:0:
448,192,61752,128,0,61843:0:0:0:0:
192,192,61934,128,0,62116:0:0:0:0:
320,192,61934,128,0,62116:0:0:0:0:
64,192,62025,128,0,62116:0:0:0:0:
448,192,62116,128,0,62207:0:0:0:0:
64,192,62207,1,0,0:0:0:0:
448,192,62298,1,0,0:0:0:0:
192,192,62298,128,0,62388:0:0:0:0:
320,192,62388,128,0,62479:0:0:0:0:
192,192,62479,128,0,62661:0:0:0:0:
64,192,62479,128,0,62661:0:0:0:0:
320,192,62570,128,0,62661:0:0:0:0:
448,192,62661,128,0,62752:0:0:0:0:
64,192,62752,1,0,0:0:0:0:
320,192,62843,1,0,0:0:0:0:
64,192,63025,128,0,63207:0:0:0:0:
192,192,63025,128,0,63116:0:0:0:0:
320,192,63116,128,0,63207:0:0:0:0:
192,192,63207,1,0,0:0:0:0:
448,192,63207,128,0,63298:0:0:0:0:
192,192,63388,128,0,63479:0:0:0:0:
320,192,63479,128,0,63570:0:0:0:0:
192,192,63570,128,0,63752:0:0:0:0:
448,192,63570,128,0,63661:0:0:0:0:
64,192,63661,1,0,0:0:0:0:
320,192,63752,1,0,0:0:0:0:
448,192,63752,128,0,63843:0:0:0:0:
64,192,63843,128,0,63934:0:0:0:0:
448,192,63934,128,0,64116:0:0:0:0:
320,192,63934,128,0,64025:0:0:0:0:
192,192,64025,128,0,64116:0:0:0:0:
64,192,64116,128,0,64207:0:0:0:0:
320,192,64207,128,0,64298:0:0:0:0:
64,192,64298,128,0,64479:0:0:0:0:
192,192,64298,128,0,64479:0:0:0:0:
448,192,64479,1,0,0:0:0:0:
320,192,64479,128,0,64570:0:0:0:0:
192,192,64570,128,0,64661:0:0:0:0:
448,192,64661,1,0,0:0:0:0:
64,192,64661,128,0,64752:0:0:0:0:
320,192,64843,128,0,65025:0:0:0:0:
192,192,64843,128,0,65025:0:0:0:0:
448,192,64934,128,0,65025:0:0:0:0:
64,192,65025,128,0,65116:0:0:0:0:
448,192,65116,1,0,0:0:0:0:
64,192,65207,1,0,0:0:0:0:
320,192,65207,128,0,65298:0:0:0:0:
192,192,65298,128,0,65388:0:0:0:0:
320,192,65388,128,0,65570:0:0:0:0:
448,192,65388,128,0,65570:0:0:0:0:
192,192,65479,128,0,65570:0:0:0:0:
64,192,65570,128,0,65661:0:0:0:0:
448,192,65661,1,0,0:0:0:0:
192,192,65752,1,0,0:0:0:0:
448,192,65934,128,0,66116:0:0:0:0:
320,192,65934,128,0,66025:0:0:0:0:
192,192,66025,128,0,66116:0:0:0:0:
320,192,66116,1,0,0:0:0:0:
64,192,66116,128,0,66207:0:0:0:0:
320,192,66298,128,0,66388:0:0:0:0:
192,192,66388,128,0,66479:0:0:0:0:
320,192,66479,128,0,66661:0:0:0:0:
64,192,66479,128,0,66570:0:0:0:0:
448,192,66570,1,0,0:0:0:0:
64,192,66661,128,0,66752:0:0:0:0:
192,192,66661,1,0,0:0:0:0:
448,192,66752,128,0,66843:0:0:0:0:
64,192,66843,128,0,67025:0:0:0:0:
192,192,66843,128,0,66934:0:0:0:0:
320,192,66934,128,0,67025:0:0:0:0:
448,192,67025,128,0,67116:0:0:0:0:
320,192,67116,128,0,67207:0:0:0:0:
192,192,67207,128,0,67388:0:0:0:0:
64,192,67207,128,0,67388:0:0:0:0:
320,192,67388,1,0,0:0:0:0:
448,192,67388,128,0,67479:0:0:0:0:
64,192,67479,128,0,67570:0:0:0:0:
192,192,67570,1,0,0:0:0:0:
320,192,67570,1,0,0:0:0:0:
64,192,67752,128,0,67934:0:0:0:0:
448,192,67752,128,0,67934:0:0:0:0:
320,192,67843,128,0,67934:0:0:0:0:
192,192,67934,128,0,68025:0:0:0:0:
320,192,68025,1,0,0:0:0:0:
192,192,68116,1,0,0:0:0:0:
448,192,68116,128,0,68207:0:0:0:0:
64,192,68207,128,0,68298:0:0:0:0:
448,192,68298,128,0,68479:0:0:0:0:
320,192,68298,128,0,68479:0:0:0:0:
64,192,68388,128,0,68479:0:0:0:0:
192,192,68479,128,0,68570:0:0:0:0:
320,192,68570,1,0,0:0:0:0:
64,192,68661,1,0,0:0:0:0:
320,192,68843,128,0,69025:0:0:0:0:
448,192,68843,128,0,68934:0:0:0:0:
64,192,68934,128,0,69025:0:0:0:0:
448,192,69025,1,0,0:0:0:0:
192,192,69025,128,0,69116:0:0:0:0:
448,192,69207,128,0,69298:0:0:0:0:
64,192,69298,128,0,69388:0:0:0:0:
448,192,69388,128,0,69570:0:0:0:0:
192,192,69388,128,0,69479:0:0:0:0:
320,192,69479,1,0,0:0:0:0:
64,192,69570,1,0,0:0:0:0:
192,192,69570,128,0,69661:0:0:0:0:
448,192,69661,128,0,69752:0:0:0:0:
192,192,69752,128,0,69934:0:0:0:0:
320,192,69752,128,0,69843:0:0:0:0:
64,192,69843,128,0,69934:0:0:0:0:
448,192,69934,128,0,70025:0:0:0:0:
192,192,70025,128,0,70116:0:0:0:0:
320,192,70116,128,0,70298:0:0:0:0:
448,192,70116,128,0,70298:0:0:0:0:
192,192,70298,1,0,0:0:0:0:
64,192,70298,128,0,70388:0:0:0:0:
448,192,70388,128,0,70479:0:0:0:0:
192,192,70479,1,0,0:0:0:0:
320,192,70479,1,0,0:0:0:0:
64,192,70661,128,0,70843:0:0:0:0:
448,192,70661,128,0,70843:0:0:0:0:
192,192,70752,128,0,70843:0:0:0:0:
320,192,70843,128,0,70934:0:0:0:0:
192,192,70934,1,0,0:0:0:0:
320,192,71025,1,0,0:0:0:0:
64,192,71025,128,0,71116:0:0:0:0:
448,192,71116,128,0,71207:0:0:0:0:
64,192,71207,128,0,71388:0:0:0:0:
192,192,71207,128,0,71388:0:0:0:0:
448,192,71298,128,0,71388:0:0:0:0:
320,192,71388,128,0,71479:0:0:0:0:
192,192,71479,1,0,0:0:0:0:
320,192,71570,128,0,71752:0:0:0:0:
64,192,71570,1,0,0:0:0:0:
448,192,71601,128,0,71752:0:0:0:0:
192,192,71752,128,0,71934:0:0:0:0:
64,192,71752,1,0,0:0:0:0:
320,192,71934,1,0,0:0:0:0:
448,192,71934,1,0,0:0:0:0:
192,192,72116,128,0,72298:0:0:0:0:
448,192,72116,1,0,0:0:0:0:
64,192,72146,128,0,72298:0:0:0:0:
448,192,72298,128,0,72934:0:0:0:0:
320,192,72388,128,0,72661:0:0:0:0:
64,192,72479,1,0,0:0:0:0:
192,192,72479,128,0,72752:0:0:0:0:
64,192,72661,128,0,73025:0:0:0:0:
320,192,72752,128,0,72934:0:0:0:0:
192,192,72843,128,0,72934:0:0:0:0:
448,192,73025,128,0,73207:0:0:0:0:
320,192,73025,128,0,73207:0:0:0:0:
192,192,73025,128,0,73207:0:0:0:0:
64,192,73207,128,0,73388:0:0:0:0:
320,192,73388,128,0,73570:0:0:0:0:
192,192,73570,128,0,73934:0:0:0:0:
64,192,73570,128,0,73752:0:0:0:0:
448,192,73570,128,0,73752:0:0:0:0:
320,192,73934,128,0,74116:0:0:0:0:
64,192,74116,128,0,74298:0:0:0:0:
448,192,74298,128,0,74479:0:0:0:0:
320,192,74479,128,0,74661:0:0:0:0:
192,192,74479,128,0,74661:0:0:0:0:
64,192,74479,128,0,74661:0:0:0:0:
448,192,74661,128,0,75025:0:0:0:0:
320,192,75025,128,0,75207:0:0:0:0:
64,192,75025,128,0,75207:0:0:0:0:
192,192,75025,128,0,75388:0:0:0:0:
320,192,75388,128,0,75570:0:0:0:0:
192,192,75570,128,0,75934:0:0:0:0:
320,192,75752,1,0,0:0:0:0:
448,192,75934,128,0,76116:0:0:0:0:
320,192,75934,128,0,76116:0:0:0:0:
64,192,75934,128,0,76116:0:0:0:0:
192,192,76116,128,0,76298:0:0:0:0:
320,192,76298,128,0,76479:0:0:0:0:
448,192,76479,128,0,76661:0:0:0:0:
192,192,76479,128,0,77025:0:0:0:0:
64,192,76479,128,0,76661:0:0:0:0:
448,192,76843,1,0,0:0:0:0:
320,192,77025,1,0,0:0:0:0:
64,192,77207,128,0,77752:0:0:0:0:
192,192,77207,128,0,77752:0:0:0:0:
448,192,77207,128,0,77479:0:0:0:0:
448,192,77570,128,0,77752:0:0:0:0:
320,192,77752,128,0,77934:0:0:0:0:
64,192,77934,128,0,78843:0:0:0:0:
448,192,77934,128,0,78116:0:0:0:0:
320,192,78116,1,0,0:0:0:0:
192,192,78116,1,0,0:0:0:0:
448,192,78298,1,0,0:0:0:0:
320,192,78479,1,0,0:0:0:0:
192,192,78479,1,0,0:0:0:0:
448,192,78843,5,0,0:0:0:0:
320,192,78843,1,0,0:0:0:0:
192,192,78934,1,0,0:0:0:0:
448,192,79025,1,0,0:0:0:0:
192,192,79116,1,0,0:0:0:0:
448,192,79207,1,0,0:0:0:0:
192,192,79298,1,0,0:0:0:0:
448,192,79388,1,0,0:0:0:0:
192,192,79449,1,0,0:0:0:0:
448,192,79510,1,0,0:0:0:0:
192,192,79570,1,0,0:0:0:0:
64,192,79570,1,0,0:0:0:0:
320,192,79570,1,0,0:0:0:0:
448,192,79752,1,0,0:0:0:0:
320,192,79752,1,0,0:0:0:0:
64,192,79752,1,0,0:0:0:0:
192,192,79934,1,0,0:0:0:0:
320,192,80025,1,0,0:0:0:0:
192,192,80116,1,0,0:0:0:0:
320,192,80207,1,0,0:0:0:0:
192,192,80298,1,0,0:0:0:0:
64,192,80298,1,0,0:0:0:0:
448,192,80298,1,0,0:0:0:0:
320,192,80388,1,0,0:0:0:0:
64,192,80479,1,0,0:0:0:0:
320,192,80570,1,0,0:0:0:0:
64,192,80661,1,0,0:0:0:0:
320,192,80752,1,0,0:0:0:0:
64,192,80843,1,0,0:0:0:0:
320,192,80904,1,0,0:0:0:0:
64,192,80964,1,0,0:0:0:0:
192,192,81025,1,0,0:0:0:0:
320,192,81025,1,0,0:0:0:0:
448,192,81025,1,0,0:0:0:0:
448,192,81207,1,0,0:0:0:0:
192,192,81207,1,0,0:0:0:0:
64,192,81207,1,0,0:0:0:0:
448,192,81388,1,0,0:0:0:0:
320,192,81388,1,0,0:0:0:0:
64,192,81449,1,0,0:0:0:0:
192,192,81449,1,0,0:0:0:0:
448,192,81510,1,0,0:0:0:0:
320,192,81510,1,0,0:0:0:0:
192,192,81570,1,0,0:0:0:0:
64,192,81631,1,0,0:0:0:0:
448,192,81691,1,0,0:0:0:0:
320,192,81752,1,0,0:0:0:0:
64,192,81752,128,0,82116:0:0:0:0:
320,192,81934,1,0,0:0:0:0:
448,192,81934,1,0,0:0:0:0:
192,192,82116,128,0,82298:0:0:0:0:
448,192,82298,128,0,82661:0:0:0:0:
64,192,82298,1,0,0:0:0:0:
64,192,82661,1,0,0:0:0:0:
320,192,82661,128,0,82843:0:0:0:0:
192,192,82843,128,0,83025:0:0:0:0:
320,192,83025,128,0,83388:0:0:0:0:
64,192,83025,1,0,0:0:0:0:
64,192,83388,1,0,0:0:0:0:
448,192,83388,128,0,83570:0:0:0:0:
320,192,83570,128,0,83752:0:0:0:0:
64,192,83570,1,0,0:0:0:0:
192,192,83752,1,0,0:0:0:0:
64,192,83752,128,0,84116:0:0:0:0:
320,192,83934,1,0,0:0:0:0:
448,192,83934,1,0,0:0:0:0:
448,192,84116,1,0,0:0:0:0:
192,192,84176,1,0,0:0:0:0:
320,192,84237,1,0,0:0:0:0:
64,192,84298,1,0,0:0:0:0:
192,192,84320,1,0,0:0:0:0:
320,192,84479,1,0,0:0:0:0:
192,192,84479,1,0,0:0:0:0:
64,192,84661,128,0,84843:0:0:0:0:
320,192,84661,1,0,0:0:0:0:
448,192,84661,1,0,0:0:0:0:
192,192,84843,128,0,84934:0:0:0:0:
320,192,84843,1,0,0:0:0:0:
192,192,85025,128,0,85116:0:0:0:0:
448,192,85025,1,0,0:0:0:0:
64,192,85025,1,0,0:0:0:0:
448,192,85207,128,0,85388:0:0:0:0:
320,192,85207,1,0,0:0:0:0:
64,192,85298,1,0,0:0:0:0:
320,192,85388,128,0,85479:0:0:0:0:
192,192,85388,1,0,0:0:0:0:
192,192,85570,128,0,85661:0:0:0:0:
64,192,85570,1,0,0:0:0:0:
320,192,85752,128,0,85843:0:0:0:0:
192,192,85843,1,0,0:0:0:0:
448,192,85843,1,0,0:0:0:0:
64,192,85934,128,0,86116:0:0:0:0:
320,192,85934,1,0,0:0:0:0:
192,192,85934,1,0,0:0:0:0:
320,192,86116,128,0,86207:0:0:0:0:
320,192,86298,128,0,86388:0:0:0:0:
192,192,86298,1,0,0:0:0:0:
448,192,86479,128,0,86570:0:0:0:0:
64,192,86479,1,0,0:0:0:0:
192,192,86479,1,0,0:0:0:0:
192,192,86661,128,0,86843:0:0:0:0:
64,192,86661,1,0,0:0:0:0:
448,192,86752,1,0,0:0:0:0:
320,192,86843,128,0,86934:0:0:0:0:
192,192,86934,1,0,0:0:0:0:
64,192,87025,128,0,87116:0:0:0:0:
448,192,87025,1,0,0:0:0:0:
320,192,87207,128,0,87388:0:0:0:0:
64,192,87207,1,0,0:0:0:0:
448,192,87207,1,0,0:0:0:0:
192,192,87388,128,0,87479:0:0:0:0:
64,192,87388,1,0,0:0:0:0:
320,192,87479,1,0,0:0:0:0:
448,192,87570,128,0,87752:0:0:0:0:
64,192,87570,1,0,0:0:0:0:
192,192,87752,128,0,87843:0:0:0:0:
64,192,87752,1,0,0:0:0:0:
192,192,87934,128,0,88025:0:0:0:0:
320,192,87934,1,0,0:0:0:0:
448,192,87934,1,0,0:0:0:0:
64,192,88116,128,0,88298:0:0:0:0:
448,192,88116,1,0,0:0:0:0:
192,192,88207,1,0,0:0:0:0:
320,192,88298,128,0,88388:0:0:0:0:
448,192,88298,1,0,0:0:0:0:
192,192,88479,128,0,88570:0:0:0:0:
448,192,88479,1,0,0:0:0:0:
64,192,88661,128,0,88752:0:0:0:0:
192,192,88752,1,0,0:0:0:0:
320,192,88752,1,0,0:0:0:0:
448,192,88843,128,0,89207:0:0:0:0:
64,192,88843,1,0,0:0:0:0:
320,192,88843,1,0,0:0:0:0:
192,192,89025,1,0,0:0:0:0:
320,192,89207,128,0,89388:0:0:0:0:
64,192,89207,1,0,0:0:0:0:
192,192,89388,128,0,89479:0:0:0:0:
64,192,89388,1,0,0:0:0:0:
448,192,89388,1,0,0:0:0:0:
64,192,89570,128,0,90298:0:0:0:0:
192,192,89570,1,0,0:0:0:0:
320,192,89661,1,0,0:0:0:0:
448,192,89661,1,0,0:0:0:0:
192,192,89843,1,0,0:0:0:0:
320,192,89934,1,0,0:0:0:0:
448,192,89934,1,0,0:0:0:0:
448,192,90116,1,0,0:0:0:0:
320,192,90116,1,0,0:0:0:0:
192,192,90116,1,0,0:0:0:0:
448,192,90298,1,0,0:0:0:0:
192,192,90298,128,0,90479:0:0:0:0:
320,192,90388,128,0,90479:0:0:0:0:
448,192,90479,128,0,91025:0:0:0:0:
64,192,90479,128,0,90661:0:0:0:0:
192,192,90661,128,0,90752:0:0:0:0:
320,192,90843,1,0,0:0:0:0:
64,192,90843,1,0,0:0:0:0:
192,192,90843,128,0,90934:0:0:0:0:
192,192,91025,128,0,91388:0:0:0:0:
320,192,91025,128,0,91207:0:0:0:0:
448,192,91207,128,0,91298:0:0:0:0:
320,192,91388,128,0,91752:0:0:0:0:
64,192,91388,128,0,91479:0:0:0:0:
64,192,91570,1,0,0:0:0:0:
448,192,91570,1,0,0:0:0:0:
192,192,91570,128,0,91661:0:0:0:0:
64,192,91752,128,0,92116:0:0:0:0:
448,192,91752,128,0,91934:0:0:0:0:
320,192,91934,128,0,92025:0:0:0:0:
192,192,92116,128,0,92479:0:0:0:0:
448,192,92116,128,0,92207:0:0:0:0:
320,192,92298,5,0,0:0:0:0:
64,192,92298,1,0,0:0:0:0:
448,192,92298,128,0,92388:0:0:0:0:
64,192,92479,128,0,92570:0:0:0:0:
320,192,92479,1,0,0:0:0:0:
192,192,92570,128,0,92661:0:0:0:0:
320,192,92661,128,0,92843:0:0:0:0:
448,192,92661,1,0,0:0:0:0:
64,192,92661,128,0,92752:0:0:0:0:
448,192,92843,128,0,93025:0:0:0:0:
192,192,92843,128,0,92934:0:0:0:0:
320,192,93025,128,0,93207:0:0:0:0:
192,192,93025,128,0,93207:0:0:0:0:
448,192,93207,1,0,0:0:0:0:
64,192,93207,1,0,0:0:0:0:
320,192,93298,1,0,0:0:0:0:
64,192,93388,128,0,93934:0:0:0:0:
192,192,93388,1,0,0:0:0:0:
448,192,93388,128,0,93570:0:0:0:0:
320,192,93570,128,0,93661:0:0:0:0:
448,192,93752,1,0,0:0:0:0:
320,192,93752,128,0,93843:0:0:0:0:
192,192,93934,128,0,94298:0:0:0:0:
320,192,93934,1,0,0:0:0:0:
448,192,93934,128,0,94116:0:0:0:0:
64,192,94116,128,0,94207:0:0:0:0:
320,192,94116,1,0,0:0:0:0:
448,192,94298,128,0,94661:0:0:0:0:
320,192,94298,128,0,94388:0:0:0:0:
64,192,94479,128,0,94570:0:0:0:0:
192,192,94479,1,0,0:0:0:0:
320,192,94661,128,0,95207:0:0:0:0:
64,192,94661,128,0,95025:0:0:0:0:
192,192,94661,1,0,0:0:0:0:
192,192,95025,128,0,95388:0:0:0:0:
448,192,95025,1,0,0:0:0:0:
448,192,95207,1,0,0:0:0:0:
64,192,95207,1,0,0:0:0:0:
448,192,95388,128,0,95934:0:0:0:0:
64,192,95388,1,0,0:0:0:0:
320,192,95570,1,0,0:0:0:0:
192,192,95593,1,0,0:0:0:0:
320,192,95752,128,0,95934:0:0:0:0:
192,192,95752,1,0,0:0:0:0:
192,192,95934,1,0,0:0:0:0:
64,192,95934,1,0,0:0:0:0:
320,192,96025,1,0,0:0:0:0:
448,192,96025,1,0,0:0:0:0:
192,192,96116,1,0,0:0:0:0:
64,192,96116,1,0,0:0:0:0:
448,192,96207,1,0,0:0:0:0:
320,192,96207,1,0,0:0:0:0:
64,192,96298,1,0,0:0:0:0:
192,192,96298,128,0,96358:0:0:0:0:
448,192,96479,128,0,96540:0:0:0:0:
192,192,96661,128,0,96722:0:0:0:0:
448,192,96843,128,0,96904:0:0:0:0:
64,192,97207,1,0,0:0:0:0:
64,192,97388,128,0,97449:0:0:0:0:
448,192,97388,128,0,97449:0:0:0:0:
448,192,97570,128,0,97631:0:0:0:0:
320,192,97601,128,0,97661:0:0:0:0:
192,192,97752,1,0,0:0:0:0:
192,192,97934,128,0,97994:0:0:0:0:
320,192,97934,128,0,97994:0:0:0:0:
448,192,98116,128,0,98176:0:0:0:0:
64,192,98116,128,0,98176:0:0:0:0:
320,192,98298,128,0,98358:0:0:0:0:
192,192,98298,128,0,98358:0:0:0:0:
448,192,98479,1,0,0:0:0:0:
320,192,98601,1,0,0:0:0:0:
64,192,98661,1,0,0:0:0:0:
192,192,98722,1,0,0:0:0:0:
320,192,98843,1,0,0:0:0:0:
448,192,98843,1,0,0:0:0:0:
192,192,98964,1,0,0:0:0:0:
64,192,99085,1,0,0:0:0:0:
320,192,99207,128,0,99267:0:0:0:0:
448,192,99207,128,0,99267:0:0:0:0:
192,192,99388,128,0,99449:0:0:0:0:
320,192,99388,128,0,99449:0:0:0:0:
448,192,99570,1,0,0:0:0:0:
192,192,99752,128,0,99813:0:0:0:0:
64,192,99752,128,0,99813:0:0:0:0:
448,192,100116,1,0,0:0:0:0:
448,192,100298,128,0,100358:0:0:0:0:
64,192,100298,128,0,100358:0:0:0:0:
64,192,100479,128,0,100540:0:0:0:0:
320,192,100510,128,0,100570:0:0:0:0:
192,192,100661,1,0,0:0:0:0:
320,192,100843,128,0,100904:0:0:0:0:
192,192,100843,128,0,100904:0:0:0:0:
448,192,101025,1,0,0:0:0:0:
192,192,101207,1,0,0:0:0:0:
448,192,101388,128,0,101449:0:0:0:0:
320,192,101388,128,0,101449:0:0:0:0:
320,192,101570,128,0,101631:0:0:0:0:
192,192,101570,128,0,101631:0:0:0:0:
192,192,101752,128,0,101813:0:0:0:0:
64,192,101752,128,0,101813:0:0:0:0:
64,192,101934,128,0,101994:0:0:0:0:
320,192,102116,128,0,102207:0:0:0:0:
448,192,102116,128,0,102207:0:0:0:0:
448,192,102298,128,0,102388:0:0:0:0:
64,192,102479,128,0,102570:0:0:0:0:
320,192,102479,128,0,102570:0:0:0:0:
192,192,102661,128,0,102752:0:0:0:0:
448,192,102661,128,0,102752:0:0:0:0:
320,192,102843,1,0,0:0:0:0:
64,192,103025,128,0,103116:0:0:0:0:
192,192,103025,128,0,103116:0:0:0:0:
64,192,103207,128,0,103298:0:0:0:0:
448,192,103207,128,0,103298:0:0:0:0:
448,192,103388,128,0,103479:0:0:0:0:
320,192,103419,128,0,103510:0:0:0:0:
192,192,103570,1,0,0:0:0:0:
64,192,103752,128,0,103843:0:0:0:0:
448,192,103752,128,0,103843:0:0:0:0:
448,192,103934,128,0,104025:0:0:0:0:
192,192,103934,128,0,104025:0:0:0:0:
320,192,104116,128,0,104207:0:0:0:0:
192,192,104116,128,0,104207:0:0:0:0:
192,192,104298,1,0,0:0:0:0:
448,192,104298,128,0,104388:0:0:0:0:
320,192,104419,128,0,104510:0:0:0:0:
64,192,104479,1,0,0:0:0:0:
192,192,104540,128,0,104631:0:0:0:0:
320,192,104661,128,0,104752:0:0:0:0:
448,192,104661,1,0,0:0:0:0:
192,192,104782,128,0,104873:0:0:0:0:
64,192,104904,128,0,104994:0:0:0:0:
192,192,105025,1,0,0:0:0:0:
320,192,105025,1,0,0:0:0:0:
192,192,105207,1,0,0:0:0:0:
448,192,105207,1,0,0:0:0:0:
448,192,105388,1,0,0:0:0:0:
64,192,105388,1,0,0:0:0:0:
320,192,105570,1,0,0:0:0:0:
64,192,105661,1,0,0:0:0:0:
320,192,105752,1,0,0:0:0:0:
64,192,105843,1,0,0:0:0:0:
320,192,105934,1,0,0:0:0:0:
448,192,105934,1,0,0:0:0:0:
448,192,106116,1,0,0:0:0:0:
64,192,106116,1,0,0:0:0:0:
320,192,106298,1,0,0:0:0:0:
64,192,106388,1,0,0:0:0:0:
320,192,106479,128,0,106661:0:0:0:0:
192,192,106479,1,0,0:0:0:0:
448,192,106510,128,0,106661:0:0:0:0:
64,192,106661,1,0,0:0:0:0:
192,192,106843,5,0,0:0:0:0:
448,192,106843,1,0,0:0:0:0:
192,192,107025,128,0,107207:0:0:0:0:
320,192,107025,1,0,0:0:0:0:
64,192,107055,128,0,107207:0:0:0:0:
448,192,107207,1,0,0:0:0:0:
320,192,107388,1,0,0:0:0:0:
64,192,107388,1,0,0:0:0:0:
448,192,107570,1,0,0:0:0:0:
320,192,107570,1,0,0:0:0:0:
192,192,107661,1,0,0:0:0:0:
64,192,107661,1,0,0:0:0:0:
320,192,107752,1,0,0:0:0:0:
448,192,107752,1,0,0:0:0:0:
192,192,107843,1,0,0:0:0:0:
64,192,107843,1,0,0:0:0:0:
448,192,107934,128,0,108116:0:0:0:0:
64,192,107934,1,0,0:0:0:0:
320,192,107934,128,0,108116:0:0:0:0:
64,192,108116,1,0,0:0:0:0:
192,192,108116,1,0,0:0:0:0:
448,192,108298,1,0,0:0:0:0:
192,192,108298,1,0,0:0:0:0:
192,192,108479,128,0,108661:0:0:0:0:
320,192,108479,128,0,108661:0:0:0:0:
64,192,108570,1,0,0:0:0:0:
448,192,108661,1,0,0:0:0:0:
64,192,108752,1,0,0:0:0:0:
320,192,108843,1,0,0:0:0:0:
448,192,108843,1,0,0:0:0:0:
320,192,109025,128,0,109207:0:0:0:0:
64,192,109025,128,0,109207:0:0:0:0:
192,192,109207,1,0,0:0:0:0:
448,192,109298,1,0,0:0:0:0:
192,192,109388,1,0,0:0:0:0:
64,192,109570,128,0,109752:0:0:0:0:
192,192,109570,128,0,109752:0:0:0:0:
320,192,109752,1,0,0:0:0:0:
448,192,109752,1,0,0:0:0:0:
448,192,109934,1,0,0:0:0:0:
320,192,110025,1,0,0:0:0:0:
64,192,110116,128,0,110298:0:0:0:0:
192,192,110116,128,0,110207:0:0:0:0:
320,192,110207,1,0,0:0:0:0:
192,192,110298,1,0,0:0:0:0:
448,192,110298,1,0,0:0:0:0:
448,192,110479,128,0,110661:0:0:0:0:
192,192,110479,128,0,110570:0:0:0:0:
320,192,110570,1,0,0:0:0:0:
192,192,110661,1,0,0:0:0:0:
320,192,110752,1,0,0:0:0:0:
192,192,110843,128,0,111025:0:0:0:0:
64,192,110843,128,0,111025:0:0:0:0:
448,192,111025,1,0,0:0:0:0:
320,192,111025,1,0,0:0:0:0:
64,192,111207,1,0,0:0:0:0:
448,192,111207,1,0,0:0:0:0:
320,192,111388,128,0,111570:0:0:0:0:
192,192,111388,128,0,111570:0:0:0:0:
448,192,111479,1,0,0:0:0:0:
64,192,111570,1,0,0:0:0:0:
448,192,111661,1,0,0:0:0:0:
192,192,111752,1,0,0:0:0:0:
64,192,111752,1,0,0:0:0:0:
192,192,111934,128,0,112116:0:0:0:0:
448,192,111934,128,0,112116:0:0:0:0:
320,192,112116,1,0,0:0:0:0:
64,192,112207,1,0,0:0:0:0:
320,192,112298,1,0,0:0:0:0:
64,192,112479,128,0,112661:0:0:0:0:
448,192,112479,128,0,112661:0:0:0:0:
320,192,112661,1,0,0:0:0:0:
192,192,112661,1,0,0:0:0:0:
64,192,112843,1,0,0:0:0:0:
192,192,112934,1,0,0:0:0:0:
448,192,113025,128,0,113207:0:0:0:0:
320,192,113025,128,0,113116:0:0:0:0:
192,192,113116,1,0,0:0:0:0:
320,192,113207,1,0,0:0:0:0:
64,192,113207,1,0,0:0:0:0:
64,192,113388,128,0,113570:0:0:0:0:
320,192,113388,128,0,113479:0:0:0:0:
192,192,113479,1,0,0:0:0:0:
448,192,113570,1,0,0:0:0:0:
320,192,113661,1,0,0:0:0:0:
192,192,113752,128,0,113934:0:0:0:0:
64,192,113752,128,0,113934:0:0:0:0:
320,192,113934,1,0,0:0:0:0:
448,192,113934,1,0,0:0:0:0:
448,192,114116,1,0,0:0:0:0:
192,192,114116,1,0,0:0:0:0:
448,192,114298,128,0,114479:0:0:0:0:
64,192,114298,128,0,114479:0:0:0:0:
320,192,114388,1,0,0:0:0:0:
192,192,114479,1,0,0:0:0:0:
320,192,114570,1,0,0:0:0:0:
64,192,114661,1,0,0:0:0:0:
192,192,114661,1,0,0:0:0:0:
320,192,114843,128,0,115025:0:0:0:0:
64,192,114843,128,0,115025:0:0:0:0:
448,192,115025,1,0,0:0:0:0:
192,192,115116,1,0,0:0:0:0:
448,192,115207,1,0,0:0:0:0:
320,192,115388,128,0,115570:0:0:0:0:
448,192,115388,128,0,115570:0:0:0:0:
64,192,115570,1,0,0:0:0:0:
192,192,115570,1,0,0:0:0:0:
192,192,115752,1,0,0:0:0:0:
64,192,115843,1,0,0:0:0:0:
320,192,115934,128,0,116116:0:0:0:0:
448,192,115934,128,0,116025:0:0:0:0:
64,192,116025,1,0,0:0:0:0:
448,192,116116,1,0,0:0:0:0:
192,192,116116,1,0,0:0:0:0:
448,192,116298,128,0,116388:0:0:0:0:
192,192,116298,128,0,116479:0:0:0:0:
64,192,116388,1,0,0:0:0:0:
448,192,116479,1,0,0:0:0:0:
64,192,116570,1,0,0:0:0:0:
448,192,116661,128,0,116843:0:0:0:0:
320,192,116661,128,0,116843:0:0:0:0:
192,192,116843,1,0,0:0:0:0:
64,192,116843,1,0,0:0:0:0:
320,192,117025,1,0,0:0:0:0:
192,192,117025,1,0,0:0:0:0:
448,192,117207,128,0,117388:0:0:0:0:
64,192,117207,128,0,117388:0:0:0:0:
192,192,117298,1,0,0:0:0:0:
320,192,117388,1,0,0:0:0:0:
192,192,117479,1,0,0:0:0:0:
448,192,117570,1,0,0:0:0:0:
320,192,117570,1,0,0:0:0:0:
448,192,117752,128,0,117934:0:0:0:0:
192,192,117752,128,0,117934:0:0:0:0:
64,192,117934,1,0,0:0:0:0:
320,192,118025,1,0,0:0:0:0:
64,192,118116,1,0,0:0:0:0:
320,192,118298,128,0,118479:0:0:0:0:
192,192,118298,128,0,118479:0:0:0:0:
448,192,118479,1,0,0:0:0:0:
64,192,118479,1,0,0:0:0:0:
320,192,118661,1,0,0:0:0:0:
448,192,118752,1,0,0:0:0:0:
192,192,118843,128,0,119025:0:0:0:0:
64,192,118843,128,0,118934:0:0:0:0:
448,192,118934,1,0,0:0:0:0:
320,192,119025,1,0,0:0:0:0:
64,192,119025,1,0,0:0:0:0:
320,192,119207,128,0,119388:0:0:0:0:
64,192,119207,128,0,119298:0:0:0:0:
448,192,119298,1,0,0:0:0:0:
64,192,119388,1,0,0:0:0:0:
448,192,119479,1,0,0:0:0:0:
64,192,119570,128,0,119752:0:0:0:0:
192,192,119570,128,0,119752:0:0:0:0:
448,192,119752,1,0,0:0:0:0:
320,192,119752,128,0,119843:0:0:0:0:
192,192,119843,128,0,119934:0:0:0:0:
448,192,119934,1,0,0:0:0:0:
64,192,119934,128,0,120025:0:0:0:0:
320,192,120116,128,0,120298:0:0:0:0:
192,192,120116,128,0,120298:0:0:0:0:
448,192,120207,128,0,120298:0:0:0:0:
64,192,120298,128,0,120388:0:0:0:0:
448,192,120388,1,0,0:0:0:0:
64,192,120479,1,0,0:0:0:0:
320,192,120479,128,0,120570:0:0:0:0:
192,192,120570,128,0,120661:0:0:0:0:
320,192,120661,128,0,120843:0:0:0:0:
448,192,120661,128,0,120843:0:0:0:0:
192,192,120752,128,0,120843:0:0:0:0:
64,192,120843,128,0,120934:0:0:0:0:
448,192,120934,1,0,0:0:0:0:
192,192,121025,1,0,0:0:0:0:
448,192,121207,128,0,121388:0:0:0:0:
320,192,121207,128,0,121298:0:0:0:0:
192,192,121298,128,0,121388:0:0:0:0:
320,192,121388,1,0,0:0:0:0:
64,192,121388,128,0,121479:0:0:0:0:
320,192,121570,128,0,121661:0:0:0:0:
192,192,121661,128,0,121752:0:0:0:0:
320,192,121752,128,0,121934:0:0:0:0:
64,192,121752,128,0,121843:0:0:0:0:
448,192,121843,1,0,0:0:0:0:
192,192,121934,1,0,0:0:0:0:
64,192,121934,128,0,122025:0:0:0:0:
448,192,122025,128,0,122116:0:0:0:0:
64,192,122116,128,0,122298:0:0:0:0:
192,192,122116,128,0,122207:0:0:0:0:
320,192,122207,128,0,122298:0:0:0:0:
448,192,122298,128,0,122388:0:0:0:0:
192,192,122388,128,0,122479:0:0:0:0:
448,192,122479,128,0,122661:0:0:0:0:
320,192,122479,128,0,122661:0:0:0:0:
64,192,122661,1,0,0:0:0:0:
192,192,122661,128,0,122752:0:0:0:0:
320,192,122752,128,0,122843:0:0:0:0:
64,192,122843,1,0,0:0:0:0:
448,192,122843,128,0,122934:0:0:0:0:
192,192,123025,128,0,123207:0:0:0:0:
320,192,123025,128,0,123207:0:0:0:0:
64,192,123116,128,0,123207:0:0:0:0:
448,192,123207,128,0,123298:0:0:0:0:
64,192,123298,1,0,0:0:0:0:
448,192,123388,1,0,0:0:0:0:
192,192,123388,128,0,123479:0:0:0:0:
320,192,123479,128,0,123570:0:0:0:0:
192,192,123570,128,0,123752:0:0:0:0:
64,192,123570,128,0,123752:0:0:0:0:
320,192,123661,128,0,123752:0:0:0:0:
448,192,123752,128,0,123843:0:0:0:0:
64,192,123843,1,0,0:0:0:0:
320,192,123934,1,0,0:0:0:0:
64,192,124116,128,0,124298:0:0:0:0:
192,192,124116,128,0,124207:0:0:0:0:
320,192,124207,128,0,124298:0:0:0:0:
192,192,124298,1,0,0:0:0:0:
448,192,124298,128,0,124388:0:0:0:0:
192,192,124479,128,0,124570:0:0:0:0:
320,192,124570,128,0,124661:0:0:0:0:
192,192,124661,128,0,124843:0:0:0:0:
448,192,124661,128,0,124752:0:0:0:0:
64,192,124752,1,0,0:0:0:0:
320,192,124843,1,0,0:0:0:0:
448,192,124843,128,0,124934:0:0:0:0:
64,192,124934,128,0,125025:0:0:0:0:
448,192,125025,128,0,125207:0:0:0:0:
320,192,125025,128,0,125116:0:0:0:0:
192,192,125116,128,0,125207:0:0:0:0:
64,192,125207,128,0,125298:0:0:0:0:
192,192,125298,128,0,125388:0:0:0:0:
320,192,125388,128,0,125570:0:0:0:0:
448,192,125388,128,0,125570:0:0:0:0:
192,192,125570,1,0,0:0:0:0:
64,192,125570,128,0,125661:0:0:0:0:
448,192,125661,128,0,125752:0:0:0:0:
320,192,125752,1,0,0:0:0:0:
192,192,125752,1,0,0:0:0:0:
448,192,125934,128,0,126116:0:0:0:0:
64,192,125934,128,0,126116:0:0:0:0:
192,192,126025,128,0,126116:0:0:0:0:
320,192,126116,128,0,126207:0:0:0:0:
192,192,126207,1,0,0:0:0:0:
320,192,126298,1,0,0:0:0:0:
64,192,126298,128,0,126388:0:0:0:0:
448,192,126388,128,0,126479:0:0:0:0:
64,192,126479,128,0,126661:0:0:0:0:
192,192,126479,128,0,126661:0:0:0:0:
448,192,126570,128,0,126661:0:0:0:0:
320,192,126661,128,0,126752:0:0:0:0:
192,192,126752,1,0,0:0:0:0:
448,192,126843,1,0,0:0:0:0:
192,192,127025,128,0,127207:0:0:0:0:
64,192,127025,128,0,127116:0:0:0:0:
448,192,127116,128,0,127207:0:0:0:0:
320,192,127207,1,0,0:0:0:0:
64,192,127207,128,0,127298:0:0:0:0:
192,192,127388,128,0,127479:0:0:0:0:
448,192,127479,128,0,127570:0:0:0:0:
64,192,127570,128,0,127752:0:0:0:0:
320,192,127570,128,0,127661:0:0:0:0:
192,192,127661,1,0,0:0:0:0:
448,192,127752,1,0,0:0:0:0:
320,192,127752,128,0,127843:0:0:0:0:
64,192,127843,128,0,127934:0:0:0:0:
320,192,127934,128,0,128116:0:0:0:0:
192,192,127934,128,0,128025:0:0:0:0:
448,192,128025,128,0,128116:0:0:0:0:
64,192,128116,128,0,128207:0:0:0:0:
320,192,128207,128,0,128298:0:0:0:0:
192,192,128298,128,0,128479:0:0:0:0:
64,192,128298,128,0,128479:0:0:0:0:
320,192,128479,1,0,0:0:0:0:
448,192,128479,128,0,128570:0:0:0:0:
64,192,128570,128,0,128661:0:0:0:0:
320,192,128661,1,0,0:0:0:0:
192,192,128661,1,0,0:0:0:0:
448,192,128843,128,0,129025:0:0:0:0:
64,192,128843,128,0,129025:0:0:0:0:
320,192,128934,128,0,129025:0:0:0:0:
192,192,129025,128,0,129116:0:0:0:0:
320,192,129116,1,0,0:0:0:0:
192,192,129207,1,0,0:0:0:0:
448,192,129207,128,0,129298:0:0:0:0:
64,192,129298,128,0,129388:0:0:0:0:
448,192,129388,128,0,129570:0:0:0:0:
320,192,129388,128,0,129570:0:0:0:0:
64,192,129479,128,0,129570:0:0:0:0:
192,192,129570,128,0,129661:0:0:0:0:
320,192,129661,1,0,0:0:0:0:
448,192,129752,1,0,0:0:0:0:
192,192,129752,128,0,129934:0:0:0:0:
64,192,129782,128,0,129934:0:0:0:0:
448,192,129934,1,0,0:0:0:0:
320,192,129934,128,0,130116:0:0:0:0:
448,192,130116,1,0,0:0:0:0:
64,192,130116,1,0,0:0:0:0:
192,192,130116,1,0,0:0:0:0:
320,192,130298,128,0,130479:0:0:0:0:
64,192,130298,1,0,0:0:0:0:
448,192,130328,128,0,130479:0:0:0:0:
64,192,130479,1,0,0:0:0:0:
192,192,130479,1,0,0:0:0:0:
320,192,130661,1,0,0:0:0:0:
192,192,130661,1,0,0:0:0:0:
64,192,130843,1,0,0:0:0:0:
448,192,130843,1,0,0:0:0:0:
64,192,130964,1,0,0:0:0:0:
192,192,130964,1,0,0:0:0:0:
448,192,131085,1,0,0:0:0:0:
320,192,131085,1,0,0:0:0:0:
64,192,131207,1,0,0:0:0:0:
448,192,131207,128,0,131570:0:0:0:0:
192,192,131207,128,0,131479:0:0:0:0:
192,192,131570,128,0,131934:0:0:0:0:
320,192,131570,128,0,131843:0:0:0:0:
320,192,131934,128,0,132298:0:0:0:0:
64,192,131934,128,0,132207:0:0:0:0:
64,192,132298,128,0,132661:0:0:0:0:
448,192,132298,128,0,132570:0:0:0:0:
448,192,132661,128,0,133025:0:0:0:0:
192,192,132661,128,0,132934:0:0:0:0:
192,192,133025,128,0,133388:0:0:0:0:
320,192,133025,128,0,133298:0:0:0:0:
320,192,133388,128,0,133752:0:0:0:0:
64,192,133388,128,0,133661:0:0:0:0:
64,192,133752,128,0,134116:0:0:0:0:
448,192,133752,128,0,134025:0:0:0:0:
448,192,134116,128,0,134479:0:0:0:0:
320,192,134116,1,0,0:0:0:0:
192,192,134116,128,0,134388:0:0:0:0:
192,192,134479,128,0,134843:0:0:0:0:
320,192,134479,128,0,134752:0:0:0:0:
320,192,134843,128,0,135207:0:0:0:0:
64,192,134843,128,0,135116:0:0:0:0:
64,192,135207,128,0,135570:0:0:0:0:
448,192,135207,128,0,135479:0:0:0:0:
448,192,135570,128,0,135934:0:0:0:0:
192,192,135570,128,0,135843:0:0:0:0:
192,192,135934,128,0,136298:0:0:0:0:
320,192,135934,128,0,136207:0:0:0:0:
320,192,136298,128,0,136661:0:0:0:0:
64,192,136298,128,0,136570:0:0:0:0:
64,192,136661,128,0,137025:0:0:0:0:
448,192,136661,128,0,136934:0:0:0:0:
448,192,137025,5,0,0:0:0:0:
320,192,137025,1,0,0:0:0:0:
192,192,137025,128,0,137207:0:0:0:0:
320,192,137207,1,0,0:0:0:0:
448,192,137207,1,0,0:0:0:0:
192,192,137388,1,0,0:0:0:0:
64,192,137388,1,0,0:0:0:0:
320,192,137388,128,0,137570:0:0:0:0:
192,192,137570,1,0,0:0:0:0:
64,192,137570,1,0,0:0:0:0:
192,192,137752,1,0,0:0:0:0:
448,192,137752,128,0,137934:0:0:0:0:
64,192,137934,1,0,0:0:0:0:
320,192,137934,1,0,0:0:0:0:
320,192,138116,1,0,0:0:0:0:
64,192,138116,128,0,138298:0:0:0:0:
192,192,138116,1,0,0:0:0:0:
192,192,138298,1,0,0:0:0:0:
448,192,138298,1,0,0:0:0:0:
448,192,138479,1,0,0:0:0:0:
320,192,138479,128,0,138661:0:0:0:0:
64,192,138570,1,0,0:0:0:0:
192,192,138570,1,0,0:0:0:0:
192,192,138661,1,0,0:0:0:0:
64,192,138661,1,0,0:0:0:0:
448,192,138843,1,0,0:0:0:0:
192,192,138843,128,0,139025:0:0:0:0:
320,192,139025,1,0,0:0:0:0:
448,192,139025,1,0,0:0:0:0:
448,192,139116,1,0,0:0:0:0:
320,192,139116,1,0,0:0:0:0:
192,192,139207,1,0,0:0:0:0:
64,192,139207,128,0,139388:0:0:0:0:
448,192,139388,1,0,0:0:0:0:
320,192,139388,1,0,0:0:0:0:
192,192,139570,1,0,0:0:0:0:
64,192,139570,1,0,0:0:0:0:
320,192,139661,1,0,0:0:0:0:
448,192,139661,1,0,0:0:0:0:
192,192,139752,1,0,0:0:0:0:
64,192,139752,1,0,0:0:0:0:
320,192,139843,1,0,0:0:0:0:
448,192,139843,1,0,0:0:0:0:
64,192,139934,1,0,0:0:0:0:
192,192,139934,1,0,0:0:0:0:
448,192,139934,128,0,140116:0:0:0:0:
192,192,140116,1,0,0:0:0:0:
64,192,140116,1,0,0:0:0:0:
320,192,140298,1,0,0:0:0:0:
448,192,140298,1,0,0:0:0:0:
64,192,140298,128,0,140479:0:0:0:0:
320,192,140479,1,0,0:0:0:0:
448,192,140479,1,0,0:0:0:0:
320,192,140661,1,0,0:0:0:0:
192,192,140661,128,0,140843:0:0:0:0:
64,192,140843,1,0,0:0:0:0:
448,192,140843,1,0,0:0:0:0:
64,192,141025,1,0,0:0:0:0:
320,192,141025,128,0,141207:0:0:0:0:
192,192,141025,1,0,0:0:0:0:
448,192,141207,1,0,0:0:0:0:
192,192,141207,1,0,0:0:0:0:
192,192,141388,1,0,0:0:0:0:
64,192,141388,128,0,141570:0:0:0:0:
320,192,141479,1,0,0:0:0:0:
448,192,141479,1,0,0:0:0:0:
320,192,141570,1,0,0:0:0:0:
448,192,141570,1,0,0:0:0:0:
64,192,141752,1,0,0:0:0:0:
448,192,141752,128,0,141934:0:0:0:0:
192,192,141934,1,0,0:0:0:0:
64,192,141934,1,0,0:0:0:0:
64,192,142025,1,0,0:0:0:0:
192,192,142025,1,0,0:0:0:0:
448,192,142116,1,0,0:0:0:0:
320,192,142116,128,0,142298:0:0:0:0:
64,192,142298,1,0,0:0:0:0:
192,192,142298,1,0,0:0:0:0:
320,192,142479,1,0,0:0:0:0:
448,192,142479,1,0,0:0:0:0:
192,192,142570,1,0,0:0:0:0:
64,192,142570,1,0,0:0:0:0:
320,192,142661,1,0,0:0:0:0:
448,192,142661,1,0,0:0:0:0:
192,192,142752,1,0,0:0:0:0:
64,192,142752,1,0,0:0:0:0:
320,192,142843,1,0,0:0:0:0:
192,192,142843,128,0,143025:0:0:0:0:
448,192,142843,128,0,142934:0:0:0:0:
448,192,143025,1,0,0:0:0:0:
320,192,143025,128,0,143116:0:0:0:0:
64,192,143207,1,0,0:0:0:0:
192,192,143207,1,0,0:0:0:0:
320,192,143207,128,0,143388:0:0:0:0:
192,192,143388,1,0,0:0:0:0:
64,192,143388,128,0,143479:0:0:0:0:
448,192,143570,128,0,143752:0:0:0:0:
192,192,143570,128,0,143661:0:0:0:0:
320,192,143752,1,0,0:0:0:0:
64,192,143752,1,0,0:0:0:0:
64,192,143934,128,0,144116:0:0:0:0:
320,192,143934,128,0,144025:0:0:0:0:
192,192,143934,1,0,0:0:0:0:
448,192,144116,1,0,0:0:0:0:
192,192,144116,128,0,144207:0:0:0:0:
448,192,144298,1,0,0:0:0:0:
320,192,144298,128,0,144479:0:0:0:0:
192,192,144388,1,0,0:0:0:0:
64,192,144388,1,0,0:0:0:0:
64,192,144479,1,0,0:0:0:0:
192,192,144479,128,0,144570:0:0:0:0:
192,192,144661,128,0,144843:0:0:0:0:
448,192,144661,128,0,144752:0:0:0:0:
448,192,144843,1,0,0:0:0:0:
320,192,144843,1,0,0:0:0:0:
320,192,144934,1,0,0:0:0:0:
448,192,144934,1,0,0:0:0:0:
64,192,145025,128,0,145207:0:0:0:0:
192,192,145025,128,0,145116:0:0:0:0:
320,192,145207,1,0,0:0:0:0:
448,192,145207,128,0,145298:0:0:0:0:
64,192,145388,1,0,0:0:0:0:
192,192,145388,1,0,0:0:0:0:
448,192,145479,1,0,0:0:0:0:
320,192,145479,1,0,0:0:0:0:
64,192,145570,1,0,0:0:0:0:
192,192,145570,1,0,0:0:0:0:
448,192,145661,1,0,0:0:0:0:
320,192,145661,1,0,0:0:0:0:
192,192,145752,1,0,0:0:0:0:
64,192,145752,1,0,0:0:0:0:
448,192,145752,128,0,145934:0:0:0:0:
320,192,145934,1,0,0:0:0:0:
192,192,146116,128,0,146298:0:0:0:0:
64,192,146116,1,0,0:0:0:0:
448,192,146298,1,0,0:0:0:0:
320,192,146479,128,0,146661:0:0:0:0:
64,192,146479,1,0,0:0:0:0:
192,192,146661,1,0,0:0:0:0:
448,192,146661,1,0,0:0:0:0:
64,192,146843,128,0,147025:0:0:0:0:
320,192,146843,1,0,0:0:0:0:
192,192,147025,1,0,0:0:0:0:
448,192,147025,1,0,0:0:0:0:
192,192,147207,1,0,0:0:0:0:
64,192,147207,1,0,0:0:0:0:
448,192,147207,1,0,0:0:0:0:
64,192,147298,1,0,0:0:0:0:
192,192,147298,1,0,0:0:0:0:
320,192,147388,1,0,0:0:0:0:
448,192,147388,1,0,0:0:0:0:
320,192,147479,1,0,0:0:0:0:
192,192,147570,1,0,0:0:0:0:
64,192,147570,1,0,0:0:0:0:
64,192,147661,1,0,0:0:0:0:
448,192,147752,1,0,0:0:0:0:
320,192,147752,1,0,0:0:0:0:
448,192,147843,1,0,0:0:0:0:
320,192,147843,1,0,0:0:0:0:
64,192,147934,1,0,0:0:0:0:
192,192,147934,1,0,0:0:0:0:
320,192,148025,1,0,0:0:0:0:
448,192,148025,1,0,0:0:0:0:
192,192,148116,1,0,0:0:0:0:
64,192,148116,1,0,0:0:0:0:
320,192,148207,1,0,0:0:0:0:
448,192,148207,1,0,0:0:0:0:
64,192,148298,1,0,0:0:0:0:
192,192,148298,1,0,0:0:0:0:
448,192,148298,1,0,0:0:0:0:
320,192,148479,1,0,0:0:0:0:
192,192,148479,1,0,0:0:0:0:
64,192,148661,128,0,151570:0:0:0:0:
448,192,148661,1,0,0:0:0:0:
320,192,148661,1,0,0:0:0:0:
448,192,149025,1,0,0:0:0:0:
192,192,149207,1,0,0:0:0:0:
320,192,149207,1,0,0:0:0:0:
448,192,149388,128,0,150116:0:0:0:0:
192,192,149388,1,0,0:0:0:0:
192,192,149752,1,0,0:0:0:0:
320,192,149752,1,0,0:0:0:0:
192,192,150116,128,0,150843:0:0:0:0:
320,192,150116,1,0,0:0:0:0:
448,192,150298,1,0,0:0:0:0:
320,192,150298,1,0,0:0:0:0:
448,192,150479,1,0,0:0:0:0:
448,192,150661,1,0,0:0:0:0:
320,192,150843,128,0,151479:0:0:0:0:
448,192,150843,1,0,0:0:0:0:
192,192,151025,1,0,0:0:0:0:
448,192,151207,1,0,0:0:0:0:
192,192,151388,1,0,0:0:0:0:
448,192,151388,1,0,0:0:0:0:
320,192,151570,128,0,153025:0:0:0:0:
192,192,151570,1,0,0:0:0:0:
64,192,151934,1,0,0:0:0:0:
192,192,152116,1,0,0:0:0:0:
448,192,152116,1,0,0:0:0:0:
64,192,152298,128,0,152661:0:0:0:0:
448,192,152298,1,0,0:0:0:0:
192,192,152661,128,0,153025:0:0:0:0:
448,192,152661,1,0,0:0:0:0:
64,192,153025,128,0,153388:0:0:0:0:
448,192,153025,1,0,0:0:0:0:
192,192,153207,1,0,0:0:0:0:
320,192,153207,1,0,0:0:0:0:
320,192,153388,128,0,153752:0:0:0:0:
448,192,153388,1,0,0:0:0:0:
192,192,153570,1,0,0:0:0:0:
64,192,153570,1,0,0:0:0:0:
192,192,153752,128,0,154116:0:0:0:0:
448,192,153752,1,0,0:0:0:0:
64,192,153934,1,0,0:0:0:0:
320,192,153934,1,0,0:0:0:0:
448,192,154116,128,0,154479:0:0:0:0:
320,192,154116,1,0,0:0:0:0:
64,192,154298,1,0,0:0:0:0:
192,192,154298,1,0,0:0:0:0:
320,192,154479,128,0,157388:0:0:0:0:
64,192,154479,1,0,0:0:0:0:
64,192,154843,1,0,0:0:0:0:
192,192,155025,1,0,0:0:0:0:
64,192,155025,1,0,0:0:0:0:
448,192,155207,128,0,155934:0:0:0:0:
192,192,155207,1,0,0:0:0:0:
192,192,155570,1,0,0:0:0:0:
64,192,155570,1,0,0:0:0:0:
192,192,155934,128,0,156661:0:0:0:0:
64,192,155934,1,0,0:0:0:0:
64,192,156116,1,0,0:0:0:0:
448,192,156116,1,0,0:0:0:0:
448,192,156298,1,0,0:0:0:0:
448,192,156479,1,0,0:0:0:0:
448,192,156661,128,0,157025:0:0:0:0:
64,192,156661,1,0,0:0:0:0:
192,192,156843,1,0,0:0:0:0:
64,192,157025,128,0,157388:0:0:0:0:
192,192,157207,1,0,0:0:0:0:
448,192,157207,1,0,0:0:0:0:
192,192,157388,128,0,158843:0:0:0:0:
448,192,157388,1,0,0:0:0:0:
320,192,157752,1,0,0:0:0:0:
448,192,157934,1,0,0:0:0:0:
320,192,157934,1,0,0:0:0:0:
64,192,158116,128,0,158479:0:0:0:0:
448,192,158116,1,0,0:0:0:0:
320,192,158479,128,0,158843:0:0:0:0:
448,192,158479,1,0,0:0:0:0:
64,192,158843,128,0,159207:0:0:0:0:
448,192,158843,1,0,0:0:0:0:
320,192,159025,1,0,0:0:0:0:
192,192,159025,1,0,0:0:0:0:
320,192,159207,128,0,159570:0:0:0:0:
448,192,159207,1,0,0:0:0:0:
192,192,159388,1,0,0:0:0:0:
64,192,159388,1,0,0:0:0:0:
192,192,159570,128,0,159934:0:0:0:0:
448,192,159570,1,0,0:0:0:0:
64,192,159752,1,0,0:0:0:0:
320,192,159752,1,0,0:0:0:0:
448,192,159934,128,0,160298:0:0:0:0:
320,192,159934,1,0,0:0:0:0:
64,192,160116,1,0,0:0:0:0:
192,192,160116,1,0,0:0:0:0:
320,192,160298,128,0,163207:0:0:0:0:
192,192,160298,1,0,0:0:0:0:
64,192,160298,1,0,0:0:0:0:
192,192,160661,1,0,0:0:0:0:
64,192,160843,1,0,0:0:0:0:
448,192,160843,1,0,0:0:0:0:
448,192,161025,128,0,161752:0:0:0:0:
192,192,161025,1,0,0:0:0:0:
192,192,161388,1,0,0:0:0:0:
64,192,161388,1,0,0:0:0:0:
192,192,161752,128,0,162479:0:0:0:0:
64,192,161752,1,0,0:0:0:0:
64,192,161934,1,0,0:0:0:0:
448,192,161934,1,0,0:0:0:0:
448,192,162116,1,0,0:0:0:0:
448,192,162298,1,0,0:0:0:0:
448,192,162479,128,0,163207:0:0:0:0:
64,192,162479,1,0,0:0:0:0:
192,192,162661,1,0,0:0:0:0:
64,192,162843,1,0,0:0:0:0:
192,192,163025,1,0,0:0:0:0:
64,192,163025,1,0,0:0:0:0:
64,192,163207,128,0,164661:0:0:0:0:
192,192,163207,1,0,0:0:0:0:
320,192,163570,1,0,0:0:0:0:
448,192,163752,1,0,0:0:0:0:
192,192,163752,1,0,0:0:0:0:
192,192,163934,128,0,164298:0:0:0:0:
320,192,163934,1,0,0:0:0:0:
320,192,164298,128,0,164661:0:0:0:0:
448,192,164298,1,0,0:0:0:0:
192,192,164661,128,0,165025:0:0:0:0:
448,192,164661,1,0,0:0:0:0:
64,192,164843,1,0,0:0:0:0:
448,192,164843,1,0,0:0:0:0:
320,192,165025,128,0,165388:0:0:0:0:
64,192,165025,1,0,0:0:0:0:
192,192,165207,1,0,0:0:0:0:
448,192,165207,1,0,0:0:0:0:
64,192,165388,128,0,165752:0:0:0:0:
448,192,165388,1,0,0:0:0:0:
192,192,165570,1,0,0:0:0:0:
320,192,165570,1,0,0:0:0:0:
448,192,165752,128,0,166116:0:0:0:0:
192,192,165752,1,0,0:0:0:0:
320,192,165934,1,0,0:0:0:0:
64,192,165934,1,0,0:0:0:0:
192,192,166116,128,0,169025:0:0:0:0:
64,192,166116,1,0,0:0:0:0:
448,192,166479,1,0,0:0:0:0:
320,192,166661,1,0,0:0:0:0:
64,192,166661,1,0,0:0:0:0:
448,192,166843,128,0,167570:0:0:0:0:
64,192,166843,1,0,0:0:0:0:
64,192,167207,1,0,0:0:0:0:
320,192,167207,1,0,0:0:0:0:
320,192,167570,128,0,168298:0:0:0:0:
64,192,167570,1,0,0:0:0:0:
64,192,167752,1,0,0:0:0:0:
448,192,167752,1,0,0:0:0:0:
448,192,167934,1,0,0:0:0:0:
448,192,168116,1,0,0:0:0:0:
64,192,168298,128,0,169025:0:0:0:0:
448,192,168298,1,0,0:0:0:0:
320,192,168479,1,0,0:0:0:0:
448,192,168661,1,0,0:0:0:0:
320,192,168843,1,0,0:0:0:0:
448,192,168843,1,0,0:0:0:0:
448,192,169025,128,0,171207:0:0:0:0:
320,192,169025,128,0,169752:0:0:0:0:
64,192,169388,1,0,0:0:0:0:
192,192,169570,1,0,0:0:0:0:
64,192,169752,128,0,170298:0:0:0:0:
192,192,169752,1,0,0:0:0:0:
320,192,169934,1,0,0:0:0:0:
320,192,170116,1,0,0:0:0:0:
320,192,170298,1,0,0:0:0:0:
192,192,170298,1,0,0:0:0:0:
192,192,170479,1,0,0:0:0:0:
64,192,170479,1,0,0:0:0:0:
320,192,170661,1,0,0:0:0:0:
320,192,170843,1,0,0:0:0:0:
64,192,171025,1,0,0:0:0:0:
192,192,171025,1,0,0:0:0:0:
192,192,171207,1,0,0:0:0:0:
64,192,171207,1,0,0:0:0:0:
320,192,171328,1,0,0:0:0:0:
448,192,171328,1,0,0:0:0:0:
320,192,171449,1,0,0:0:0:0:
448,192,171449,1,0,0:0:0:0:
64,192,171570,1,0,0:0:0:0:
192,192,171570,1,0,0:0:0:0:
64,192,171691,1,0,0:0:0:0:
192,192,171691,1,0,0:0:0:0:
320,192,171813,128,0,171934:0:0:0:0:
448,192,171934,1,0,0:0:0:0:
192,192,171964,1,0,0:0:0:0:
64,192,174843,1,0,0:0:0:0:
320,192,174873,1,0,0:0:0:0:
192,192,174904,1,0,0:0:0:0:
448,192,174934,1,0,0:0:0:0:
192,192,177025,1,0,0:0:0:0:
64,192,177048,128,0,177752:0:0:0:0:
192,192,177752,1,0,0:0:0:0:
320,192,177775,1,0,0:0:0:0:
64,192,178116,1,0,0:0:0:0:
448,192,178116,1,0,0:0:0:0:
192,192,178237,1,0,0:0:0:0:
64,192,178237,1,0,0:0:0:0:
448,192,178358,1,0,0:0:0:0:
320,192,178358,1,0,0:0:0:0:
448,192,178479,1,0,0:0:0:0:
192,192,178479,1,0,0:0:0:0:
448,192,178843,1,0,0:0:0:0:
64,192,178843,1,0,0:0:0:0:
320,192,178964,1,0,0:0:0:0:
448,192,178964,1,0,0:0:0:0:
192,192,179085,1,0,0:0:0:0:
64,192,179085,1,0,0:0:0:0:
64,192,179207,1,0,0:0:0:0:
320,192,179207,1,0,0:0:0:0:
448,192,179570,1,0,0:0:0:0:
64,192,179570,1,0,0:0:0:0:
64,192,179691,1,0,0:0:0:0:
192,192,179691,1,0,0:0:0:0:
448,192,179813,1,0,0:0:0:0:
320,192,179813,1,0,0:0:0:0:
64,192,179934,1,0,0:0:0:0:
448,192,179934,1,0,0:0:0:0:
64,192,180055,1,0,0:0:0:0:
192,192,180055,1,0,0:0:0:0:
448,192,180176,1,0,0:0:0:0:
320,192,180176,1,0,0:0:0:0:
64,192,180298,1,0,0:0:0:0:
192,192,180343,1,0,0:0:0:0:
320,192,180388,1,0,0:0:0:0:
448,192,180434,1,0,0:0:0:0:
64,192,180479,1,0,0:0:0:0:
192,192,180525,1,0,0:0:0:0:
320,192,180570,1,0,0:0:0:0:
448,192,180616,1,0,0:0:0:0:
192,192,180661,1,0,0:0:0:0:
64,192,180661,1,0,0:0:0:0:
448,192,181025,1,0,0:0:0:0:
192,192,181025,1,0,0:0:0:0:
448,192,181146,1,0,0:0:0:0:
320,192,181146,1,0,0:0:0:0:
64,192,181267,1,0,0:0:0:0:
192,192,181267,1,0,0:0:0:0:
64,192,181388,1,0,0:0:0:0:
448,192,181388,1,0,0:0:0:0:
64,192,181752,1,0,0:0:0:0:
320,192,181752,1,0,0:0:0:0:
64,192,181873,1,0,0:0:0:0:
192,192,181873,1,0,0:0:0:0:
448,192,181994,1,0,0:0:0:0:
320,192,181994,1,0,0:0:0:0:
448,192,182116,1,0,0:0:0:0:
64,192,182116,1,0,0:0:0:0:
448,192,182479,1,0,0:0:0:0:
192,192,182479,1,0,0:0:0:0:
448,192,182601,1,0,0:0:0:0:
320,192,182601,1,0,0:0:0:0:
192,192,182722,1,0,0:0:0:0:
64,192,182722,1,0,0:0:0:0:
64,192,182843,1,0,0:0:0:0:
320,192,182843,1,0,0:0:0:0:
448,192,182964,1,0,0:0:0:0:
320,192,182964,1,0,0:0:0:0:
192,192,183085,1,0,0:0:0:0:
64,192,183085,1,0,0:0:0:0:
448,192,183207,1,0,0:0:0:0:
320,192,183252,1,0,0:0:0:0:
64,192,183298,1,0,0:0:0:0:
192,192,183343,1,0,0:0:0:0:
448,192,183388,1,0,0:0:0:0:
320,192,183434,1,0,0:0:0:0:
64,192,183479,1,0,0:0:0:0:
192,192,183525,1,0,0:0:0:0:
320,192,183570,1,0,0:0:0:0:
448,192,183570,1,0,0:0:0:0:
448,192,183934,1,0,0:0:0:0:
64,192,183934,1,0,0:0:0:0:
320,192,184055,1,0,0:0:0:0:
448,192,184055,1,0,0:0:0:0:
64,192,184176,1,0,0:0:0:0:
192,192,184176,1,0,0:0:0:0:
64,192,184298,1,0,0:0:0:0:
448,192,184298,1,0,0:0:0:0:
64,192,184661,1,0,0:0:0:0:
448,192,184661,1,0,0:0:0:0:
64,192,184782,1,0,0:0:0:0:
192,192,184782,1,0,0:0:0:0:
320,192,184904,1,0,0:0:0:0:
448,192,184904,1,0,0:0:0:0:
448,192,185025,1,0,0:0:0:0:
64,192,185025,1,0,0:0:0:0:
64,192,185388,1,0,0:0:0:0:
448,192,185388,1,0,0:0:0:0:
448,192,185510,1,0,0:0:0:0:
320,192,185510,1,0,0:0:0:0:
64,192,185631,1,0,0:0:0:0:
192,192,185631,1,0,0:0:0:0:
448,192,185752,1,0,0:0:0:0:
64,192,185752,1,0,0:0:0:0:
448,192,185873,1,0,0:0:0:0:
320,192,185873,1,0,0:0:0:0:
64,192,185994,1,0,0:0:0:0:
192,192,185994,1,0,0:0:0:0:
448,192,186116,1,0,0:0:0:0:
320,192,186161,1,0,0:0:0:0:
192,192,186207,1,0,0:0:0:0:
64,192,186252,1,0,0:0:0:0:
448,192,186298,1,0,0:0:0:0:
320,192,186343,1,0,0:0:0:0:
192,192,186388,1,0,0:0:0:0:
64,192,186434,1,0,0:0:0:0:
320,192,186479,128,0,186661:0:0:0:0:
448,192,186479,128,0,187207:0:0:0:0:
320,192,187207,128,0,187934:0:0:0:0:
192,192,187934,128,0,188661:0:0:0:0:
448,192,187934,128,0,188116:0:0:0:0:
64,192,188661,128,0,189146:0:0:0:0:
448,192,188661,128,0,189146:0:0:0:0:
320,192,189146,1,0,0:0:0:0:
192,192,189207,1,0,0:0:0:0:
64,192,189267,1,0,0:0:0:0:
448,192,189328,1,0,0:0:0:0:
64,192,189388,128,0,189570:0:0:0:0:
320,192,189388,128,0,189752:0:0:0:0:
448,192,189752,128,0,190055:0:0:0:0:
320,192,189873,128,0,190055:0:0:0:0:
192,192,189994,128,0,190055:0:0:0:0:
64,192,189994,128,0,190055:0:0:0:0:
64,192,190116,128,0,190298:0:0:0:0:
448,192,190116,128,0,190479:0:0:0:0:
64,192,190479,128,0,190782:0:0:0:0:
192,192,190601,128,0,190782:0:0:0:0:
320,192,190722,128,0,190782:0:0:0:0:
448,192,190722,128,0,190782:0:0:0:0:
64,192,190843,128,0,191116:0:0:0:0:
448,192,190843,128,0,191025:0:0:0:0:
448,192,191116,128,0,191207:0:0:0:0:
320,192,191161,128,0,191252:0:0:0:0:
64,192,191207,128,0,191510:0:0:0:0:
320,192,191328,128,0,191510:0:0:0:0:
448,192,191449,128,0,191510:0:0:0:0:
192,192,191449,128,0,191510:0:0:0:0:
448,192,191570,128,0,191813:0:0:0:0:
64,192,191570,128,0,191691:0:0:0:0:
192,192,191691,128,0,191813:0:0:0:0:
320,192,191813,128,0,191934:0:0:0:0:
64,192,191934,128,0,192176:0:0:0:0:
448,192,191934,128,0,192055:0:0:0:0:
320,192,192055,128,0,192176:0:0:0:0:
192,192,192176,128,0,192298:0:0:0:0:
64,192,192298,128,0,192479:0:0:0:0:
320,192,192298,128,0,192661:0:0:0:0:
64,192,192661,128,0,192964:0:0:0:0:
320,192,192782,128,0,192964:0:0:0:0:
192,192,192904,128,0,192964:0:0:0:0:
448,192,192904,128,0,192964:0:0:0:0:
448,192,193025,128,0,193207:0:0:0:0:
64,192,193025,128,0,193388:0:0:0:0:
192,192,193388,128,0,193691:0:0:0:0:
448,192,193510,128,0,193691:0:0:0:0:
320,192,193631,128,0,193691:0:0:0:0:
64,192,193631,128,0,193691:0:0:0:0:
64,192,193752,128,0,193934:0:0:0:0:
448,192,193752,128,0,194025:0:0:0:0:
64,192,194025,128,0,194116:0:0:0:0:
192,192,194070,128,0,194161:0:0:0:0:
320,192,194116,128,0,194419:0:0:0:0:
64,192,194237,128,0,194419:0:0:0:0:
448,192,194358,128,0,194419:0:0:0:0:
192,192,194358,128,0,194419:0:0:0:0:
448,192,194479,128,0,194722:0:0:0:0:
64,192,194479,128,0,194601:0:0:0:0:
192,192,194601,128,0,194722:0:0:0:0:
320,192,194722,128,0,194843:0:0:0:0:
64,192,194843,128,0,195085:0:0:0:0:
448,192,194843,128,0,194964:0:0:0:0:
320,192,194964,128,0,195085:0:0:0:0:
192,192,195085,128,0,195207:0:0:0:0:
448,192,195207,128,0,195388:0:0:0:0:
64,192,195207,128,0,195570:0:0:0:0:
320,192,195207,1,0,0:0:0:0:
448,192,195570,128,0,195873:0:0:0:0:
192,192,195570,1,0,0:0:0:0:
320,192,195691,128,0,195873:0:0:0:0:
192,192,195813,128,0,195873:0:0:0:0:
64,192,195813,128,0,195873:0:0:0:0:
64,192,195934,128,0,196116:0:0:0:0:
448,192,195934,128,0,196298:0:0:0:0:
320,192,195934,1,0,0:0:0:0:
64,192,196298,128,0,196601:0:0:0:0:
320,192,196298,1,0,0:0:0:0:
192,192,196419,128,0,196601:0:0:0:0:
448,192,196540,128,0,196601:0:0:0:0:
320,192,196540,128,0,196601:0:0:0:0:
64,192,196661,128,0,196934:0:0:0:0:
448,192,196661,128,0,196843:0:0:0:0:
448,192,196934,128,0,197025:0:0:0:0:
320,192,196979,128,0,197070:0:0:0:0:
64,192,197025,128,0,197328:0:0:0:0:
192,192,197025,1,0,0:0:0:0:
320,192,197146,128,0,197328:0:0:0:0:
192,192,197267,128,0,197328:0:0:0:0:
448,192,197267,128,0,197328:0:0:0:0:
448,192,197388,128,0,197631:0:0:0:0:
64,192,197388,128,0,197510:0:0:0:0:
320,192,197388,1,0,0:0:0:0:
192,192,197510,128,0,197631:0:0:0:0:
320,192,197631,128,0,197752:0:0:0:0:
64,192,197752,128,0,197994:0:0:0:0:
448,192,197752,128,0,197873:0:0:0:0:
320,192,197873,128,0,197994:0:0:0:0:
192,192,197994,128,0,198116:0:0:0:0:
64,192,198116,128,0,198298:0:0:0:0:
320,192,198116,128,0,198479:0:0:0:0:
64,192,198479,128,0,198782:0:0:0:0:
448,192,198479,1,0,0:0:0:0:
320,192,198601,128,0,198782:0:0:0:0:
192,192,198722,128,0,198782:0:0:0:0:
448,192,198722,128,0,198782:0:0:0:0:
192,192,198843,128,0,199025:0:0:0:0:
64,192,198843,128,0,199207:0:0:0:0:
320,192,198843,1,0,0:0:0:0:
320,192,199207,1,0,0:0:0:0:
192,192,199207,128,0,199510:0:0:0:0:
448,192,199328,128,0,199510:0:0:0:0:
320,192,199449,128,0,199510:0:0:0:0:
64,192,199449,128,0,199510:0:0:0:0:
320,192,199570,128,0,199934:0:0:0:0:
448,192,199570,128,0,200298:0:0:0:0:
192,192,199570,128,0,199843:0:0:0:0:
64,192,199934,1,0,0:0:0:0:
320,192,200025,1,0,0:0:0:0:
64,192,200116,1,0,0:0:0:0:
320,192,200207,1,0,0:0:0:0:
192,192,200298,128,0,200388:0:0:0:0:
64,192,200298,1,0,0:0:0:0:
320,192,200388,128,0,200479:0:0:0:0:
448,192,200388,1,0,0:0:0:0:
64,192,200479,1,0,0:0:0:0:
192,192,200479,128,0,200570:0:0:0:0:
448,192,200570,1,0,0:0:0:0:
320,192,200570,128,0,200661:0:0:0:0:
64,192,200661,1,0,0:0:0:0:
192,192,200661,1,0,0:0:0:0:
64,192,200752,1,0,0:0:0:0:
448,192,200752,1,0,0:0:0:0:
448,192,200843,1,0,0:0:0:0:
320,192,200843,1,0,0:0:0:0:
64,192,200934,1,0,0:0:0:0:
192,192,200934,1,0,0:0:0:0:
448,192,201025,128,0,201116:0:0:0:0:
320,192,201025,128,0,201116:0:0:0:0:
64,192,201025,128,0,201116:0:0:0:0:
320,192,201207,1,0,0:0:0:0:
448,192,201207,1,0,0:0:0:0:
192,192,201388,1,0,0:0:0:0:
64,192,201388,1,0,0:0:0:0:
448,192,201388,1,0,0:0:0:0:
64,192,201570,128,0,201661:0:0:0:0:
320,192,201570,128,0,201661:0:0:0:0:
192,192,201661,1,0,0:0:0:0:
448,192,201661,1,0,0:0:0:0:
320,192,201752,1,0,0:0:0:0:
64,192,201934,128,0,202025:0:0:0:0:
320,192,201934,1,0,0:0:0:0:
192,192,202025,128,0,202116:0:0:0:0:
448,192,202116,1,0,0:0:0:0:
320,192,202116,128,0,202207:0:0:0:0:
64,192,202116,128,0,202207:0:0:0:0:
448,192,202298,128,0,202388:0:0:0:0:
192,192,202298,128,0,202388:0:0:0:0:
320,192,202479,1,0,0:0:0:0:
64,192,202661,128,0,202752:0:0:0:0:
192,192,202661,1,0,0:0:0:0:
320,192,202752,128,0,202843:0:0:0:0:
448,192,202843,128,0,203025:0:0:0:0:
64,192,202843,1,0,0:0:0:0:
192,192,202843,1,0,0:0:0:0:
320,192,202934,128,0,203116:0:0:0:0:
192,192,203025,128,0,203207:0:0:0:0:
64,192,203116,128,0,203207:0:0:0:0:
448,192,203116,1,0,0:0:0:0:
320,192,203207,128,0,203388:0:0:0:0:
192,192,203298,128,0,203479:0:0:0:0:
448,192,203388,128,0,203479:0:0:0:0:
64,192,203388,1,0,0:0:0:0:
320,192,203479,128,0,203570:0:0:0:0:
192,192,203570,128,0,203752:0:0:0:0:
64,192,203570,1,0,0:0:0:0:
448,192,203570,1,0,0:0:0:0:
320,192,203661,128,0,203843:0:0:0:0:
64,192,203752,128,0,203934:0:0:0:0:
448,192,203752,1,0,0:0:0:0:
192,192,203843,128,0,203934:0:0:0:0:
448,192,203934,128,0,204025:0:0:0:0:
320,192,203934,128,0,204116:0:0:0:0:
448,192,204116,1,0,0:0:0:0:
192,192,204116,128,0,204207:0:0:0:0:
64,192,204207,128,0,204298:0:0:0:0:
192,192,204298,1,0,0:0:0:0:
320,192,204298,1,0,0:0:0:0:
448,192,204298,128,0,204388:0:0:0:0:
320,192,204479,128,0,204570:0:0:0:0:
192,192,204479,128,0,204661:0:0:0:0:
64,192,204570,1,0,0:0:0:0:
448,192,204570,1,0,0:0:0:0:
320,192,204661,128,0,204752:0:0:0:0:
192,192,204752,128,0,204843:0:0:0:0:
448,192,204843,1,0,0:0:0:0:
64,192,204843,128,0,204934:0:0:0:0:
64,192,205025,128,0,205116:0:0:0:0:
320,192,205025,1,0,0:0:0:0:
448,192,205025,128,0,205298:0:0:0:0:
320,192,205207,128,0,205298:0:0:0:0:
192,192,205207,128,0,205298:0:0:0:0:
192,192,205388,1,0,0:0:0:0:
64,192,205510,128,0,205570:0:0:0:0:
448,192,205510,128,0,205570:0:0:0:0:
192,192,205570,1,0,0:0:0:0:
320,192,205570,1,0,0:0:0:0:
64,192,205752,1,0,0:0:0:0:
448,192,205752,128,0,205843:0:0:0:0:
320,192,205752,128,0,205843:0:0:0:0:
320,192,205934,128,0,206025:0:0:0:0:
64,192,205934,128,0,206025:0:0:0:0:
448,192,206025,1,0,0:0:0:0:
192,192,206025,1,0,0:0:0:0:
320,192,206116,128,0,206237:0:0:0:0:
64,192,206116,128,0,206358:0:0:0:0:
192,192,206237,128,0,206358:0:0:0:0:
448,192,206298,1,0,0:0:0:0:
320,192,206358,128,0,206479:0:0:0:0:
192,192,206479,1,0,0:0:0:0:
64,192,206479,1,0,0:0:0:0:
448,192,206479,128,0,206661:0:0:0:0:
320,192,206570,128,0,206752:0:0:0:0:
192,192,206661,128,0,206843:0:0:0:0:
64,192,206661,1,0,0:0:0:0:
448,192,206752,128,0,206843:0:0:0:0:
320,192,206843,1,0,0:0:0:0:
64,192,206843,128,0,207025:0:0:0:0:
192,192,206934,128,0,207025:0:0:0:0:
448,192,207025,128,0,207116:0:0:0:0:
320,192,207025,1,0,0:0:0:0:
64,192,207116,128,0,207207:0:0:0:0:
192,192,207207,1,0,0:0:0:0:
320,192,207207,1,0,0:0:0:0:
448,192,207207,128,0,207388:0:0:0:0:
64,192,207298,128,0,207388:0:0:0:0:
192,192,207388,128,0,207570:0:0:0:0:
64,192,207479,1,0,0:0:0:0:
320,192,207479,128,0,207570:0:0:0:0:
448,192,207570,128,0,207631:0:0:0:0:
192,192,207631,128,0,207691:0:0:0:0:
64,192,207691,128,0,207752:0:0:0:0:
320,192,207752,128,0,207843:0:0:0:0:
448,192,207752,1,0,0:0:0:0:
192,192,207843,128,0,207934:0:0:0:0:
448,192,207934,1,0,0:0:0:0:
64,192,207934,1,0,0:0:0:0:
320,192,207934,128,0,208116:0:0:0:0:
192,192,208025,128,0,208207:0:0:0:0:
448,192,208116,128,0,208298:0:0:0:0:
64,192,208116,1,0,0:0:0:0:
320,192,208207,128,0,208298:0:0:0:0:
64,192,208298,128,0,208479:0:0:0:0:
192,192,208388,128,0,208570:0:0:0:0:
448,192,208479,1,0,0:0:0:0:
320,192,208479,128,0,208570:0:0:0:0:
64,192,208570,128,0,208661:0:0:0:0:
448,192,208661,128,0,208843:0:0:0:0:
320,192,208661,1,0,0:0:0:0:
192,192,208661,1,0,0:0:0:0:
64,192,208752,128,0,208934:0:0:0:0:
320,192,208843,128,0,208934:0:0:0:0:
448,192,208934,1,0,0:0:0:0:
192,192,208934,128,0,209025:0:0:0:0:
320,192,209025,128,0,209085:0:0:0:0:
64,192,209025,128,0,209085:0:0:0:0:
64,192,209146,128,0,209207:0:0:0:0:
192,192,209146,128,0,209207:0:0:0:0:
320,192,209267,128,0,209328:0:0:0:0:
448,192,209267,128,0,209328:0:0:0:0:
64,192,209388,1,0,0:0:0:0:
192,192,209388,1,0,0:0:0:0:
320,192,209388,128,0,209570:0:0:0:0:
448,192,209479,128,0,209661:0:0:0:0:
192,192,209570,128,0,209752:0:0:0:0:
64,192,209570,1,0,0:0:0:0:
320,192,209661,128,0,209752:0:0:0:0:
64,192,209752,128,0,209843:0:0:0:0:
448,192,209752,128,0,210116:0:0:0:0:
320,192,209934,128,0,210025:0:0:0:0:
192,192,209934,1,0,0:0:0:0:
192,192,210116,1,0,0:0:0:0:
320,192,210116,128,0,210298:0:0:0:0:
64,192,210116,128,0,210207:0:0:0:0:
64,192,210298,128,0,210661:0:0:0:0:
448,192,210298,128,0,210388:0:0:0:0:
320,192,210388,1,0,0:0:0:0:
192,192,210388,1,0,0:0:0:0:
448,192,210479,128,0,210661:0:0:0:0:
320,192,210661,128,0,210843:0:0:0:0:
192,192,210661,128,0,210752:0:0:0:0:
64,192,210843,128,0,211025:0:0:0:0:
448,192,210843,1,0,0:0:0:0:
192,192,210843,128,0,210934:0:0:0:0:
320,192,211025,128,0,211207:0:0:0:0:
448,192,211025,128,0,211207:0:0:0:0:
64,192,211207,5,0,0:0:0:0:
192,192,211328,128,0,211388:0:0:0:0:
448,192,211328,128,0,211388:0:0:0:0:
320,192,211388,1,0,0:0:0:0:
64,192,211388,1,0,0:0:0:0:
192,192,211570,1,0,0:0:0:0:
448,192,211570,128,0,211661:0:0:0:0:
320,192,211570,128,0,211661:0:0:0:0:
64,192,211752,128,0,211843:0:0:0:0:
448,192,211752,128,0,211843:0:0:0:0:
192,192,211843,1,0,0:0:0:0:
448,192,211934,5,0,0:0:0:0:
64,192,211934,1,0,0:0:0:0:
320,192,211934,128,0,212025:0:0:0:0:
192,192,212025,128,0,212116:0:0:0:0:
320,192,212116,128,0,212207:0:0:0:0:
192,192,212207,128,0,212298:0:0:0:0:
64,192,212298,128,0,212388:0:0:0:0:
320,192,212298,1,0,0:0:0:0:
448,192,212328,1,0,0:0:0:0:
192,192,212388,128,0,212479:0:0:0:0:
320,192,212479,128,0,212570:0:0:0:0:
64,192,212479,1,0,0:0:0:0:
448,192,212570,128,0,212661:0:0:0:0:
64,192,212661,1,0,0:0:0:0:
192,192,212661,1,0,0:0:0:0:
320,192,212661,128,0,212934:0:0:0:0:
448,192,212843,128,0,213116:0:0:0:0:
192,192,212843,1,0,0:0:0:0:
320,192,213025,128,0,213298:0:0:0:0:
64,192,213025,1,0,0:0:0:0:
192,192,213025,1,0,0:0:0:0:
64,192,213207,128,0,213388:0:0:0:0:
448,192,213298,1,0,0:0:0:0:
192,192,213298,1,0,0:0:0:0:
320,192,213388,128,0,213479:0:0:0:0:
192,192,213479,128,0,213570:0:0:0:0:
320,192,213570,128,0,213661:0:0:0:0:
448,192,213570,1,0,0:0:0:0:
64,192,213661,128,0,213752:0:0:0:0:
448,192,213752,1,0,0:0:0:0:
192,192,213752,1,0,0:0:0:0:
320,192,213752,128,0,213843:0:0:0:0:
64,192,213843,128,0,213934:0:0:0:0:
448,192,213934,128,0,214025:0:0:0:0:
192,192,213934,1,0,0:0:0:0:
320,192,214025,128,0,214116:0:0:0:0:
192,192,214116,128,0,214388:0:0:0:0:
320,192,214298,128,0,214570:0:0:0:0:
448,192,214298,1,0,0:0:0:0:
192,192,214479,1,0,0:0:0:0:
448,192,214479,1,0,0:0:0:0:
64,192,214479,128,0,214661:0:0:0:0:
320,192,214661,128,0,214752:0:0:0:0:
192,192,214707,128,0,214934:0:0:0:0:
64,192,214752,1,0,0:0:0:0:
448,192,214752,1,0,0:0:0:0:
320,192,214843,128,0,215025:0:0:0:0:
448,192,215025,1,0,0:0:0:0:
192,192,215025,128,0,215116:0:0:0:0:
64,192,215116,128,0,215207:0:0:0:0:
320,192,215207,1,0,0:0:0:0:
192,192,215207,1,0,0:0:0:0:
448,192,215207,128,0,215298:0:0:0:0:
64,192,215298,128,0,215388:0:0:0:0:
448,192,215388,128,0,215479:0:0:0:0:
192,192,215388,1,0,0:0:0:0:
320,192,215479,128,0,215570:0:0:0:0:
64,192,215570,128,0,215843:0:0:0:0:
192,192,215570,1,0,0:0:0:0:
320,192,215752,128,0,216025:0:0:0:0:
448,192,215752,1,0,0:0:0:0:
448,192,215934,128,0,216116:0:0:0:0:
192,192,215934,1,0,0:0:0:0:
64,192,215934,1,0,0:0:0:0:
64,192,216116,128,0,216207:0:0:0:0:
192,192,216161,128,0,216570:0:0:0:0:
320,192,216207,1,0,0:0:0:0:
448,192,216207,1,0,0:0:0:0:
64,192,216298,1,0,0:0:0:0:
448,192,216479,1,0,0:0:0:0:
64,192,216479,128,0,216661:0:0:0:0:
192,192,216661,1,0,0:0:0:0:
448,192,216661,1,0,0:0:0:0:
320,192,216661,128,0,216752:0:0:0:0:
64,192,216752,128,0,216843:0:0:0:0:
320,192,216843,128,0,217298:0:0:0:0:
448,192,216843,1,0,0:0:0:0:
192,192,217025,1,0,0:0:0:0:
448,192,217207,1,0,0:0:0:0:
64,192,217207,128,0,217479:0:0:0:0:
192,192,217388,128,0,217570:0:0:0:0:
320,192,217388,1,0,0:0:0:0:
448,192,217388,1,0,0:0:0:0:
320,192,217570,128,0,217843:0:0:0:0:
192,192,217661,1,0,0:0:0:0:
64,192,217661,1,0,0:0:0:0:
448,192,217752,128,0,218025:0:0:0:0:
320,192,217934,128,0,218207:0:0:0:0:
64,192,217934,1,0,0:0:0:0:
192,192,218116,128,0,218388:0:0:0:0:
64,192,218116,1,0,0:0:0:0:
448,192,218116,1,0,0:0:0:0:
64,192,218298,128,0,218479:0:0:0:0:
320,192,218298,1,0,0:0:0:0:
448,192,218388,1,0,0:0:0:0:
192,192,218479,1,0,0:0:0:0:
320,192,218479,128,0,218570:0:0:0:0:
448,192,218570,128,0,218661:0:0:0:0:
192,192,218661,128,0,218752:0:0:0:0:
64,192,218661,1,0,0:0:0:0:
320,192,218752,128,0,218843:0:0:0:0:
448,192,218843,128,0,218934:0:0:0:0:
192,192,218843,1,0,0:0:0:0:
64,192,218843,1,0,0:0:0:0:
320,192,218934,128,0,219025:0:0:0:0:
192,192,219025,128,0,219116:0:0:0:0:
320,192,219116,128,0,219207:0:0:0:0:
448,192,219116,1,0,0:0:0:0:
64,192,219207,128,0,219298:0:0:0:0:
320,192,219298,128,0,219388:0:0:0:0:
192,192,219388,128,0,219479:0:0:0:0:
448,192,219388,1,0,0:0:0:0:
64,192,219479,128,0,219570:0:0:0:0:
448,192,219570,128,0,219631:0:0:0:0:
320,192,219570,1,0,0:0:0:0:
192,192,219631,128,0,219691:0:0:0:0:
320,192,219691,128,0,219752:0:0:0:0:
64,192,219752,128,0,219813:0:0:0:0:
448,192,219813,128,0,219873:0:0:0:0:
320,192,219873,128,0,219934:0:0:0:0:
192,192,219934,128,0,220025:0:0:0:0:
320,192,220025,128,0,220116:0:0:0:0:
64,192,220116,128,0,220207:0:0:0:0:
192,192,220116,1,0,0:0:0:0:
448,192,220207,128,0,220298:0:0:0:0:
320,192,220298,128,0,220388:0:0:0:0:
64,192,220298,1,0,0:0:0:0:
192,192,220298,1,0,0:0:0:0:
448,192,220388,128,0,220479:0:0:0:0:
64,192,220479,128,0,220570:0:0:0:0:
192,192,220570,128,0,220661:0:0:0:0:
448,192,220570,1,0,0:0:0:0:
320,192,220661,128,0,220722:0:0:0:0:
448,192,220722,128,0,220782:0:0:0:0:
192,192,220782,128,0,220843:0:0:0:0:
320,192,220843,128,0,220904:0:0:0:0:
64,192,220904,128,0,220964:0:0:0:0:
192,192,220964,128,0,221025:0:0:0:0:
448,192,221025,128,0,221085:0:0:0:0:
320,192,221025,1,0,0:0:0:0:
64,192,221085,128,0,221146:0:0:0:0:
192,192,221146,128,0,221207:0:0:0:0:
448,192,221207,128,0,221267:0:0:0:0:
320,192,221267,128,0,221328:0:0:0:0:
192,192,221328,128,0,221388:0:0:0:0:
448,192,221388,128,0,221540:0:0:0:0:
64,192,221388,1,0,0:0:0:0:
64,192,221540,128,0,221661:0:0:0:0:
192,192,221601,128,0,221661:0:0:0:0:
320,192,221631,128,0,221691:0:0:0:0:
448,192,221661,128,0,221782:0:0:0:0:
64,192,221782,128,0,221904:0:0:0:0:
192,192,221843,128,0,221904:0:0:0:0:
320,192,221873,128,0,221934:0:0:0:0:
448,192,221904,128,0,222025:0:0:0:0:
64,192,222025,128,0,222146:0:0:0:0:
192,192,222085,128,0,222146:0:0:0:0:
320,192,222116,128,0,222176:0:0:0:0:
448,192,222146,128,0,222267:0:0:0:0:
64,192,222267,128,0,222388:0:0:0:0:
192,192,222328,128,0,222388:0:0:0:0:
320,192,222358,128,0,222419:0:0:0:0:
448,192,222388,128,0,222479:0:0:0:0:
64,192,222479,1,0,0:0:0:0:
192,192,222479,128,0,222540:0:0:0:0:
448,192,222540,128,0,222601:0:0:0:0:
320,192,222601,128,0,222661:0:0:0:0:
64,192,222661,128,0,222722:0:0:0:0:
192,192,222722,128,0,222782:0:0:0:0:
320,192,222782,128,0,222843:0:0:0:0:
448,192,222843,1,0,0:0:0:0:
192,192,222843,1,0,0:0:0:0:
64,192,222843,1,0,0:0:0:0:
64,192,222934,1,0,0:0:0:0:
192,192,222934,1,0,0:0:0:0:
320,192,223025,1,0,0:0:0:0:
448,192,223025,1,0,0:0:0:0:
448,192,223116,1,0,0:0:0:0:
64,192,223207,1,0,0:0:0:0:
192,192,223207,1,0,0:0:0:0:
192,192,223298,1,0,0:0:0:0:
320,192,223388,1,0,0:0:0:0:
448,192,223388,1,0,0:0:0:0:
320,192,223479,1,0,0:0:0:0:
448,192,223479,1,0,0:0:0:0:
192,192,223570,1,0,0:0:0:0:
64,192,223570,1,0,0:0:0:0:
320,192,223631,1,0,0:0:0:0:
448,192,223631,1,0,0:0:0:0:
192,192,223691,1,0,0:0:0:0:
64,192,223691,1,0,0:0:0:0:
320,192,223752,1,0,0:0:0:0:
448,192,223752,1,0,0:0:0:0:
320,192,223843,1,0,0:0:0:0:
64,192,223934,1,0,0:0:0:0:
192,192,223934,1,0,0:0:0:0:
448,192,224025,1,0,0:0:0:0:
320,192,224025,1,0,0:0:0:0:
192,192,224116,1,0,0:0:0:0:
64,192,224116,1,0,0:0:0:0:
448,192,224207,1,0,0:0:0:0:
320,192,224207,1,0,0:0:0:0:
64,192,224298,128,0,224479:0:0:0:0:
448,192,224298,128,0,224479:0:0:0:0:
192,192,224298,128,0,224661:0:0:0:0:
64,192,224661,128,0,224964:0:0:0:0:
320,192,224661,128,0,224782:0:0:0:0:
192,192,224782,128,0,224964:0:0:0:0:
320,192,224904,128,0,224964:0:0:0:0:
448,192,224904,128,0,224964:0:0:0:0:
448,192,225025,128,0,225207:0:0:0:0:
192,192,225025,128,0,225207:0:0:0:0:
64,192,225025,128,0,225388:0:0:0:0:
192,192,225388,128,0,225510:0:0:0:0:
448,192,225388,128,0,225691:0:0:0:0:
320,192,225510,128,0,225691:0:0:0:0:
192,192,225631,128,0,225691:0:0:0:0:
64,192,225631,128,0,225691:0:0:0:0:
448,192,225752,128,0,226025:0:0:0:0:
320,192,225752,128,0,225934:0:0:0:0:
64,192,225752,128,0,225934:0:0:0:0:
64,192,226025,128,0,226116:0:0:0:0:
192,192,226070,128,0,226161:0:0:0:0:
448,192,226116,128,0,226419:0:0:0:0:
320,192,226116,128,0,226237:0:0:0:0:
192,192,226237,128,0,226419:0:0:0:0:
320,192,226358,128,0,226419:0:0:0:0:
64,192,226358,128,0,226419:0:0:0:0:
64,192,226479,128,0,226722:0:0:0:0:
448,192,226479,128,0,226601:0:0:0:0:
192,192,226479,128,0,226601:0:0:0:0:
320,192,226601,128,0,226722:0:0:0:0:
192,192,226722,128,0,226843:0:0:0:0:
448,192,226843,128,0,227085:0:0:0:0:
320,192,226843,128,0,226964:0:0:0:0:
64,192,226843,128,0,226964:0:0:0:0:
192,192,226964,128,0,227085:0:0:0:0:
320,192,227085,128,0,227207:0:0:0:0:
64,192,227207,128,0,227388:0:0:0:0:
448,192,227207,128,0,227388:0:0:0:0:
192,192,227207,128,0,227570:0:0:0:0:
448,192,227570,128,0,227873:0:0:0:0:
64,192,227570,128,0,227691:0:0:0:0:
192,192,227691,128,0,227873:0:0:0:0:
320,192,227813,128,0,227873:0:0:0:0:
64,192,227813,128,0,227873:0:0:0:0:
192,192,227934,128,0,228116:0:0:0:0:
320,192,227934,128,0,228116:0:0:0:0:
448,192,227934,128,0,228298:0:0:0:0:
320,192,228298,128,0,228601:0:0:0:0:
192,192,228298,128,0,228419:0:0:0:0:
64,192,228419,128,0,228601:0:0:0:0:
448,192,228540,128,0,228601:0:0:0:0:
192,192,228540,128,0,228601:0:0:0:0:
192,192,228661,128,0,228843:0:0:0:0:
64,192,228661,128,0,228934:0:0:0:0:
320,192,228661,128,0,228843:0:0:0:0:
448,192,228934,128,0,229025:0:0:0:0:
320,192,228979,128,0,229070:0:0:0:0:
64,192,229025,128,0,229146:0:0:0:0:
192,192,229025,128,0,229328:0:0:0:0:
448,192,229146,128,0,229328:0:0:0:0:
320,192,229267,128,0,229328:0:0:0:0:
64,192,229267,128,0,229328:0:0:0:0:
320,192,229388,128,0,229570:0:0:0:0:
64,192,229388,128,0,229570:0:0:0:0:
448,192,229388,128,0,229479:0:0:0:0:
448,192,229570,128,0,229752:0:0:0:0:
192,192,229570,128,0,229661:0:0:0:0:
64,192,229752,128,0,229934:0:0:0:0:
192,192,229752,128,0,229934:0:0:0:0:
320,192,229752,128,0,229843:0:0:0:0:
320,192,229934,128,0,230116:0:0:0:0:
448,192,229934,128,0,230025:0:0:0:0:
64,192,230116,128,0,230298:0:0:0:0:
448,192,230116,128,0,230298:0:0:0:0:
192,192,230116,128,0,230479:0:0:0:0:
64,192,230479,128,0,230782:0:0:0:0:
320,192,230479,128,0,230601:0:0:0:0:
192,192,230601,128,0,230782:0:0:0:0:
320,192,230722,128,0,230782:0:0:0:0:
448,192,230722,128,0,230782:0:0:0:0:
448,192,230843,128,0,231025:0:0:0:0:
192,192,230843,128,0,231025:0:0:0:0:
64,192,230843,128,0,231207:0:0:0:0:
192,192,231207,128,0,231328:0:0:0:0:
448,192,231207,128,0,231510:0:0:0:0:
320,192,231207,1,0,0:0:0:0:
320,192,231328,128,0,231510:0:0:0:0:
192,192,231449,128,0,231510:0:0:0:0:
64,192,231449,128,0,231510:0:0:0:0:
448,192,231570,128,0,231843:0:0:0:0:
320,192,231570,128,0,231661:0:0:0:0:
64,192,231570,128,0,231752:0:0:0:0:
192,192,231752,1,0,0:0:0:0:
320,192,231752,1,0,0:0:0:0:
64,192,231843,128,0,231934:0:0:0:0:
192,192,231888,128,0,231979:0:0:0:0:
448,192,231934,128,0,232237:0:0:0:0:
320,192,231934,128,0,232055:0:0:0:0:
192,192,232055,128,0,232237:0:0:0:0:
320,192,232176,128,0,232237:0:0:0:0:
64,192,232176,128,0,232237:0:0:0:0:
64,192,232298,128,0,232540:0:0:0:0:
448,192,232298,128,0,232419:0:0:0:0:
192,192,232298,128,0,232419:0:0:0:0:
320,192,232419,128,0,232540:0:0:0:0:
192,192,232540,128,0,232661:0:0:0:0:
448,192,232661,128,0,232782:0:0:0:0:
320,192,232661,128,0,232782:0:0:0:0:
64,192,232661,128,0,232782:0:0:0:0:
192,192,232782,128,0,232904:0:0:0:0:
64,192,232843,1,0,0:0:0:0:
448,192,232843,1,0,0:0:0:0:
320,192,232904,128,0,233025:0:0:0:0:
64,192,233025,128,0,233207:0:0:0:0:
448,192,233025,128,0,233207:0:0:0:0:
192,192,233025,128,0,233388:0:0:0:0:
448,192,233388,128,0,233691:0:0:0:0:
64,192,233388,128,0,233510:0:0:0:0:
192,192,233510,128,0,233691:0:0:0:0:
320,192,233631,128,0,233691:0:0:0:0:
64,192,233631,128,0,233691:0:0:0:0:
192,192,233752,128,0,233934:0:0:0:0:
320,192,233752,128,0,233934:0:0:0:0:
448,192,233752,128,0,234116:0:0:0:0:
320,192,234116,128,0,234419:0:0:0:0:
192,192,234116,128,0,234237:0:0:0:0:
64,192,234116,1,0,0:0:0:0:
64,192,234237,128,0,234419:0:0:0:0:
192,192,234358,128,0,234419:0:0:0:0:
448,192,234358,128,0,234419:0:0:0:0:
64,192,234479,1,0,0:0:0:0:
448,192,234479,1,0,0:0:0:0:
320,192,234479,1,0,0:0:0:0:
320,192,234570,1,0,0:0:0:0:
448,192,234570,1,0,0:0:0:0:
192,192,234661,1,0,0:0:0:0:
64,192,234661,1,0,0:0:0:0:
192,192,234752,1,0,0:0:0:0:
448,192,234843,1,0,0:0:0:0:
320,192,234843,1,0,0:0:0:0:
192,192,235025,1,0,0:0:0:0:
64,192,235025,1,0,0:0:0:0:
320,192,235116,1,0,0:0:0:0:
448,192,235116,1,0,0:0:0:0:
64,192,235207,1,0,0:0:0:0:
192,192,235207,1,0,0:0:0:0:
320,192,235267,1,0,0:0:0:0:
448,192,235267,1,0,0:0:0:0:
192,192,235328,1,0,0:0:0:0:
64,192,235328,1,0,0:0:0:0:
448,192,235388,1,0,0:0:0:0:
320,192,235449,1,0,0:0:0:0:
192,192,235510,1,0,0:0:0:0:
448,192,235570,1,0,0:0:0:0:
320,192,235570,1,0,0:0:0:0:
192,192,235661,1,0,0:0:0:0:
64,192,235661,1,0,0:0:0:0:
320,192,235752,1,0,0:0:0:0:
448,192,235752,1,0,0:0:0:0:
192,192,235843,1,0,0:0:0:0:
64,192,235843,1,0,0:0:0:0:
320,192,235934,128,0,236025:0:0:0:0:
448,192,235934,128,0,236025:0:0:0:0:
192,192,235957,1,0,0:0:0:0:
64,192,235957,1,0,0:0:0:0:
192,192,236116,1,0,0:0:0:0:
448,192,236116,1,0,0:0:0:0:
192,192,236298,1,0,0:0:0:0:
64,192,236298,1,0,0:0:0:0:
320,192,236320,1,0,0:0:0:0:
448,192,236320,1,0,0:0:0:0:
64,192,236479,1,0,0:0:0:0:
320,192,236479,1,0,0:0:0:0:
448,192,236661,1,0,0:0:0:0:
320,192,236661,1,0,0:0:0:0:
192,192,236684,1,0,0:0:0:0:
64,192,236684,1,0,0:0:0:0:
448,192,236752,1,0,0:0:0:0:
192,192,236843,1,0,0:0:0:0:
64,192,236843,1,0,0:0:0:0:
320,192,237025,1,0,0:0:0:0:
448,192,237025,1,0,0:0:0:0:
192,192,237207,1,0,0:0:0:0:
64,192,237207,1,0,0:0:0:0:
320,192,237229,1,0,0:0:0:0:
448,192,237229,1,0,0:0:0:0:
192,192,237388,128,0,237479:0:0:0:0:
64,192,237388,128,0,237479:0:0:0:0:
320,192,237570,1,0,0:0:0:0:
192,192,237570,1,0,0:0:0:0:
448,192,237752,1,0,0:0:0:0:
320,192,237752,1,0,0:0:0:0:
192,192,237775,1,0,0:0:0:0:
64,192,237775,1,0,0:0:0:0:
64,192,237934,1,0,0:0:0:0:
192,192,237934,1,0,0:0:0:0:
448,192,238116,1,0,0:0:0:0:
320,192,238116,1,0,0:0:0:0:
192,192,238207,1,0,0:0:0:0:
448,192,238207,1,0,0:0:0:0:
192,192,238298,1,0,0:0:0:0:
64,192,238298,1,0,0:0:0:0:
192,192,238479,1,0,0:0:0:0:
64,192,238479,1,0,0:0:0:0:
64,192,238570,1,0,0:0:0:0:
320,192,238570,1,0,0:0:0:0:
320,192,238661,1,0,0:0:0:0:
448,192,238661,1,0,0:0:0:0:
192,192,238843,128,0,238934:0:0:0:0:
64,192,238843,128,0,238934:0:0:0:0:
320,192,238866,1,0,0:0:0:0:
448,192,238866,1,0,0:0:0:0:
320,192,239025,1,0,0:0:0:0:
64,192,239025,1,0,0:0:0:0:
320,192,239207,1,0,0:0:0:0:
448,192,239207,1,0,0:0:0:0:
192,192,239229,1,0,0:0:0:0:
64,192,239229,1,0,0:0:0:0:
448,192,239388,1,0,0:0:0:0:
192,192,239388,1,0,0:0:0:0:
64,192,239570,1,0,0:0:0:0:
192,192,239570,1,0,0:0:0:0:
64,192,239661,1,0,0:0:0:0:
448,192,239752,1,0,0:0:0:0:
192,192,239752,1,0,0:0:0:0:
320,192,239775,1,0,0:0:0:0:
64,192,239934,1,0,0:0:0:0:
448,192,239934,1,0,0:0:0:0:
320,192,240116,1,0,0:0:0:0:
64,192,240116,1,0,0:0:0:0:
192,192,240138,1,0,0:0:0:0:
320,192,240298,128,0,240388:0:0:0:0:
448,192,240298,128,0,240388:0:0:0:0:
192,192,240479,1,0,0:0:0:0:
320,192,240479,1,0,0:0:0:0:
64,192,240661,1,0,0:0:0:0:
192,192,240661,1,0,0:0:0:0:
320,192,240684,1,0,0:0:0:0:
448,192,240684,1,0,0:0:0:0:
448,192,240843,1,0,0:0:0:0:
320,192,240843,1,0,0:0:0:0:
448,192,241025,1,0,0:0:0:0:
64,192,241025,1,0,0:0:0:0:
192,192,241116,1,0,0:0:0:0:
320,192,241116,1,0,0:0:0:0:
448,192,241207,1,0,0:0:0:0:
64,192,241207,1,0,0:0:0:0:
320,192,241298,1,0,0:0:0:0:
192,192,241388,1,0,0:0:0:0:
64,192,241388,1,0,0:0:0:0:
320,192,241479,1,0,0:0:0:0:
448,192,241479,1,0,0:0:0:0:
64,192,241570,1,0,0:0:0:0:
192,192,241570,1,0,0:0:0:0:
320,192,241661,1,0,0:0:0:0:
448,192,241661,1,0,0:0:0:0:
320,192,241752,128,0,241843:0:0:0:0:
448,192,241752,128,0,241843:0:0:0:0:
192,192,241775,1,0,0:0:0:0:
64,192,241775,1,0,0:0:0:0:
192,192,241934,1,0,0:0:0:0:
448,192,241934,1,0,0:0:0:0:
192,192,242116,1,0,0:0:0:0:
64,192,242116,1,0,0:0:0:0:
320,192,242138,1,0,0:0:0:0:
448,192,242138,1,0,0:0:0:0:
64,192,242298,1,0,0:0:0:0:
320,192,242298,1,0,0:0:0:0:
448,192,242479,1,0,0:0:0:0:
320,192,242479,1,0,0:0:0:0:
192,192,242502,1,0,0:0:0:0:
64,192,242502,1,0,0:0:0:0:
448,192,242570,1,0,0:0:0:0:
192,192,242661,1,0,0:0:0:0:
64,192,242661,1,0,0:0:0:0:
320,192,242843,1,0,0:0:0:0:
448,192,242843,1,0,0:0:0:0:
192,192,243025,1,0,0:0:0:0:
64,192,243025,1,0,0:0:0:0:
320,192,243048,1,0,0:0:0:0:
448,192,243048,1,0,0:0:0:0:
192,192,243207,128,0,243298:0:0:0:0:
64,192,243207,128,0,243298:0:0:0:0:
320,192,243388,1,0,0:0:0:0:
192,192,243388,1,0,0:0:0:0:
448,192,243570,1,0,0:0:0:0:
320,192,243570,1,0,0:0:0:0:
192,192,243593,1,0,0:0:0:0:
64,192,243593,1,0,0:0:0:0:
64,192,243752,1,0,0:0:0:0:
192,192,243752,1,0,0:0:0:0:
448,192,243934,1,0,0:0:0:0:
320,192,243934,1,0,0:0:0:0:
448,192,244055,1,0,0:0:0:0:
64,192,244055,1,0,0:0:0:0:
64,192,244176,1,0,0:0:0:0:
192,192,244176,1,0,0:0:0:0:
320,192,244298,1,0,0:0:0:0:
448,192,244298,1,0,0:0:0:0:
192,192,244419,1,0,0:0:0:0:
320,192,244419,1,0,0:0:0:0:
192,192,244540,1,0,0:0:0:0:
64,192,244540,1,0,0:0:0:0:
448,192,244661,1,0,0:0:0:0:
320,192,244661,1,0,0:0:0:0:
192,192,244661,1,0,0:0:0:0:
64,192,244661,1,0,0:0:0:0:
192,192,245025,1,0,0:0:0:0:
448,192,245025,1,0,0:0:0:0:
192,192,245146,1,0,0:0:0:0:
448,192,245146,1,0,0:0:0:0:
192,192,245267,1,0,0:0:0:0:
448,192,245267,1,0,0:0:0:0:
320,192,245388,1,0,0:0:0:0:
64,192,245388,1,0,0:0:0:0:
448,192,245752,1,0,0:0:0:0:
192,192,245752,1,0,0:0:0:0:
192,192,245873,1,0,0:0:0:0:
320,192,245873,1,0,0:0:0:0:
64,192,245994,1,0,0:0:0:0:
320,192,245994,1,0,0:0:0:0:
192,192,246116,1,0,0:0:0:0:
448,192,246116,1,0,0:0:0:0:
320,192,246116,1,0,0:0:0:0:
64,192,246237,1,0,0:0:0:0:
192,192,246237,1,0,0:0:0:0:
320,192,246358,1,0,0:0:0:0:
448,192,246358,1,0,0:0:0:0:
320,192,246479,1,0,0:0:0:0:
64,192,246479,1,0,0:0:0:0:
192,192,246479,1,0,0:0:0:0:
448,192,246601,1,0,0:0:0:0:
64,192,246601,1,0,0:0:0:0:
192,192,246722,1,0,0:0:0:0:
320,192,246722,1,0,0:0:0:0:
448,192,246843,1,0,0:0:0:0:
64,192,246843,1,0,0:0:0:0:
320,192,246843,1,0,0:0:0:0:
192,192,246964,1,0,0:0:0:0:
64,192,246964,1,0,0:0:0:0:
448,192,247085,1,0,0:0:0:0:
320,192,247085,1,0,0:0:0:0:
192,192,247207,1,0,0:0:0:0:
320,192,247207,1,0,0:0:0:0:
64,192,247207,1,0,0:0:0:0:
448,192,247328,1,0,0:0:0:0:
64,192,247328,1,0,0:0:0:0:
64,192,247449,1,0,0:0:0:0:
448,192,247449,1,0,0:0:0:0:
192,192,247570,1,0,0:0:0:0:
320,192,247570,1,0,0:0:0:0:
448,192,247570,128,0,248298:0:0:0:0:
192,192,247934,1,0,0:0:0:0:
192,192,248298,128,0,249025:0:0:0:0:
320,192,248661,1,0,0:0:0:0:
320,192,249025,128,0,249752:0:0:0:0:
64,192,249388,1,0,0:0:0:0:
64,192,249752,128,0,250479:0:0:0:0:
448,192,250116,1,0,0:0:0:0:
448,192,250479,128,0,251207:0:0:0:0:
320,192,250479,1,0,0:0:0:0:
192,192,250843,1,0,0:0:0:0:
192,192,251207,128,0,251934:0:0:0:0:
320,192,251570,1,0,0:0:0:0:
320,192,251934,128,0,252661:0:0:0:0:
64,192,252298,1,0,0:0:0:0:
64,192,252661,128,0,253388:0:0:0:0:
192,192,253025,128,0,253388:0:0:0:0:
448,192,253388,128,0,254116:0:0:0:0:
320,192,253388,128,0,253479:0:0:0:0:
192,192,253752,1,0,0:0:0:0:
192,192,254116,128,0,254843:0:0:0:0:
320,192,254479,1,0,0:0:0:0:
320,192,254843,128,0,255570:0:0:0:0:
64,192,254843,128,0,254934:0:0:0:0:
64,192,255207,1,0,0:0:0:0:
64,192,255570,128,0,256298:0:0:0:0:
448,192,255934,1,0,0:0:0:0:
448,192,256298,128,0,257025:0:0:0:0:
192,192,256298,128,0,256388:0:0:0:0:
192,192,256661,1,0,0:0:0:0:
192,192,257025,128,0,257752:0:0:0:0:
320,192,257025,128,0,257116:0:0:0:0:
320,192,257388,1,0,0:0:0:0:
320,192,257752,128,0,258479:0:0:0:0:
64,192,257752,128,0,257843:0:0:0:0:
64,192,258116,1,0,0:0:0:0:
64,192,258479,128,0,259207:0:0:0:0:
448,192,258479,128,0,258570:0:0:0:0:
448,192,258843,1,0,0:0:0:0:
320,192,259207,1,0,0:0:0:0:
448,192,259207,1,0,0:0:0:0:
64,192,259298,1,0,0:0:0:0:
192,192,259388,1,0,0:0:0:0:
320,192,259449,1,0,0:0:0:0:
448,192,259498,1,0,0:0:0:0:
