osu file format v14

[General]
AudioFilename: audio.mp3
AudioLeadIn: 0
PreviewTime: 55192
Countdown: 0
SampleSet: Soft
StackLeniency: 0
Mode: 0
LetterboxInBreaks: 0
WidescreenStoryboard: 0

[Editor]
DistanceSpacing: 0.4
BeatDivisor: 8
GridSize: 32
TimelineZoom: 2

[Metadata]
Title:Stuck on you (TV Size)
TitleUnicode:Stuck on you (TV Size)
Artist:Nowlu
ArtistUnicode:Nowlu
Creator:Pepekcz
Version:I love you
Source:夫婦以上、恋人未満
Tags:ノウル watanabe akari 渡辺 星 more than a married couple but less than lovers jpop pop j-pop japanese anime romcom romance harem fuufu ijou koibito miman Female vocal vocalist ed ending
BeatmapID:3949407
BeatmapSetID:1914396

[Difficulty]
HPDrainRate:5
CircleSize:4.5
OverallDifficulty:8
ApproachRate:9
SliderMultiplier:1.98
SliderTickRate:1

[Events]
//Background and Video events
0,0,"1279164.png",0,0
Video,845,"video.mp4"
//Break Periods
//Storyboard Layer 0 (Background)
//Storyboard Layer 1 (Fail)
//Storyboard Layer 2 (Pass)
//Storyboard Layer 3 (Foreground)
//Storyboard Layer 4 (Overlay)
//Storyboard Sound Samples

[TimingPoints]
1773,566.037735849057,4,2,1,50,1,0
1773,-200,4,2,1,50,0,0
10829,-166.666666666667,4,2,1,60,0,0
17622,-125,4,2,1,70,0,0
19320,-100,4,2,1,70,0,0
19886,-83.3333333333333,4,2,1,60,0,0
37999,-408.163265306122,4,2,1,50,0,0
47056,-166.666666666667,4,2,1,60,0,0
53848,-125,4,2,1,70,0,0
56112,-62.5,4,2,1,90,0,1
57173,-62.5,4,2,1,5,0,1
57244,-62.5,4,2,1,90,0,1
63966,-62.5,4,2,1,5,0,1
64037,-62.5,4,2,1,90,0,1
73376,-76.9230769230769,4,2,1,90,0,1
74225,-125,4,2,1,60,0,0
76489,-125,4,2,1,40,0,0

[Colours]
Combo1 : 130,253,228
Combo2 : 255,128,192
Combo3 : 132,230,251
Combo4 : 250,1,106

[HitObjects]
462,147,1773,6,0,B|548:128|529:-13|389:-15|333:104|401:202,1,371.25,2|0,0:0|0:0,0:0:0:0:
462,256,4037,6,0,B|548:275|529:416|389:418|333:299|401:201,1,371.25,2|0,0:0|0:0,0:0:0:0:
486,163,6301,6,0,B|397:224|293:136|378:84|266:-3|184:51,1,371.25,2|0,0:0|0:0,0:0:0:0:
114,167,8565,6,0,P|205:173|237:105,1,173.25,2|0,0:0|0:0,0:0:0:0:
93,26,9697,6,0,L|81:100,1,74.25,2|0,0:0|0:0,0:0:0:0:
7,170,10263,2,0,L|19:244,1,74.25,2|0,0:0|0:0,0:0:0:0:
141,293,10829,5,2,1:2:0:0:
95,243,11112,2,0,P|41:258|35:314,2,118.799996374512,0|0|2,0:0|0:0|0:0,0:0:0:0:
216,297,12810,5,2,0:0:0:0:
295,235,13093,2,0,L|286:170,1,59.3999981872559,0|2,1:2|0:0,0:0:0:0:
360,167,13518,2,0,L|368:225,1,59.3999981872559,0|0,1:2|0:0,0:0:0:0:
320,302,13942,2,0,P|373:306|383:374,2,118.799996374512,0|2|2,0:0|0:0|1:2,0:0:0:0:
252,334,15357,5,2,1:2:0:0:
196,287,15640,2,0,P|206:231|222:164,2,118.799996374512,2|2|2,0:0|0:0|0:0,0:0:0:0:
320,302,17339,2,0,L|313:263,1,29.699999093628,2|0,0:0|0:0,0:0:0:0:
307,192,17622,6,0,P|352:198|378:236,1,79.2,10|2,1:2|0:0,0:0:0:0:
446,327,18188,2,0,P|491:321|505:246,1,118.8,10|0,1:2|0:0,0:0:0:0:
455,169,18754,6,0,L|438:257,1,79.2,2|2,1:2|1:2,0:0:0:0:
371,326,19178,1,0,0:0:0:0:
359,325,19320,2,0,P|339:302|336:268,1,49.5,10|0,1:2|0:0,0:0:0:0:
262,266,19603,2,0,P|271:237|299:217,1,49.5,2|0,1:2|0:0,0:0:0:0:
384,142,19886,6,0,B|334:167|292:133|309:124|264:88|215:105,1,178.199994561768,6|0,1:2|0:0,0:0:0:0:
141,142,20452,2,0,L|127:75,1,59.3999981872559,10|0,1:2|0:0,0:0:0:0:
233,45,20735,2,0,L|220:103,1,59.3999981872559,0|0,1:2|0:0,0:0:0:0:
163,18,21018,5,2,0:0:0:0:
296,96,21301,1,2,0:0:0:0:
208,161,21584,2,0,L|222:94,1,59.3999981872559,10|0,1:2|0:0,0:0:0:0:
296,96,21867,2,0,L|283:154,1,59.3999981872559,2|0,0:0|0:0,0:0:0:0:
253,220,22150,5,0,0:0:0:0:
361,52,22433,2,0,P|340:34|305:24,1,59.3999981872559,2|0,1:2|0:0,0:0:0:0:
443,132,22716,2,0,P|436:72|427:14,2,118.799996374512,10|2|2,1:2|0:0|1:2,0:0:0:0:
359,216,23565,6,0,P|396:225|415:246,1,59.3999981872559,0|0,1:2|0:0,0:0:0:0:
431,352,23848,2,0,P|382:344|357:282,1,118.799996374512,10|0,1:2|0:0,0:0:0:0:
410,239,24273,1,2,0:0:0:0:
489,300,24414,6,0,P|499:241|512:183,1,118.799996374512,0|0,1:2|0:0,0:0:0:0:
443,94,24980,2,0,P|466:75|495:70,1,59.3999981872559,10|0,1:2|0:0,0:0:0:0:
377,145,25263,2,0,P|347:140|324:121,1,59.3999981872559,2|0,1:2|0:0,0:0:0:0:
360,23,25546,2,0,L|380:140,2,118.799996374512,2|2|8,0:0|0:0|1:2,0:0:0:0:
227,73,26395,1,2,0:0:0:0:
101,31,26678,6,0,P|133:30|166:46,1,59.3999981872559,2|0,0:0|0:0,0:0:0:0:
103,120,26961,2,0,P|135:121|168:105,1,59.3999981872559,0|0,1:2|0:0,0:0:0:0:
32,79,27244,6,0,B|7:129|41:169|50:154|86:199|69:248,1,178.199994561768,10|0,1:2|0:0,0:0:0:0:
15,330,27810,2,0,P|47:313|84:315,1,59.3999981872559,2|0,1:2|0:0,0:0:0:0:
181,370,28093,2,0,P|151:366|126:351,1,59.3999981872559,0|0,1:2|0:0,0:0:0:0:
158,259,28376,1,8,1:2:0:0:
216,299,28518,2,0,B|249:304|277:289|268:280|299:266|332:273,1,118.799996374512,0|0,1:2|0:0,0:0:0:0:
422,306,28942,6,0,P|317:285|341:181,1,237.599992749024,2|10,1:2|1:2,0:0:0:0:
494,94,29791,2,0,L|482:164,1,59.3999981872559,2|0,1:2|0:0,0:0:0:0:
420,216,30074,2,0,P|459:219|487:291,2,118.799996374512,2|2|10,0:0|0:0|1:2,0:0:0:0:
318,283,30923,1,2,0:0:0:0:
229,191,31206,6,0,L|220:256,1,59.3999981872559,2|0,0:0|0:0,0:0:0:0:
135,317,31489,2,0,P|132:352|147:383,1,59.3999981872559,2|0,1:2|0:0,0:0:0:0:
136,188,31773,6,0,L|145:253,1,59.3999981872559,10|0,1:2|0:0,0:0:0:0:
221,318,32056,2,0,P|224:353|209:384,1,59.3999981872559,2|4,0:0|0:3,0:0:0:0:
144,246,32339,1,2,1:2:0:0:
39,307,32622,2,0,L|30:248,1,59.3999981872559,0|0,1:2|0:0,0:0:0:0:
44,139,32905,6,0,B|94:114|136:148|119:157|163:196|213:176,1,178.199994561768,10|0,1:2|0:0,0:0:0:0:
269,137,33471,1,0,1:2:0:0:
133,18,33754,6,0,L|143:86,1,59.3999981872559,2|0,0:0|0:0,0:0:0:0:
219,86,34037,2,0,L|210:27,1,59.3999981872559,10|0,1:2|0:0,0:0:0:0:
281,6,34320,2,0,L|291:74,1,59.3999981872559,2|0,1:2|0:0,0:0:0:0:
355,144,34603,6,0,P|317:140|304:213,2,118.799996374512,2|2|10,0:0|0:0|1:2,0:0:0:0:
407,262,35452,2,0,P|377:268|349:276,1,59.3999981872559,2|0,0:0|0:0,0:0:0:0:
270,305,35735,6,0,P|308:301|321:374,2,118.799996374512,2|0|0,0:0|1:2|0:0,0:0:0:0:
185,333,36584,1,2,0:0:0:0:
180,319,36725,1,10,1:2:0:0:
218,255,36867,6,0,L|228:195,1,59.3999981872559,10|0,1:2|0:0,0:0:0:0:
157,186,37150,2,0,L|148:245,1,59.3999981872559,2|0,1:2|1:2,0:0:0:0:
74,347,37433,5,2,1:2:0:0:
93,324,37574,1,0,1:2:0:0:
96,294,37716,1,0,1:2:0:0:
84,265,37857,1,2,0:0:0:0:
58,175,37999,6,0,B|-31:122|-71:270|52:329|192:257|161:165|130:100|66:97|66:97|84:15|172:-28|258:14|258:14|210:35|206:86,1,751.904993116104,6|2,1:2|0:0,0:0:0:0:
283,86,47056,5,0,1:2:0:0:
420,31,47339,1,10,1:2:0:0:
422,45,47480,1,8,1:2:0:0:
425,59,47622,2,0,L|414:121,1,59.3999981872559,2|2,0:0|0:0,0:0:0:0:
356,157,48046,1,2,0:0:0:0:
358,171,48188,1,0,1:2:0:0:
394,303,48471,5,10,1:2:0:0:
379,306,48612,1,8,1:2:0:0:
364,301,48754,2,0,L|305:316,1,59.3999981872559,2|0,0:0|1:2,0:0:0:0:
160,187,49320,6,0,L|219:202,1,59.3999981872559,0|10,1:2|1:2,0:0:0:0:
277,248,49744,1,8,1:2:0:0:
291,245,49886,2,0,L|350:230,1,59.3999981872559,2|2,0:0|0:0,0:0:0:0:
486,195,50452,1,0,1:2:0:0:
424,246,50735,5,10,1:2:0:0:
419,231,50876,1,8,1:2:0:0:
415,216,51018,2,0,L|419:179,1,29.699999093628,2|0,0:0|0:0,0:0:0:0:
359,150,51301,2,0,L|363:113,1,29.699999093628,2|0,1:2|0:0,0:0:0:0:
417,73,51584,5,0,1:2:0:0:
270,129,51867,1,10,1:2:0:0:
272,143,52008,1,8,1:2:0:0:
275,157,52150,2,0,L|285:220,2,59.3999981872559,2|2|2,0:0|1:2|1:2,0:0:0:0:
235,290,52999,5,10,1:2:0:0:
247,297,53140,1,8,1:2:0:0:
261,297,53282,1,2,1:2:0:0:
213,223,53565,1,10,1:2:0:0:
134,277,53848,6,0,L|142:328,1,39.6,10|0,1:2|0:0,0:0:0:0:
64,286,54131,2,0,L|72:337,1,39.6,0|0,1:2|0:0,0:0:0:0:
144,170,54414,6,0,L|136:221,1,39.6,10|0,1:2|0:0,0:0:0:0:
214,179,54697,2,0,L|206:230,1,39.6,2|0,1:2|0:0,0:0:0:0:
59,129,54980,5,8,1:2:0:0:
137,209,55263,1,2,0:0:0:0:
139,224,55405,1,8,1:2:0:0:
138,239,55546,2,0,L|130:290,1,39.6,10|0,1:2|0:0,0:0:0:0:
56,269,55829,2,0,L|62:229,1,39.6,6|0,0:3|0:0,0:0:0:0:
56,33,56113,6,0,P|134:39|164:126,1,158.4,6|2,1:2|0:0,0:0:0:0:
125,161,56537,1,2,0:0:0:0:
239,104,56678,2,0,L|250:194,1,79.2,8|0,1:2|0:0,0:0:0:0:
188,300,56961,6,0,B|224:300|250:282|238:276|265:256|299:259,1,118.8,6|0,0:3|0:0,0:0:0:0:
308,267,57244,1,0,1:2:0:0:
390,216,57386,1,8,1:2:0:0:
442,311,57527,6,0,P|401:308|373:275,1,79.2,2|0,0:0|0:0,0:0:0:0:
316,339,57810,2,0,P|298:301|312:261,1,79.2,10|0,1:2|0:0,0:0:0:0:
229,223,58093,2,0,P|252:188|294:181,1,79.2,2|0,0:0|0:0,0:0:0:0:
321,346,58376,6,0,P|241:323|167:316,1,158.4,2|2,1:2|0:0,0:0:0:0:
99,346,58801,1,2,0:0:0:0:
59,220,58942,2,0,P|91:235|106:277,1,79.2,8|0,1:2|0:0,0:0:0:0:
33,308,59225,2,0,P|23:233|5:143,1,158.4,6|0,0:3|1:2,0:0:0:0:
71,51,59791,6,0,P|38:29|-6:26,1,79.2,2|0,1:2|0:0,0:0:0:0:
197,128,60074,2,0,P|236:123|268:102,1,79.2,10|0,1:2|0:0,0:0:0:0:
147,15,60357,2,0,L|134:93,1,79.2,2|0,0:0|0:0,0:0:0:0:
207,206,60640,5,0,1:2:0:0:
207,206,60923,6,0,P|165:201|131:173,1,79.2,2|0,0:0|0:0,0:0:0:0:
313,159,61206,2,0,P|329:197|322:241,1,79.2,10|0,1:2|0:0,0:0:0:0:
268,101,61489,2,0,P|293:67|334:51,1,79.2,6|4,0:3|0:3,0:0:0:0:
458,116,61773,5,2,1:2:0:0:
406,66,61914,1,8,1:2:0:0:
334,62,62056,1,2,0:0:0:0:
325,233,62339,6,0,B|372:244|409:215|388:208|430:176|471:190,1,158.4,10|0,1:2|0:0,0:0:0:0:
512,249,62763,1,2,0:0:0:0:
432,347,62905,6,0,L|444:255,1,79.2,0|0,1:2|0:0,0:0:0:0:
314,154,63188,2,0,L|324:232,1,79.2
197,337,63471,2,0,L|207:259,1,79.2,8|0,1:2|0:0,0:0:0:0:
121,171,63754,2,0,P|154:137|240:148,1,118.8,6|0,0:3|0:0,0:0:0:0:
228,144,64037,6,0,P|195:117|191:78,1,79.2,2|0,1:2|0:0,0:0:0:0:
105,78,64320,2,0,P|109:39|139:14,1,79.2,2|0,1:2|0:0,0:0:0:0:
273,2,64603,6,0,L|260:85,1,79.2,10|0,1:2|0:0,0:0:0:0:
382,129,64886,2,0,L|369:50,1,79.2,2|0,0:0|0:0,0:0:0:0:
286,178,65169,6,0,P|363:168|335:292,1,237.6,2|0,1:2|0:0,0:0:0:0:
259,362,65735,2,0,B|295:304|254:238|236:266|193:200|218:144,1,237.6,10|6,1:2|0:3,0:0:0:0:
324,49,66301,1,0,1:2:0:0:
255,68,66442,1,8,1:2:0:0:
192,33,66584,2,0,P|153:12|111:12,1,79.2,2|0,0:0|0:0,0:0:0:0:
31,109,66867,6,0,L|18:30,1,79.2,10|0,1:2|0:0,0:0:0:0:
129,99,67150,2,0,L|116:20,1,79.2,2|0,0:0|0:0,0:0:0:0:
30,190,67433,6,0,P|90:174|84:308,1,237.6,2|0,1:2|0:0,0:0:0:0:
22,369,67999,2,0,B|63:391|104:365|88:356|128:330|174:340,1,158.4,10|4,1:2|0:3,0:0:0:0:
233,370,68423,1,6,0:3:0:0:
322,306,68565,2,0,L|311:223,1,79.2,0|0,1:2|0:0,0:0:0:0:
298,100,68848,6,0,P|336:105|364:132,1,79.2,2|0,1:2|0:0,0:0:0:0:
451,95,69131,2,0,P|465:131|456:169,1,79.2,10|0,1:2|0:0,0:0:0:0:
512,216,69414,2,0,P|487:246|450:257,1,79.2,2|0,0:0|0:0,0:0:0:0:
311,227,69697,6,0,B|253:191|187:232|215:250|149:293|93:268,1,237.6,2|0,1:2|0:0,0:0:0:0:
86,262,70192,1,2,0:0:0:0:
81,255,70263,2,0,P|93:207|126:189,1,79.2,8|0,1:2|0:0,0:0:0:0:
113,342,70546,2,0,P|74:345|38:328,1,79.2,6|4,0:3|0:3,0:0:0:0:
207,245,70829,5,2,1:2:0:0:
254,298,70971,1,8,1:2:0:0:
246,311,71112,2,0,P|193:319|123:339,1,118.8,2|2,0:0|0:0,0:0:0:0:
122,339,71395,1,8,1:2:0:0:
251,184,71678,2,0,P|288:190|339:206,1,79.2,2|0,0:0|0:0,0:0:0:0:
403,300,71961,6,0,P|421:265|415:218,1,79.2,2|0,1:2|0:0,0:0:0:0:
318,285,72244,2,0,P|315:245|333:211,1,79.2,2|0,0:0|0:0,0:0:0:0:
466,121,72527,2,0,P|435:93|390:84,1,79.2,10|0,1:2|0:0,0:0:0:0:
267,157,72810,2,0,P|304:146|333:119,1,79.2,6|4,0:3|0:3,0:0:0:0:
260,2,73093,6,0,L|274:97,1,79.2,2|0,1:2|0:0,0:0:0:0:
105,92,73376,2,0,L|116:13,1,64.3499970542909,2|0,1:2|0:0,0:0:0:0:
156,173,73659,1,10,1:2:0:0:
29,155,73801,1,8,1:2:0:0:
87,196,73942,1,6,0:3:0:0:
113,28,74225,6,0,B|74:-8|13:2|-10:92|59:151|131:151|176:91|180:91|184:91|188:91|168:-24|236:-61|337:-37|369:34|367:111|283:127|283:127|269:74,1,633.6,2|2,0:0|0:0,0:0:0:0:
