osu file format v14

[General]
AudioFilename: audio.mp3
AudioLeadIn: 0
PreviewTime: 51938
Countdown: 0
SampleSet: Soft
StackLeniency: 0.7
Mode: 0
LetterboxInBreaks: 0
WidescreenStoryboard: 0

[Editor]
Bookmarks: 2388,11826,13174,34747,40140,50927,53623,85983,96770,106208,107556,129129,134522,142612,145309,148005,180365,189803,191152,201938,210028,212725,218118,223511,228904,231601,234298,239691,242388,245084,255871,261264,265898,266740,267124,267552,268015,268515,269090,269782
DistanceSpacing: 1.6
BeatDivisor: 4
GridSize: 4
TimelineZoom: 3.199999

[Metadata]
Title:Rasen
TitleUnicode:螺旋
Artist:Nowlu
ArtistUnicode:Nowlu
Creator:Hyokar
Version:Bouquet of Roses
Source:薔薇王の葬列
Tags:白戸佑輔 japanese jpop j-pop pop anime ed ending 2nd Season Requiem of the Rose King baraou no souretsu shirato yusuke yuusuke
BeatmapID:3670054
BeatmapSetID:1790993

[Difficulty]
HPDrainRate:4.4
CircleSize:5
OverallDifficulty:7.5
ApproachRate:8.8
SliderMultiplier:2.4
SliderTickRate:1

[Events]
//Background and Video events
0,0,"rose.jpg",0,0
//Break Periods
//Storyboard Layer 0 (Background)
//Storyboard Layer 1 (Fail)
//Storyboard Layer 2 (Pass)
//Storyboard Layer 3 (Foreground)
//Storyboard Layer 4 (Overlay)
//Storyboard Sound Samples

[TimingPoints]
2388,674.157303370787,4,2,1,40,1,0
2388,-133.333333333333,4,2,1,40,0,0
5084,-285.714285714284,4,2,1,40,0,0
11826,-200,4,2,1,32,0,0
13174,-111.111111111111,4,2,1,50,0,0
18230,-111.111111111111,4,2,1,50,0,0
18483,-111.111111111111,4,2,1,5,0,0
18567,-111.111111111111,4,2,1,50,0,0
32050,-133.333333333333,4,2,1,50,0,0
32725,-133.333333333333,4,2,1,42,0,0
33062,-133.333333333333,4,2,1,36,0,0
33399,-133.333333333333,4,2,1,32,0,0
34073,-133.333333333333,4,2,1,55,0,0
34747,-111.111111111111,4,2,1,65,0,0
38961,-111.111111111111,4,2,1,40,0,0
39298,-111.111111111111,4,2,1,45,0,0
39635,-111.111111111111,4,2,1,50,0,0
39972,-111.111111111111,4,2,1,55,0,0
40140,-100,4,2,1,65,0,0
42837,-83.3333333333333,4,2,1,65,0,0
43511,-100,4,2,1,60,0,0
44185,-125,4,2,1,55,0,0
44859,-250,4,2,1,45,0,0
45534,-100,4,2,1,60,0,0
50927,-200,4,2,1,35,0,0
51938,-200,4,2,1,32,0,0
52275,-200,4,2,1,40,0,0
52612,-200,4,2,1,48,0,0
53118,-200,4,2,1,50,0,0
53286,-200,4,2,1,62,0,0
53455,-200,4,2,1,74,0,0
53623,-50,4,2,1,86,0,1
59017,-45.4545454545455,4,2,1,86,0,1
60028,-50,4,2,1,86,0,1
61208,-50,4,2,1,86,0,1
61292,-50,4,2,1,5,0,1
61376,-50,4,2,1,86,0,1
61461,-50,4,2,1,5,0,1
61545,-50,4,2,1,86,0,1
61629,-50,4,2,1,5,0,1
61713,-41.6666666666667,4,2,1,86,0,1
62725,-50,4,2,1,86,0,1
74691,-83.3333333333333,4,2,1,86,0,1
74775,-83.3333333333333,4,2,1,5,0,1
74859,-83.3333333333333,4,2,1,86,0,1
74944,-83.3333333333333,4,2,1,5,0,1
75028,-83.3333333333333,4,2,1,86,0,1
75112,-83.3333333333333,4,2,1,5,0,1
75196,-50,4,2,1,86,0,1
80590,-45.4545454545455,4,2,1,86,0,1
81601,-50,4,2,1,86,0,1
82781,-50,4,2,1,86,0,1
82865,-50,4,2,1,5,0,1
82949,-50,4,2,1,86,0,1
83034,-50,4,2,1,5,0,1
83118,-50,4,2,1,86,0,1
83202,-50,4,2,1,5,0,1
83286,-41.6666666666667,4,2,1,86,0,1
83961,-38.4615384615385,4,2,1,86,0,1
84635,-66.6666666666667,4,2,1,86,0,1
85983,-83.3333333333333,4,2,1,70,0,0
89354,-83.3333333333333,4,2,1,60,0,0
93230,-83.3333333333333,4,2,1,60,0,0
93314,-83.3333333333333,4,2,1,5,0,0
93399,-83.3333333333333,4,2,1,60,0,0
93483,-83.3333333333333,4,2,1,5,0,0
93567,-83.3333333333333,4,2,1,60,0,0
93652,-83.3333333333333,4,2,1,5,0,0
93736,-83.3333333333333,4,2,1,60,0,0
93820,-83.3333333333333,4,2,1,5,0,0
93904,-83.3333333333333,4,2,1,60,0,0
93989,-83.3333333333333,4,2,1,5,0,0
94073,-83.3333333333333,4,2,1,50,0,0
94916,-83.3333333333333,4,2,1,42,0,0
95084,-83.3333333333333,4,2,1,36,0,0
95253,-83.3333333333333,4,2,1,30,0,0
95421,-83.3333333333333,4,2,1,20,0,0
96770,-133.333333333333,4,2,1,40,0,0
99466,-285.714285714286,4,2,1,40,0,0
106208,-200,4,2,1,32,0,0
107556,-111.111111111111,4,2,1,50,0,0
112612,-111.111111111111,4,2,1,50,0,0
112865,-111.111111111111,4,2,1,5,0,0
112949,-111.111111111111,4,2,1,50,0,0
129129,-111.111111111111,4,2,1,65,0,0
134522,-100,4,2,1,60,0,0
139241,-200,4,2,1,60,0,0
139916,-100,4,2,1,60,0,0
142612,-86.9565217391303,4,2,1,40,0,0
143286,-64.5161290322581,4,2,1,55,0,0
143961,-57.1428571428571,4,2,1,68,0,0
144972,-57.1428571428571,4,2,1,76,0,0
145309,-51.2820512820513,4,2,1,80,0,0
145983,-51.2820512820513,4,2,1,40,0,0
146657,-66.6666666666667,4,2,1,60,0,0
147500,-66.6666666666667,4,2,1,50,0,0
147668,-66.6666666666667,4,2,1,62,0,0
147837,-66.6666666666667,4,2,1,74,0,0
148005,-50,4,2,1,86,0,1
153399,-45.4545454545455,4,2,1,86,0,1
154410,-50,4,2,1,86,0,1
155590,-50,4,2,1,86,0,1
155674,-50,4,2,1,5,0,1
155758,-50,4,2,1,86,0,1
155843,-50,4,2,1,5,0,1
155927,-50,4,2,1,86,0,1
156011,-50,4,2,1,5,0,1
156095,-41.6666666666667,4,2,1,86,0,1
157107,-50,4,2,1,86,0,1
169073,-83.3333333333333,4,2,1,86,0,1
169157,-83.3333333333333,4,2,1,5,0,1
169241,-83.3333333333333,4,2,1,86,0,1
169326,-83.3333333333333,4,2,1,5,0,1
169410,-83.3333333333333,4,2,1,86,0,1
169494,-83.3333333333333,4,2,1,5,0,1
169579,-50,4,2,1,86,0,1
174972,-45.4545454545455,4,2,1,86,0,1
175983,-50,4,2,1,86,0,1
177163,-50,4,2,1,86,0,1
177247,-50,4,2,1,5,0,1
177331,-50,4,2,1,86,0,1
177416,-50,4,2,1,5,0,1
177500,-50,4,2,1,86,0,1
177584,-50,4,2,1,5,0,1
177668,-41.6666666666667,4,2,1,86,0,1
178343,-40,4,2,1,86,0,1
179017,-66.6666666666667,4,2,1,86,0,1
180365,-83.3333333333333,4,2,1,70,0,0
183736,-83.3333333333333,4,2,1,60,0,0
187612,-83.3333333333333,4,2,1,60,0,0
187696,-83.3333333333333,4,2,1,5,0,0
187781,-83.3333333333333,4,2,1,60,0,0
187865,-83.3333333333333,4,2,1,5,0,0
187949,-83.3333333333333,4,2,1,60,0,0
188034,-83.3333333333333,4,2,1,5,0,0
188118,-83.3333333333333,4,2,1,60,0,0
188202,-83.3333333333333,4,2,1,5,0,0
188286,-83.3333333333333,4,2,1,60,0,0
188371,-83.3333333333333,4,2,1,5,0,0
188455,-83.3333333333333,4,2,1,50,0,0
189129,-250,4,2,1,50,0,0
189803,-100,4,2,1,40,0,0
191152,-83.3333333333333,4,2,1,60,0,0
201601,-83.3333333333333,4,2,1,60,0,0
201854,-83.3333333333333,4,2,1,5,0,0
201938,-83.3333333333333,4,2,1,60,0,0
210534,-76.9230769230769,4,2,1,48,0,0
211208,-55.5555555555556,4,2,1,56,0,0
211545,-55.5555555555556,4,2,1,60,0,0
211882,-55.5555555555556,4,2,1,64,0,0
212219,-400,4,2,1,72,0,0
212640,-400,4,2,1,5,0,0
212725,-83.3333333333333,4,2,1,60,0,0
218118,-76.9230769230769,4,2,1,68,0,0
221826,-66.6666666666667,4,2,1,68,0,0
222500,-76.9230769230769,4,2,1,68,0,0
223174,-76.9230769230769,4,2,1,68,0,0
223258,-76.9230769230769,4,2,1,5,0,0
223343,-76.9230769230769,4,2,1,68,0,0
223427,-76.9230769230769,4,2,1,5,0,0
223511,-133.333333333333,4,2,1,40,0,0
226208,-83.3333333333333,4,2,1,40,0,0
227219,-133.333333333333,4,2,1,40,0,0
228904,-133.333333333333,4,2,1,44,0,0
229579,-113.636363636364,4,2,1,48,0,0
230084,-98.0392156862745,4,2,1,52,0,0
230590,-86.9565217391304,4,2,1,56,0,0
231095,-100,4,2,1,50,0,0
231601,-55.5555555555556,4,2,1,70,0,0
232612,-100,4,2,1,45,0,0
232949,-83.3333333333333,4,2,1,60,0,0
234298,-111.111111111111,4,2,1,40,0,0
235309,-90.9090909090909,4,2,1,40,0,0
235646,-76.9230769230769,4,2,1,46,0,0
236320,-66.6666666666667,4,2,1,52,0,0
236994,-58.8235294117647,4,2,1,58,0,0
238005,-58.8235294117647,4,2,1,62,0,0
238343,-52.6315789473684,4,2,1,68,0,0
239354,-47.6190476190476,4,2,1,74,0,0
239607,-47.6190476190476,4,2,1,5,0,0
239691,-41.6666666666667,4,2,1,60,0,0
240028,-133.333333333333,4,2,1,50,0,0
241039,-133.333333333333,4,2,1,45,0,0
241713,-100,4,2,1,60,0,0
242388,-100,4,2,1,45,0,0
242725,-100,4,2,1,55,0,0
243062,-66.6666666666667,4,2,1,70,0,0
243736,-66.6666666666667,4,2,1,50,0,0
244241,-66.6666666666667,4,2,1,58,0,0
244579,-66.6666666666667,4,2,1,66,0,0
244747,-66.6666666666667,4,2,1,72,0,0
244916,-66.6666666666667,4,2,1,80,0,0
245084,-50,4,2,1,86,0,1
250477,-45.4545454545455,4,2,1,86,0,1
251489,-50,4,2,1,86,0,1
252668,-50,4,2,1,86,0,1
252753,-50,4,2,1,5,0,1
252837,-50,4,2,1,86,0,1
252921,-50,4,2,1,5,0,1
253005,-50,4,2,1,86,0,1
253090,-50,4,2,1,5,0,1
253174,-41.6666666666667,4,2,1,86,0,1
253848,-40,4,2,1,86,0,1
254522,-66.6666666666667,4,2,1,86,0,1
255871,-83.3333333333333,4,2,1,70,0,0
259241,-83.3333333333333,4,2,1,60,0,0
263118,-83.3333333333333,4,2,1,60,0,0
263202,-83.3333333333333,4,2,1,5,0,0
263286,-83.3333333333333,4,2,1,60,0,0
263371,-83.3333333333333,4,2,1,5,0,0
263455,-83.3333333333333,4,2,1,60,0,0
263539,-83.3333333333333,4,2,1,5,0,0
263623,-83.3333333333333,4,2,1,60,0,0
263708,-83.3333333333333,4,2,1,5,0,0
263792,-83.3333333333333,4,2,1,60,0,0
263876,-83.3333333333333,4,2,1,5,0,0
263961,-66.6666666666667,4,2,1,50,0,0
264635,-250,4,2,1,65,0,0
265309,674.157303370787,4,2,1,20,1,0
265309,-166.666666666667,4,2,1,20,0,0
265813,-166.666666666667,4,2,1,5,0,0
265898,674.157303370787,4,2,1,20,1,0
265898,-166.666666666667,4,2,1,20,0,0
266572,-100,4,2,1,40,0,0
266740,769.23076923077,4,2,1,45,1,0
266740,-100,4,2,1,45,0,0
267124,857.142857142858,4,2,1,48,1,0
267124,-100,4,2,1,48,0,0
267552,923.076923076924,4,2,1,54,1,0
267552,-100,4,2,1,54,0,0
268015,1000,4,2,1,58,1,0
268015,-100,4,2,1,58,0,0
268515,1153.84615384615,4,2,1,64,1,0
268515,-100,4,2,1,64,0,0
269090,693.64161849711,4,2,1,40,1,0
269090,-100,4,2,1,40,0,0
269782,674.157303370787,4,2,1,48,1,0
269782,-100,4,2,1,48,0,0
269894,-100,4,2,1,60,0,0

[Colours]
Combo1 : 201,143,129
Combo2 : 162,102,102
Combo3 : 191,185,149

[HitObjects]
66,314,2388,5,2,1:2:0:0:
134,343,2725,1,2,0:0:0:0:
189,290,3062,1,2,0:0:0:0:
434,133,3736,5,2,0:0:0:0:
379,80,4073,1,2,0:0:0:0:
379,80,4747,5,2,0:0:0:0:
434,133,5084,2,0,P|397:160|348:148,1,83.9999974365235,2|2,0:0|0:0,0:0:0:0:
379,80,6095,1,2,0:0:0:0:
429,329,6770,5,2,0:0:0:0:
416,343,7107,1,2,0:0:0:0:
402,342,7444,1,2,0:0:0:0:
319,290,7781,5,2,1:2:0:0:
264,237,8118,1,2,0:0:0:0:
196,266,8455,1,2,0:0:0:0:
15,49,9129,5,2,0:0:0:0:
83,78,9466,1,2,0:0:0:0:
83,78,10140,5,2,0:0:0:0:
15,49,10477,2,0,P|33:14|86:6,1,83.9999974365235,2|2,0:0|0:0,0:0:0:0:
83,78,11489,2,0,L|126:68,1,41.9999987182618,2|8,0:0|0:3,0:0:0:0:
260,13,12163,5,4,0:3:0:0:
234,100,12331,1,8,0:3:0:0:
367,291,12668,5,8,0:3:0:0:
336,202,12836,1,4,0:3:0:0:
218,357,13174,6,0,B|158:382|94:327|156:310|92:252|29:284,1,215.999993408203,2|2,1:2|0:0,0:0:0:0:
194,286,14185,2,0,P|226:182|261:78,1,215.999993408203,2|2,0:0|0:0,0:0:0:0:
376,186,15196,2,0,P|335:226|278:206,1,107.999996704102,8|2,0:1|0:0,0:0:0:0:
237,171,15702,1,2,0:0:0:0:
181,213,15871,1,2,0:0:0:0:
174,222,16208,6,0,L|92:203,1,53.9999983520509,2|0,0:0|0:0,0:0:0:0:
76,155,16545,1,10,0:1:0:0:
165,227,16713,6,0,L|113:240,1,53.9999983520509,2|2,0:0|0:0,0:0:0:0:
62,291,17050,1,8,0:1:0:0:
161,237,17219,6,0,P|192:248|235:259,1,53.9999983520508,2|0,0:0|0:0,0:0:0:0:
266,322,17556,2,0,P|297:311|340:300,1,53.9999983520508,2|2,0:0|0:0,0:0:0:0:
335,222,17893,1,10,0:1:0:0:
478,359,18230,2,2,P|479:342|477:360,1,80.9999975280763,2|0,0:0|0:0,0:0:0:0:
471,351,18567,6,0,P|482:277|406:242,1,161.999995056153,2|0,0:1|0:0,0:0:0:0:
345,310,19241,2,0,B|317:293|317:293|345:300,1,53.9999983520509,2|0,0:0|0:0,0:0:0:0:
415,308,19579,2,0,B|283:324|346:360|191:371,1,215.999993408203,2|2,0:0|0:0,0:0:0:0:
72,295,20590,2,0,P|120:324|165:297,1,107.999996704102,8|0,0:1|0:0,0:0:0:0:
209,251,21095,1,8,0:1:0:0:
170,192,21264,1,2,0:0:0:0:
161,184,21601,6,0,L|174:127,1,53.9999983520509,2|0,0:0|0:0,0:0:0:0:
220,78,21938,1,10,2:1:0:0:
153,174,22107,6,0,L|140:117,1,53.9999983520509,2|2,0:0|0:0,0:0:0:0:
98,67,22444,1,8,0:1:0:0:
144,165,22612,6,0,L|183:37,1,107.999996704102,2|2,0:0|0:0,0:0:0:0:
260,155,23286,6,0,L|325:148,1,53.9999983520509,2|0,1:2|0:0,0:0:0:0:
405,186,23623,2,0,L|431:126,1,53.9999983520509,2|0,0:0|0:0,0:0:0:0:
468,43,23961,6,0,B|479:20|506:17|506:17|451:7|407:36|446:53|387:88|336:54,1,215.999993408203,2|8,1:2|0:1,0:0:0:0:
271,19,24972,2,0,P|189:43|102:78,1,161.999995056153,2|0,0:0|0:0,0:0:0:0:
44,122,25646,2,0,P|93:136|145:157,1,107.999996704102,2|10,0:0|2:1,0:0:0:0:
271,136,26320,1,2,0:0:0:0:
289,209,26489,1,8,0:1:0:0:
243,268,26657,1,2,0:0:0:0:
237,278,26994,6,0,P|255:304|246:338,1,53.9999983520508,2|0,0:0|0:0,0:0:0:0:
184,325,27331,2,0,P|152:327|127:302,1,53.9999983520508,10|0,2:1|0:0,0:0:0:0:
170,254,27668,2,0,P|183:225|217:216,1,53.9999983520508,2|0,0:0|0:0,0:0:0:0:
295,201,28005,6,0,B|392:203|363:158|471:161,1,161.999995056153,2|0,0:0|0:0,0:0:0:0:
512,95,28680,2,0,P|477:60|419:78,1,107.999996704102,2|2,1:2|0:1,0:0:0:0:
419,245,29354,6,0,B|465:235|479:299|479:299|465:277|494:229|520:264|526:177,2,215.999993408203,2|2|2,1:2|0:0|0:0,0:0:0:0:
346,372,31376,6,0,L|288:360,1,53.9999983520508,2|0,0:0|0:0,0:0:0:0:
244,311,31713,1,2,0:0:0:0:
188,358,31882,1,2,0:0:0:0:
247,305,32050,2,0,P|183:269|130:309,1,135.000005149841,2|2,0:0|0:0,0:0:0:0:
77,366,32725,5,8,0:1:0:0:
9,327,32893,1,2,0:0:0:0:
14,258,33062,1,2,0:0:0:0:
31,237,33230,1,2,2:1:0:0:
42,242,33399,2,0,L|75:148,1,90.0000034332277,2|2,0:0|0:0,0:0:0:0:
198,131,34073,6,0,L|166:123,1,22.5000008583069,2|0,0:0|0:0,0:0:0:0:
187,121,34410,6,0,L|155:113,1,22.5000008583069,2|0,0:0|0:0,0:0:0:0:
176,114,34747,6,0,L|70:87,1,107.999996704102,6|2,2:3|0:0,0:0:0:0:
11,18,35253,1,0,1:0:0:0:
31,174,35421,2,0,P|72:136|62:72,1,107.999996704102,10|0,2:1|0:0,0:0:0:0:
4,108,35927,1,2,0:0:0:0:
4,108,36011,1,2,0:0:0:0:
4,108,36095,2,0,B|130:126|73:161|214:175,1,215.999993408203,2|8,0:0|0:1,0:0:0:0:
350,117,37107,1,2,0:0:0:0:
395,176,37275,1,10,2:1:0:0:
364,243,37444,6,0,B|310:266|268:226|268:226|288:246|285:279,1,161.999995056153,2|0,1:2|1:0,0:0:0:0:
214,276,38118,1,8,0:1:0:0:
177,351,38455,2,0,P|173:295|230:281,1,107.999996704102,2|2,1:2|0:0,0:0:0:0:
261,346,38961,5,8,0:3:0:0:
279,355,39129,1,0,1:0:0:0:
301,346,39298,1,4,0:3:0:0:
346,295,39466,5,10,2:1:0:0:
369,220,39635,1,8,0:3:0:0:
456,208,39803,1,4,0:3:0:0:
512,279,39972,1,8,0:3:0:0:
491,369,40140,6,0,B|441:335|460:273|481:295|495:244|452:204,1,180,2|0,1:2|1:0,0:0:0:0:
364,162,40814,2,0,B|353:173|333:165|333:165|354:184|357:216|357:216|364:193|381:191,1,120,10|0,2:1|1:0,0:0:0:0:
488,144,41489,2,0,B|498:132|518:140|518:140|497:121|494:89|494:89|487:112|470:114,1,120,2|2,0:0|1:2,0:0:0:0:
350,91,42163,6,0,B|348:76|331:72|331:72|356:52|364:22|364:22|391:41|424:38|424:38|417:51|423:64,1,180,8|2,2:1|0:0,0:0:0:0:
411,144,42837,6,0,P|439:219|466:294,1,143.999995605469,10|2,0:3|0:0,0:0:0:0:
493,349,43343,1,0,1:0:0:0:
392,351,43511,2,0,P|405:295|465:280,1,120,2|0,0:0|1:0,0:0:0:0:
342,239,44185,2,0,P|305:212|313:148,1,96,2|0,0:0|1:0,0:0:0:0:
245,253,44859,2,2,P|214:266|176:238,1,72,8|2,0:1|0:0,0:0:0:0:
117,212,45534,6,0,L|163:27,1,180,2|0,1:2|1:0,0:0:0:0:
66,109,46208,2,0,B|26:106|19:69|19:69|33:99|67:98,1,120,2|2,0:0|1:0,0:0:0:0:
160,130,46882,2,0,B|177:166|149:189|149:189|167:163|149:134,1,120,2|0,0:0|1:0,0:0:0:0:
160,37,47556,2,0,B|182:3|216:16|216:16|185:13|169:43,1,120,10|2,2:1|0:0,0:0:0:0:
235,109,48062,1,2,0:0:0:0:
322,21,48230,6,0,L|386:34,1,60,2|2,1:2|0:0,0:0:0:0:
442,80,48567,2,0,L|500:68,1,60,2|0,0:0|1:0,0:0:0:0:
430,169,48904,2,0,P|367:148|366:93,1,120,2|2,0:0|1:2,0:0:0:0:
391,324,49579,6,0,L|327:311,1,60,2|0,1:2|1:0,0:0:0:0:
271,265,49916,2,0,L|212:276,1,60,0|2,1:0|0:0,0:0:0:0:
283,176,50253,2,0,P|346:197|347:252,1,120,10|2,2:1|0:0,0:0:0:0:
264,372,50927,6,0,L|251:326,5,30,2|2|2|2|2|2,0:0|0:0|0:0|0:0|0:0|0:0,0:0:0:0:
212,276,51938,2,0,L|225:230,1,30,2|0,0:0|0:0,0:0:0:0:
246,157,52275,1,4,0:3:0:0:
149,8,52612,6,0,L|161:59,1,30,8|8,0:3|0:3,0:0:0:0:
105,236,53118,5,4,0:3:0:0:
35,226,53286,5,8,0:3:0:0:
0,151,53455,5,0,1:0:0:0:
75,94,53623,6,0,B|119:144|79:213|42:177|2:266|62:316,1,240,4|2,1:2|0:0,0:0:0:0:
3,382,54129,1,2,0:0:0:0:
101,258,54298,2,0,P|163:245|203:292,1,120,10|0,0:0|0:0,0:0:0:0:
287,316,54635,1,2,0:0:0:0:
328,266,54803,1,2,1:2:0:0:
298,204,54972,6,0,B|335:173|383:186|410:222|410:222|418:178|464:149|516:175,1,240,2|2,0:0|1:2,0:0:0:0:
501,174,55477,1,2,0:0:0:0:
320,56,55646,2,0,B|351:44|388:60|403:105|392:121,1,120,8|2,0:0|0:0,0:0:0:0:
276,184,55983,2,0,B|253:173|215:194|242:208|205:229|169:222,1,120,2|8,0:0|0:0,0:0:0:0:
326,50,56320,2,0,B|402:26|460:111|416:216|291:222|240:122|299:136|254:46|191:34|131:71|126:146|186:162,1,480,2|10,1:2|0:0,0:0:0:0:
164,326,57331,6,0,B|223:340|223:340|273:292,1,120,2|0,0:0|1:0,0:0:0:0:
242,202,57668,2,0,B|183:188|183:188|133:236,1,120,2|8,0:0|0:0,0:0:0:0:
204,264,58005,5,2,1:2:0:0:
114,142,58174,2,0,P|98:91|146:43,1,120,2|8,0:0|0:0,0:0:0:0:
61,243,58511,5,2,1:2:0:0:
208,134,58680,2,0,P|244:94|309:112,1,120,2|2,0:0|0:0,0:0:0:0:
422,130,59017,6,0,B|474:133|495:83|495:83|547:160|507:239|411:281|455:187|335:165|268:217|288:319|378:344|410:283,1,528.000016113282,2|10,1:2|0:0,0:0:0:0:
490,71,60028,6,0,P|458:116|396:112,1,120,2|0,0:0|1:0,0:0:0:0:
217,152,60365,2,0,P|274:148|308:194,1,120,2|0,0:0|1:0,0:0:0:0:
377,372,60702,1,2,1:2:0:0:
287,260,60871,2,0,B|319:262|333:292|333:292|333:258|361:234,1,120,2|10,0:0|0:0,0:0:0:0:
478,209,61208,6,0,P|462:200|478:208,1,60,2|0,0:0|0:0,0:0:0:0:
468,306,61376,6,0,P|462:296|468:305,1,60,2|0,0:0|0:0,0:0:0:0:
377,372,61545,6,0,P|363:359|380:370,1,60,8|0,0:0|0:0,0:0:0:0:
252,370,61713,6,0,P|438:263|400:56,1,431.999986816407,2|2,1:2|0:0,0:0:0:0:
404,63,62388,2,0,B|359:59|347:26|347:26|387:24|404:62,1,143.999995605469,10|0,0:0|0:0,0:0:0:0:
342,129,62725,5,2,0:0:0:0:
294,189,62893,1,0,1:0:0:0:
230,154,63062,2,0,P|180:120|126:146,1,120,2|8,0:0|0:0,0:0:0:0:
50,233,63399,2,0,L|193:205,1,120,2|2,1:2|0:0,0:0:0:0:
277,319,63736,1,8,0:0:0:0:
379,207,63904,1,2,0:0:0:0:
271,332,64073,2,0,P|216:352|169:319,1,120,2|2,0:0|0:0,0:0:0:0:
41,227,64410,6,0,B|15:215|15:184|15:184|6:252|92:280|139:209|139:209|172:151|235:118|308:169|297:248|229:255,1,480,4|10,1:2|0:0,0:0:0:0:
74,157,65421,2,0,B|63:135|43:126|43:126|85:142|117:115,1,120,2|0,0:0|1:0,0:0:0:0:
244,162,65758,2,0,B|255:184|275:193|275:193|233:177|201:204,1,120,2|8,0:0|0:0,0:0:0:0:
164,279,66095,5,2,1:2:0:0:
74,157,66264,2,0,P|58:106|106:58,1,120,2|10,0:0|0:0,0:0:0:0:
41,260,66601,5,0,1:2:0:0:
182,133,66770,2,0,P|218:93|283:111,1,120,0|10,0:0|0:0,0:0:0:0:
399,37,67107,6,0,B|426:72|460:65|460:65|427:77|421:111|427:139|427:139|505:160|532:249|476:320|476:320|478:261|427:247,1,480,2|10,1:2|0:0,0:0:0:0:
356,363,68118,1,2,0:0:0:0:
407,312,68286,1,0,1:0:0:0:
347,270,68455,2,0,P|300:235|245:258,1,120,2|8,0:0|0:0,0:0:0:0:
194,333,68792,2,0,P|147:368|92:345,1,120,2|2,1:2|0:0,0:0:0:0:
15,256,69129,6,0,B|-3:207|80:123|74:211|157:132|119:54,1,240,8|2,0:0|0:0,0:0:0:0:
117,55,69635,1,2,0:0:0:0:
26,7,69803,6,0,B|-38:132|125:288|113:115|277:281|242:377,1,480,4|10,1:2|0:0,0:0:0:0:
332,242,70814,1,2,0:0:0:0:
341,165,70983,1,0,1:0:0:0:
277,122,71152,2,0,P|222:141|158:169,1,120,2|8,0:0|0:0,0:0:0:0:
34,246,71489,2,0,P|89:265|153:293,1,120,0|2,1:0|0:0,0:0:0:0:
247,377,71826,6,0,B|298:403|356:328|295:343|340:269|394:283|394:283|367:284|356:314,1,240,10|2,0:0|0:0,0:0:0:0:
408,347,72331,1,8,0:0:0:0:
262,314,72500,6,0,B|210:254|115:157|215:43|348:121|283:194,1,360,4|8,1:2|0:0,0:0:0:0:
287,203,73174,2,0,B|324:175|310:122|266:111,1,120,8|0,0:0|0:0,0:0:0:0:
227,26,73511,5,0,1:0:0:0:
297,5,73680,1,2,0:0:0:0:
354,52,73848,2,0,B|335:94|374:133|418:121,1,120,2|8,1:2|0:0,0:0:0:0:
497,32,74185,5,8,0:0:0:0:
506,52,74354,1,2,1:2:0:0:
503,72,74522,1,8,0:0:0:0:
443,146,74691,6,0,P|426:131|412:108,1,35.9999989013672,10|0,0:0|0:0,0:0:0:0:
374,23,74859,6,0,P|359:40|350:65,1,35.9999989013672,2|0,1:2|0:0,0:0:0:0:
279,70,75028,2,0,P|287:91|304:112,1,35.9999989013672,2|0,0:0|0:0,0:0:0:0:
272,174,75196,6,0,B|214:149|133:189|194:226|114:264|46:229,1,240,4|2,1:2|0:0,0:0:0:0:
0,306,75702,1,2,0:0:0:0:
94,167,75871,2,0,P|75:114|50:52,1,120,8|2,0:0|0:0,0:0:0:0:
11,144,76208,5,2,0:0:0:0:
26,217,76376,1,0,1:0:0:0:
94,249,76545,2,0,B|155:222|206:275|206:275|235:206|329:216,1,240,2|2,0:0|1:0,0:0:0:0:
306,217,77050,1,2,0:0:0:0:
423,319,77219,2,0,P|456:272|428:208,1,120,10|2,0:0|0:0,0:0:0:0:
311,299,77556,2,0,B|273:290|241:311|269:324|235:346|195:338,1,120,2|8,0:0|0:0,0:0:0:0:
425,330,77893,2,0,B|468:318|498:221|413:191|413:191|341:169|307:98|366:38|366:38|448:67|421:120,1,480,2|10,1:2|0:0,0:0:0:0:
390,264,78904,5,2,0:0:0:0:
322,240,79073,1,0,1:0:0:0:
282,300,79241,2,0,P|222:315|168:334,1,120,2|8,0:0|0:0,0:0:0:0:
49,377,79579,5,2,1:2:0:0:
24,313,79747,2,0,P|-10:267|13:215,1,120,2|8,0:0|0:0,0:0:0:0:
141,199,80084,5,2,0:0:0:0:
174,140,80253,2,0,P|208:94|184:42,1,120,2|2,0:0|0:0,0:0:0:0:
84,16,80590,6,0,P|154:157|230:387,1,396.000012084961,4|2,1:2|0:0,0:0:0:0:
238,374,81264,2,0,B|252:302|289:342|308:242,1,132.00000402832,8|0,0:0|0:0,0:0:0:0:
344,147,81601,6,0,B|319:166|308:195|308:195|290:170|250:157,1,120,2|0,0:0|1:0,0:0:0:0:
375,15,81938,2,0,B|400:13|420:6|420:6|393:28|371:69,1,120,0|8,0:0|0:0,0:0:0:0:
292,105,82275,1,0,0:0:0:0:
182,61,82444,2,0,B|157:67|136:68|136:68|169:79|204:110,1,120,2|10,0:0|0:0,0:0:0:0:
344,147,82781,2,0,P|354:177|369:206,1,60,2|0,0:0|0:0,0:0:0:0:
391,274,82949,6,0,P|360:267|327:266,1,60,2|0,0:0|0:0,0:0:0:0:
258,242,83118,6,0,P|278:218|296:190,1,60,10|0,0:0|0:3,0:3:0:0:
269,329,83286,6,0,B|290:408|178:432|120:321|261:241,1,287.999991210938,4|8,1:2|0:0,0:0:0:0:
265,235,83792,1,0,1:0:0:0:
356,109,83961,6,0,B|332:22|453:-3|516:117|364:203,1,311.999985717774,12|2,0:0|0:0,0:0:0:0:
214,184,84466,1,0,1:0:0:0:
214,184,84635,2,0,B|163:202|103:162|157:146|98:111|38:136,2,180.000006866455,2|2|10,1:2|1:2|0:0,0:0:0:0:
87,273,85646,2,0,P|62:240|86:190,1,90.0000034332277,2|2,0:0|0:0,0:0:0:0:
186,120,85983,6,0,B|373:76|373:76|317:89|315:142,1,287.999991210938,4|10,1:2|0:0,0:0:0:0:
464,215,86994,1,2,0:0:0:0:
379,145,87163,1,0,1:0:0:0:
468,208,87331,2,0,L|401:238,1,71.9999978027344,2|8,0:0|0:0,0:0:0:0:
348,310,87668,2,0,L|274:286,1,71.9999978027344,0|0,1:0|0:0,0:0:0:0:
188,219,88005,6,0,B|152:233|157:275|157:275|129:240|91:248,1,143.999995605469,10|2,0:0|0:0,0:0:0:0:
175,338,88511,1,8,0:0:0:0:
126,183,88680,2,0,B|104:175|104:175|104:126|104:126|138:163|138:163|127:183,1,143.999995605469,2|2,1:2|0:0,0:0:0:0:
7,13,89354,6,0,P|46:28|95:42,1,71.9999978027344,10|0,0:0|0:0,0:0:0:0:
104,127,89691,2,0,P|143:112|192:98,1,71.9999978027344,2|0,0:0|1:0,0:0:0:0:
234,22,90028,2,0,P|261:50|251:93,1,71.9999978027344,2|8,1:0|0:0,0:0:0:0:
288,165,90365,1,0,1:0:0:0:
279,173,90702,2,0,B|266:258|331:226|315:318,1,143.999995605469,10|2,0:0|0:0,0:0:0:0:
207,380,91376,6,0,P|188:350|197:316,1,71.9999978027344,4|8,1:2|0:0,0:0:0:0:
210,229,91713,1,2,1:0:0:0:
84,111,92050,6,0,P|65:141|74:175,1,71.9999978027344,12|2,0:0|0:0,0:0:0:0:
87,262,92387,1,8,0:0:0:0:
210,229,92556,6,0,B|215:257|197:275|197:275|248:244|240:283|314:278|341:212|282:171|258:200,1,215.999993408203,4|0,1:2|1:0,0:0:0:0:
241,142,93230,6,0,B|234:124|234:124|241:141,1,35.9999989013672,8|0,0:0|0:0,0:0:0:0:
312,123,93399,2,0,B|315:104|315:104|313:122,1,35.9999989013672,8|0,0:3|0:0,0:0:0:0:
356,178,93567,2,0,B|368:163|368:163|356:178,1,35.9999989013672,8|0,0:3|0:0,0:0:0:0:
237,134,93736,6,0,B|230:116|230:116|237:133,1,35.9999989013672,4|0,0:3|0:0,0:0:0:0:
308,120,93904,2,0,B|311:101|311:101|309:119,1,35.9999989013672,4|0,0:3|0:0,0:0:0:0:
362,170,94073,2,0,B|376:150|376:150|364:171|364:171|351:202|361:237|402:247,1,143.999995605469,4|0,1:2|0:0,0:0:0:0:
455,120,94579,2,0,L|473:189,1,71.9999978027344,8|0,0:0|0:0,0:0:0:0:
493,283,94916,5,4,0:3:0:0:
495,348,95084,5,8,0:3:0:0:
462,371,95253,5,0,1:0:0:0:
445,370,95421,6,0,B|394:387|323:347|381:329|310:284|250:317,2,215.999993408203,2|2|2,0:0|0:0|0:0,0:0:0:0:
287,375,96770,5,2,1:2:0:0:
215,376,97107,1,2,0:0:0:0:
177,314,97444,1,2,0:0:0:0:
111,89,98118,5,2,0:0:0:0:
50,49,98455,1,2,0:0:0:0:
111,89,99129,5,2,0:0:0:0:
50,49,99466,2,0,P|73:15|114:12,1,83.9999974365235,2|2,0:0|0:0,0:0:0:0:
111,89,100477,1,2,0:0:0:0:
17,354,101152,5,2,0:0:0:0:
30,360,101489,1,2,0:0:0:0:
45,354,101826,1,2,0:0:0:0:
110,288,102163,5,2,1:2:0:0:
178,259,102500,1,2,0:0:0:0:
233,312,102837,1,2,0:0:0:0:
395,127,103511,5,2,0:0:0:0:
327,98,103848,1,2,0:0:0:0:
395,127,104522,5,2,0:0:0:0:
327,98,104859,2,0,P|348:63|389:57,1,83.9999974365235,2|2,0:0|0:0,0:0:0:0:
395,127,105871,2,0,L|384:174,1,41.9999987182618,2|4,0:0|0:3,0:0:0:0:
470,294,106545,5,8,0:3:0:0:
358,261,106713,1,8,0:3:0:0:
358,261,107050,5,8,0:3:0:0:
325,321,107219,5,10,0:0:0:0:
244,344,107388,5,10,0:0:0:0:
170,292,107556,6,0,P|68:266|34:362,1,215.999993408203,4|2,1:2|0:0,0:0:0:0:
122,363,108567,2,0,P|117:348|121:364,1,53.9999983520508,2|2,0:0|0:0,0:0:0:0:
120,364,108904,2,0,P|95:311|66:248,1,107.999996704102,10|2,0:0|0:0,0:0:0:0:
9,187,109579,2,0,P|23:160|41:120,1,53.9999983520508,8|0,0:1|0:0,0:0:0:0:
30,48,109916,2,0,P|53:69|88:63,1,53.9999983520508,0|0,1:0|1:0,0:0:0:0:
139,129,110253,2,0,P|162:108|197:114,1,53.9999983520508,2|0,1:2|0:0,0:0:0:0:
272,138,110590,2,0,L|226:22,2,107.999996704102,2|2|2,0:0|0:0|0:0,0:0:0:0:
366,48,111601,6,0,B|413:13|478:30|489:95|489:95|448:133,1,215.999993408203,10|2,0:0|0:0,0:0:0:0:
419,204,112612,2,2,P|392:197|419:203,1,80.9999975280763,0|0,1:0|0:0,0:0:0:0:
419,201,112949,2,0,B|372:187|330:222|370:234|320:272|260:245,1,161.999995056153
219,207,113623,2,0,P|190:222|150:235,1,53.9999983520508,2|0,0:0|0:0,0:0:0:0:
79,225,113961,2,0,P|73:284|121:309,1,107.999996704102,2|10,0:0|0:0,0:0:0:0:
185,364,114635,5,2,0:0:0:0:
241,290,114972,2,0,P|267:296|294:304,1,53.9999983520508,10|0,0:0|0:0,0:0:0:0:
349,366,115309,2,0,P|375:358|401:352,1,53.9999983520508,0|2,1:0|0:0,0:0:0:0:
488,362,115646,2,0,B|492:308|446:291|446:291|471:299|497:296|514:275,2,161.999995056153,2|2|0,1:0|1:0|1:0,0:0:0:0:
469,229,116994,6,0,L|441:110,1,107.999996704102,8|2,0:0|1:2,0:0:0:0:
487,34,117668,2,0,P|459:21|425:32,1,53.9999983520508,10|2,0:0|0:0,0:0:0:0:
377,87,118005,1,4,0:3:0:0:
327,15,118174,1,8,0:3:0:0:
341,155,118343,6,0,B|290:197|216:153|257:135|198:98|139:120,1,215.999993408203,4|2,1:2|0:0,0:0:0:0:
0,72,119354,2,0,P|37:39|98:67,1,107.999996704102,2|10,0:0|0:0,0:0:0:0:
57,136,120028,2,0,L|73:203,1,53.9999983520508,2|0,0:0|0:0,0:0:0:0:
184,195,120365,2,0,L|117:175,1,53.9999983520508,8|0,0:1|0:0,0:0:0:0:
68,283,120702,2,0,L|118:235,1,53.9999983520508,2|2,1:2|0:0,0:0:0:0:
244,164,121039,6,0,B|235:139|209:131|209:131|377:164,1,215.999993408203,2|2,1:2|0:0,0:0:0:0:
434,93,122050,2,0,P|453:110|458:136,1,53.9999983520508,2|0,0:0|0:0,0:0:0:0:
406,264,122388,2,0,P|389:213|362:140,1,107.999996704102,10|2,0:0|0:0,0:0:0:0:
498,245,123062,2,0,P|490:274|481:308,1,53.9999983520508,2|0,0:0|0:0,0:0:0:0:
489,367,123399,2,0,P|461:369|432:337,1,53.9999983520508,2|2,1:2|0:0,0:0:0:0:
344,321,123736,6,0,B|282:320|257:372|257:372|210:335|148:364,2,215.999993408203,2|2|10,1:2|0:0|0:0,0:0:0:0:
258,181,125758,2,0,B|220:179|214:155|214:155|219:179|185:200,1,107.999996704102,2|2,0:0|1:2,0:0:0:0:
240,268,126432,1,0,1:0:0:0:
270,115,126770,2,0,P|304:122|317:159,1,53.9999983520508,2|0,0:0|1:0,0:0:0:0:
201,85,127107,2,0,L|186:15,1,53.9999983520508,2|0,0:0|0:0,0:0:0:0:
145,146,127444,2,0,P|121:168|117:196,1,53.9999983520508,0|2,1:0|0:0,0:0:0:0:
39,291,127781,6,0,P|92:304|154:323,1,107.999996704102,8|0,0:0|1:0,0:0:0:0:
226,359,128455,2,0,P|251:351|278:344,1,53.9999983520508,10|0,0:0|0:0,0:0:0:0:
357,299,128792,1,4,0:3:0:0:
337,384,128961,1,8,0:3:0:0:
311,247,129129,6,0,B|284:217|315:153|338:193|368:138|324:88,1,161.999995056153,4|0,1:2|0:0,0:0:0:0:
259,61,129803,2,0,P|290:20|357:28,1,107.999996704102,2|0,0:0|0:0,0:0:0:0:
413,74,130309,1,2,0:0:0:0:
413,74,130393,1,2,0:0:0:0:
413,74,130477,2,0,B|488:46|488:46|521:129|446:168,1,215.999993408203,10|0,0:0|1:0,0:0:0:0:
363,162,131489,1,2,1:2:0:0:
323,218,131657,1,2,0:0:0:0:
366,272,131826,6,0,B|416:274|433:232|433:232|429:278|475:302,1,161.999995056153,2|0,1:2|1:0,0:0:0:0:
405,334,132500,1,8,0:1:0:0:
433,232,132837,2,0,L|447:173,1,53.9999983520508,2|2,1:2|0:0,0:0:0:0:
512,136,133174,2,0,B|461:135|446:178|446:178|448:132|402:109,1,161.999995056153,10|0,0:0|0:0,0:0:0:0:
343,62,133848,2,0,L|270:86,1,53.9999983520508,2|0,0:0|0:0,0:0:0:0:
216,132,134185,2,0,L|158:80,1,53.9999983520508,2|2,1:2|0:0,0:0:0:0:
105,25,134522,6,0,B|59:59|75:122|110:91|125:165|67:202,1,180,2|0,1:2|0:0,0:0:0:0:
22,222,135196,2,0,P|47:262|123:240,1,120,10|0,0:1|1:0,0:0:0:0:
194,201,135871,2,0,P|232:246|276:318,1,120,10|2,0:0|0:0,0:0:0:0:
305,355,136376,1,0,1:0:0:0:
307,225,136545,2,0,P|339:174|378:128,1,120,10|0,0:1|1:0,0:0:0:0:
475,75,137219,6,0,B|498:60|480:29|480:29|484:22|484:22|461:59|477:52|471:79,1,120,2|2,1:2|0:0,0:0:0:0:
381,130,137893,2,0,B|354:137|369:148|325:146|325:146|333:146|333:146|351:115|381:130,1,120,2|0,0:0|1:0,0:0:0:0:
482,194,138567,2,0,B|501:212|503:195|523:233|523:233|520:226|520:226|484:227|482:194,1,120,10|2,0:0|0:0,0:0:0:0:
443,140,139073,1,0,1:0:0:0:
443,140,139241,2,0,P|447:121|445:141,1,60,10|0,0:1|1:0,0:0:0:0:
363,239,139916,6,0,B|333:227|302:251|302:251|307:292|348:306,1,120,2|2,1:2|0:0,0:0:0:0:
447,351,140590,2,0,B|477:363|508:339|508:339|502:301|462:284,1,120,2|0,0:0|1:0,0:0:0:0:
367,369,141264,6,0,P|408:284|456:195,1,180,10|0,0:0|1:0,0:0:0:0:
476,148,141938,2,0,B|459:116|477:133|499:104|499:104|488:136|516:142|476:148,1,120,10|0,0:1|1:0,0:0:0:0:
201,309,142612,6,0,B|196:281|210:266|237:260,1,69.0000013160706,4|2,1:2|0:0,0:0:0:0:
64,208,142949,2,0,B|93:202|107:187|101:159,1,69.0000013160706,0|2,1:0|0:0,0:0:0:0:
67,279,143286,6,0,B|89:291|84:318|84:318|109:309|128:326,1,93.0000007095337,10|2,0:0|0:0,0:0:0:0:
227,190,143623,2,0,B|206:178|211:151|211:151|186:160|167:143,1,93.0000007095337,10|2,0:0|0:0,0:0:0:0:
266,323,143961,6,0,B|265:343|265:343|296:352|296:352|286:321|286:321|266:324,1,105.000001001358,10|2,0:0|0:0,0:0:0:0:
253,101,144298,6,0,B|274:98|274:98|277:66|277:66|249:82|249:82|255:101,1,105.000001001358,10|2,0:0|0:0,0:0:0:0:
36,148,144635,6,0,B|38:127|38:127|7:118|7:118|17:149|17:149|35:146,1,105.000001001358,12|2,0:0|0:0,0:0:0:0:
147,237,144972,5,2,0:0:0:0:
152,228,145056,1,2,0:0:0:0:
163,229,145140,1,2,0:0:0:0:
159,241,145225,1,2,0:0:0:0:
158,235,145309,6,0,B|203:224|237:262|231:300|231:300|232:257|216:166|288:114|343:136|343:136|375:176|357:223|310:235,1,468.000001785278,6|2,1:2|0:0,0:0:0:0:
160,299,146320,1,2,0:0:0:0:
190,359,146489,1,0,1:0:0:0:
258,357,146657,2,0,P|300:327|344:348,1,90.0000034332277,10|0,0:0|1:0,0:0:0:0:
412,376,146994,5,2,0:0:0:0:
509,307,147163,2,0,P|467:315|434:287,1,90.0000034332277,8|8,0:3|0:3,0:0:0:0:
373,212,147500,5,8,3:0:0:0:
342,144,147668,5,4,0:3:0:0:
377,54,147837,5,0,1:0:0:0:
488,20,148005,6,0,B|447:88|354:64|404:18|314:-2|278:44,1,240,4|2,1:2|0:0,0:0:0:0:
213,113,148511,1,2,0:0:0:0:
88,20,148680,2,0,P|149:12|173:64,1,120,10|0,0:0|0:0,0:0:0:0:
127,131,149017,1,2,0:0:0:0:
91,191,149185,1,2,1:2:0:0:
127,254,149354,6,0,B|178:259|199:175|199:175|179:259|228:285,1,240,2|2,0:0|1:2,0:0:0:0:
236,284,149859,1,2,0:0:0:0:
156,342,150028,2,0,P|102:353|56:300,1,120,10|2,0:0|0:0,0:0:0:0:
240,350,150365,2,0,B|271:356|301:331|279:318|310:292|342:298,1,120,2|8,0:0|0:0,0:0:0:0:
160,350,150702,2,0,B|116:377|59:357|41:294|41:294|27:229|80:170|80:170|57:174|57:174|115:118|74:51|4:83|13:119,1,480,2|10,1:2|0:0,0:0:0:0:
127,254,151713,6,0,B|185:218|185:218|158:233|151:268,1,120,2|0,0:0|1:0,0:0:0:0:
306,300,152050,2,0,B|248:336|248:336|275:321|282:286,1,120,2|8,0:0|0:0,0:0:0:0:
214,277,152388,1,2,1:2:0:0:
272,213,152556,2,0,B|337:204|311:263|401:241,1,120,2|10,0:0|0:0,0:0:0:0:
465,284,152893,1,2,0:0:0:0:
453,128,153062,2,0,B|408:109|363:137|362:177,1,120,2|8,0:0|0:0,0:0:0:0:
430,378,153399,6,0,B|360:403|323:336|352:275|415:277|415:277|482:280|539:234|533:126|439:78|348:139|370:197,1,528.000016113282,2|10,1:2|0:0,0:0:0:0:
477,263,154410,2,0,B|512:246|519:177|488:156,1,120,2|0,0:0|1:0,0:0:0:0:
397,279,154747,2,0,B|394:317|450:358|484:342,1,120,2|8,0:0|0:0,0:0:0:0:
368,378,155084,1,0,0:0:0:0:
431,204,155253,2,0,B|399:182|336:210|332:247,1,120,2|10,0:0|0:0,0:0:0:0:
249,384,155590,6,0,P|267:361|266:331,1,60,2|0,0:0|0:0,0:0:0:0:
157,312,155758,6,0,P|186:316|210:300,1,60,2|0,0:0|0:0,0:0:0:0:
173,193,155927,6,0,P|183:220|209:233,1,60,10|0,0:0|0:0,0:0:0:0:
333,244,156095,2,0,B|370:244|385:211|385:211|357:335|197:280|264:232|137:182|72:249,1,431.999986816407,2|2,1:2|0:0,0:0:0:0:
70,257,156770,2,0,B|33:282|39:317|39:317|74:299|70:257,1,143.999995605469,10|0,0:0|0:0,0:0:0:0:
0,198,157107,5,2,0:0:0:0:
33,139,157275,1,0,1:0:0:0:
103,149,157444,2,0,P|136:107|208:122,1,120,2|8,0:0|0:0,0:0:0:0:
325,180,157781,2,0,L|291:65,1,120,2|2,1:2|0:0,0:0:0:0:
404,207,158118,1,10,0:0:0:0:
250,189,158286,1,2,0:0:0:0:
401,219,158455,2,0,P|363:262|306:255,1,120,2|0,0:0|1:0,0:0:0:0:
118,189,158792,6,0,B|102:217|74:221|46:211|46:211|74:239|139:238|150:154|150:154|157:166|157:166|180:78|247:80|283:102|304:179|235:195,1,480,4|10,1:2|0:0,0:0:0:0:
67,144,159803,1,2,0:0:0:0:
0,168,159972,1,0,1:0:0:0:
0,240,160140,2,0,P|31:286|101:269,1,120,2|8,0:0|0:0,0:0:0:0:
250,189,160477,5,2,1:2:0:0:
177,325,160646,2,0,P|155:264|134:207,1,120,2|8,0:0|0:0,0:0:0:0:
280,98,160983,5,0,0:0:0:0:
416,229,161152,2,0,P|435:172|456:116,1,120,2|8,0:0|0:0,0:0:0:0:
327,329,161489,2,0,B|364:303|363:268|363:268|342:241|296:241|296:241|302:227|302:227|228:232|170:186|172:109|218:66|218:66|195:107|227:139,1,480,2|10,1:2|0:0,0:0:0:0:
396,156,162500,5,2,0:0:0:0:
456,116,162668,1,0,1:0:0:0:
431,47,162837,2,0,P|376:69|301:94,1,120,2|8,0:0|0:0,0:0:0:0:
223,138,163174,2,0,P|167:115|110:96,1,120,2|2,1:2|0:0,0:0:0:0:
0,96,163511,6,0,B|-18:145|65:229|59:141|142:220|104:298,1,240,10|2,0:0|0:0,0:0:0:0:
106,299,164017,1,2,0:0:0:0:
31,375,164185,6,0,B|-33:250|130:94|118:267|282:101|247:5,1,480,4|10,1:2|0:0,0:0:0:0:
111,70,165196,1,2,0:0:0:0:
70,127,165365,1,0,1:0:0:0:
115,184,165534,2,0,P|150:221|216:210,1,120,2|8,0:0|0:0,0:0:0:0:
279,134,165871,2,0,P|314:97|380:108,1,120,2|2,1:2|0:0,0:0:0:0:
405,236,166208,6,0,B|405:209|430:197|430:197|385:220|348:238|348:238|314:295|381:327,1,240,10|2,0:0|0:0,0:0:0:0:
379,328,166713,1,10,0:0:0:0:
471,250,166882,2,0,B|529:213|501:135|434:128|434:128|430:122|430:122|359:115|339:47|391:-8|432:26,1,360,4|8,1:2|0:0,0:0:0:0:
430,16,167556,2,0,B|373:-4|342:49|371:104,1,120,10|0,0:0|1:0,0:0:0:0:
329,175,167893,5,0,1:0:0:0:
283,232,168062,1,2,0:0:0:0:
226,190,168230,2,0,B|246:158|215:105|158:125,1,120,2|8,1:2|0:0,0:0:0:0:
39,134,168567,5,8,0:0:0:0:
36,154,168735,1,2,1:2:0:0:
45,174,168904,1,10,0:0:0:0:
93,250,169073,6,0,P|111:234|122:198,1,35.9999989013672,2|2,0:0|0:0,0:0:0:0:
162,123,169241,6,0,P|180:139|191:175,1,35.9999989013672,2|0,1:2|0:0,0:0:0:0:
254,184,169410,2,0,P|249:207|223:235,1,35.9999989013672,2|0,0:0|0:0,0:0:0:0:
253,306,169579,6,0,B|201:272|123:313|172:345|93:389|30:348,1,240,4|2,1:2|0:0,0:0:0:0:
82,278,170084,1,2,0:0:0:0:
210,365,170253,2,0,P|271:378|314:338,1,120,10|0,0:0|0:0,0:0:0:0:
359,266,170590,5,2,0:0:0:0:
293,250,170758,1,2,1:0:0:0:
253,306,170927,2,0,B|227:280|192:292|192:292|238:257|229:188|152:175|135:226,1,240,2|2,0:0|1:2,0:0:0:0:
129,236,171432,1,2,0:0:0:0:
33,354,171601,2,0,P|15:299|53:256,1,120,10|2,0:0|0:0,0:0:0:0:
107,326,171938,2,0,B|138:317|172:340|146:349|183:374|216:364,1,120,2|8,0:0|0:0,0:0:0:0:
31,363,172275,2,0,B|-13:325|-1:259|68:240|68:240|121:225|156:156|108:80|45:90|45:90|85:96|108:141|90:176,1,480,2|10,1:2|0:0,0:0:0:0:
74,309,173286,5,2,0:0:0:0:
136,331,173455,1,0,1:0:0:0:
174,277,173623,2,0,P|231:292|300:316,1,120,2|8,0:0|0:0,0:0:0:0:
395,368,173961,5,2,1:2:0:0:
444,312,174129,2,0,P|485:271|456:202,1,120,0|8,0:0|0:0,0:0:0:0:
357,229,174466,5,2,0:0:0:0:
302,182,174635,2,0,P|261:141|290:72,1,120,2|2,0:0|0:0,0:0:0:0:
374,18,174972,6,0,P|283:164|219:379,1,396.000012084961,4|2,1:2|0:0,0:0:0:0:
212,382,175646,2,0,B|208:303|165:334|159:260,1,132.00000402832,10|0,0:0|0:0,0:0:0:0:
109,152,175983,6,0,P|158:194|220:164,1,120,2|0,0:0|1:0,0:0:0:0:
116,51,176320,2,0,B|90:21|48:44|48:44|84:48|101:79,1,120,2|8,0:0|0:0,0:0:0:0:
167,123,176657,1,2,1:2:0:0:
245,71,176826,2,0,B|279:51|311:87|311:87|276:79|249:102,1,120,2|10,0:0|0:0,0:0:0:0:
87,221,177163,6,0,P|85:185|61:168,1,60,2|0,0:0|0:0,0:0:0:0:
153,171,177331,6,0,P|184:187|211:175,1,60,2|0,0:0|0:0,0:0:0:0:
169,251,177500,6,0,P|140:271|136:298,1,60,10|0,0:0|0:0,0:0:0:0:
38,322,177668,6,0,B|39:360|12:376|12:376|142:325|142:325|131:298|148:259|184:252,1,287.999991210938,4|8,1:2|0:0,0:0:0:0:
205,308,178174,1,0,1:0:0:0:
370,298,178343,6,0,B|368:259|396:243|396:243|265:294|265:294|276:322|259:361|223:368,1,300,4|2,1:2|0:0,0:0:0:0:
294,215,178848,1,0,1:0:0:0:
294,215,179017,2,0,B|304:163|249:123|247:167|195:123|211:75,2,180.000006866455,2|2|10,0:0|1:2|0:0,0:0:0:0:
274,286,179859,1,0,1:0:0:0:
274,286,180028,2,0,P|312:290|352:257,1,90.0000034332277,2|0,0:0|1:0,0:0:0:0:
227,208,180365,6,0,B|176:230|141:186|141:186|105:138|38:178|38:178|46:240|110:240,1,287.999991210938,4|10,1:2|0:0,0:0:0:0:
201,140,181376,1,2,0:0:0:0:
244,85,181545,1,0,1:0:0:0:
310,117,181713,2,0,P|346:131|391:144,1,71.9999978027344,2|8,0:0|0:0,0:0:0:0:
501,177,182050,2,0,P|466:187|433:200,1,71.9999978027344,0|2,1:0|0:0,0:0:0:0:
360,265,182388,6,0,P|304:298|327:371,1,143.999995605469,10|2,0:0|0:0,0:0:0:0:
244,273,182893,1,8,0:0:0:0:
391,362,183062,2,0,B|492:336|468:404|412:311,1,143.999995605469,0|2,1:0|0:0,0:0:0:0:
347,169,183736,6,0,P|313:182|279:192,1,71.9999978027344,10|0,0:0|0:0,0:0:0:0:
200,241,184073,2,0,P|166:227|132:217,1,71.9999978027344,2|0,0:0|1:0,0:0:0:0:
43,219,184410,2,0,P|37:186|78:152,1,71.9999978027344,2|8,0:0|0:0,0:0:0:0:
112,104,184747,1,0,1:2:0:0:
120,97,185084,6,0,B|163:113|209:84|172:68|223:39|262:59,1,143.999995605469,10|2,0:0|0:0,0:0:0:0:
327,13,185590,1,8,0:0:0:0:
415,101,185758,6,0,P|401:135|389:173,1,71.9999978027344,4|8,1:2|0:0,0:0:0:0:
363,253,186095,1,0,1:0:0:0:
272,372,186432,6,0,P|260:337|247:304,1,71.9999978027344,12|0,0:0|0:0,0:0:0:0:
206,228,186770,1,0,1:0:0:0:
325,318,186938,6,0,B|358:341|402:331|423:295|423:295|429:335|459:367|516:350,1,215.999993408203,4|0,1:2|1:0,0:0:0:0:
492,287,187612,6,0,P|484:267|474:234,1,35.9999989013672,8|0,0:0|0:0,0:0:0:0:
447,191,187781,2,0,L|458:143,1,35.9999989013672,8|0,0:3|0:0,0:0:0:0:
366,257,187949,6,0,P|377:243|388:229,1,35.9999989013672,8|0,0:3|0:0,0:0:0:0:
453,184,188118,2,0,L|464:136,1,35.9999989013672,4|0,0:3|0:0,0:0:0:0:
476,81,188286,6,0,P|479:69|478:82,1,35.9999989013672,4|0,0:3|0:0,0:0:0:0:
481,73,188455,6,0,B|473:27|473:27|495:15|495:15|510:34|510:34|482:73,1,143.999995605469,4|2,1:2|0:0,0:0:0:0:
461,148,188961,1,10,0:0:0:0:
461,148,189129,2,0,L|443:226,1,72,4|0,1:2|0:0,0:0:0:0:
411,348,189803,6,0,P|377:358|343:338,1,60,10|2,0:0|1:2,0:0:0:0:
286,295,190140,2,0,P|257:286|229:296,1,60,8|10,0:0|0:0,0:0:0:0:
185,344,190393,1,8,0:0:0:0:
177,354,190477,1,2,1:0:0:0:
78,278,190646,5,10,0:0:0:0:
170,364,190814,1,10,0:0:0:0:
82,264,190983,5,0,1:0:0:0:
92,377,191152,6,0,B|74:340|81:298|128:262|125:322|169:282|189:230|146:184,1,215.999993408203,2|2,1:2|0:0,0:0:0:0:
125,132,191826,1,10,0:0:0:0:
31,12,192163,5,2,0:0:0:0:
88,56,192331,1,0,1:0:0:0:
153,14,192500,2,0,P|224:29|296:52,1,143.999995605469,2|0,0:0|1:0,0:0:0:0:
363,103,193005,1,2,0:0:0:0:
448,12,193174,2,0,P|494:38|466:122,1,143.999995605469,10|2,0:0|0:0,0:0:0:0:
396,252,193848,6,0,P|377:177|355:97,1,143.999995605469,2|0,1:2|0:0,0:0:0:0:
309,199,194354,1,2,1:2:0:0:
443,177,194522,2,0,P|476:189|519:201,1,71.9999978027344,10|2,0:0|0:0,0:0:0:0:
457,310,194859,6,0,P|387:329|320:354,1,143.999995605469,2|2,1:2|0:0,0:0:0:0:
204,299,195534,2,0,P|177:326|190:369,1,71.9999978027344,2|0,1:2|0:0,0:0:0:0:
273,284,195871,2,0,P|263:247|219:236,1,71.9999978027344,10|0,0:0|0:0,0:0:0:0:
257,363,196208,2,0,P|293:372|324:340,1,71.9999978027344,2|2,0:0|0:0,0:0:0:0:
204,299,196545,6,0,B|174:331|123:315|100:250|145:285|126:223|74:199|41:227,1,215.999993408203,2|2,1:2|0:0,0:0:0:0:
0,278,197219,1,10,0:0:0:0:
83,149,197556,5,2,0:0:0:0:
150,160,197725,1,0,1:0:0:0:
182,227,197893,2,0,P|230:208|327:177,1,143.999995605469,2|0,0:0|1:0,0:0:0:0:
404,203,198399,1,2,0:0:0:0:
441,86,198567,2,0,P|388:121|318:78,1,143.999995605469,10|2,0:0|0:0,0:0:0:0:
175,17,199241,6,0,B|33:66|33:66|72:63|90:107,1,215.999993408203,4|2,1:2|0:0,0:0:0:0:
74,169,199916,1,10,0:0:0:0:
210,246,200253,6,0,L|163:106,1,143.999995605469,4|0,1:2|0:0,0:0:0:0:
253,158,200758,1,10,0:0:0:0:
76,245,200927,6,0,B|57:239|57:239|75:247,1,35.9999989013672,6|0,1:2|0:0,0:0:0:0:
84,248,201264,1,10,0:0:0:0:
249,331,201432,6,0,B|268:325|268:325|250:333,1,35.9999989013672,6|0,1:2|0:0,0:0:0:0:
312,340,201601,2,0,B|298:337|287:330|287:330|261:337|261:337|248:372|211:373,1,107.999996704102,2|0,0:0|0:0,0:0:0:0:
207,375,201938,6,0,P|161:357|190:271,1,143.999995605469,4|2,1:2|0:0,0:0:0:0:
246,213,202444,1,2,1:2:0:0:
246,213,202612,2,0,P|281:222|324:237,1,71.9999978027344,10|2,0:0|0:0,0:0:0:0:
373,305,202949,2,0,P|407:293|441:284,1,71.9999978027344,2|0,1:2|0:0,0:0:0:0:
490,213,203286,6,0,B|508:172|475:122|454:164|426:129|435:78,1,143.999995605469,2|0,0:0|1:0,0:0:0:0:
496,32,203792,1,2,0:0:0:0:
496,32,203961,2,0,P|421:2|372:44,1,143.999995605469,10|2,0:0|0:0,0:0:0:0:
282,159,204635,6,0,B|226:144|226:144|195:159|195:159|130:141,1,143.999995605469,2|0,1:2|0:0,0:0:0:0:
80,203,205140,1,0,1:0:0:0:
0,72,205309,1,10,0:0:0:0:
7,79,205646,6,0,P|21:113|35:156,1,71.9999978027344,2|0,1:2|0:0,0:0:0:0:
86,210,205983,2,0,P|61:269|37:344,2,143.999995605469,2|0|10,0:0|1:0|0:0,0:0:0:0:
191,320,206994,2,0,P|228:327|257:288,1,71.9999978027344,2|0,0:0|0:0,0:0:0:0:
305,235,207331,6,0,B|384:219|353:284|439:266,1,143.999995605469,4|2,1:2|0:0,0:0:0:0:
506,211,207837,1,0,1:0:0:0:
512,364,208005,2,0,P|479:352|427:339,1,71.9999978027344,10|2,0:0|0:0,0:0:0:0:
366,304,208343,2,0,P|333:316|281:329,1,71.9999978027344,0|2,1:0|0:0,0:0:0:0:
222,383,208680,6,0,P|179:328|224:269,1,143.999995605469,2|0,0:0|1:0,0:0:0:0:
300,133,209354,2,0,P|334:191|291:243,1,143.999995605469,10|2,0:0|0:0,0:0:0:0:
192,124,210028,6,0,L|217:53,2,71.9999978027344,2|2|2,1:2|0:0|0:0,0:0:0:0:
149,218,210534,6,0,P|118:243|75:234,1,77.9999964294435,2|8,1:2|0:0,0:0:0:0:
57,155,210871,2,0,P|85:131|131:139,1,77.9999964294435,2|0,0:0|0:0,0:0:0:0:
217,200,211208,6,0,B|257:238|257:238|201:261,1,107.999996704102,2|0,1:2|0:0,0:0:0:0:
34,80,211545,6,0,B|46:26|46:26|94:63,1,107.999996704102,2|0,1:2|0:0,0:0:0:0:
70,307,211882,6,0,B|17:322|17:322|25:262,1,107.999996704102,2|0,1:2|0:0,0:0:0:0:
103,186,212219,6,0,P|106:175|104:187,1,37.5,4|0,1:2|0:0,0:0:0:0:
104,186,212725,6,0,B|168:207|223:161|175:136|234:90|292:110,1,215.999993408203,4|2,1:2|1:2,0:0:0:0:
352,144,213399,1,10,0:0:0:0:
417,39,213736,2,0,P|429:77|439:117,1,71.9999978027344,2|2,1:2|0:0,0:0:0:0:
512,167,214073,6,0,P|442:154|402:213,1,143.999995605469,2|0,0:0|1:0,0:0:0:0:
308,337,214747,2,0,P|378:350|418:291,1,143.999995605469,10|2,0:0|0:0,0:0:0:0:
259,275,215421,6,0,B|195:276|185:337|185:337|141:286|78:317,1,215.999993408203,2|0,1:2|1:0,0:0:0:0:
160,244,216095,1,10,0:0:0:0:
155,235,216432,2,0,L|110:86,1,143.999995605469,2|2,1:2|0:0,0:0:0:0:
57,152,217107,6,0,P|36:124|2:117,1,71.9999978027344,0|0,1:0|0:0,0:0:0:0:
113,97,217444,2,0,L|93:27,1,71.9999978027344,10|0,0:0|0:0,0:0:0:0:
190,120,217781,2,0,P|191:85|215:59,1,71.9999978027344,2|0,0:0|0:0,0:0:0:0:
143,197,218118,6,0,L|156:242,1,38.9999982147218,4|0,1:2|0:0,0:0:0:0:
174,298,218286,1,0,1:0:0:0:
177,311,218623,1,2,1:2:0:0:
180,324,218961,1,0,1:0:0:0:
291,193,219129,6,0,L|304:148,1,38.9999982147218,4|0,1:2|0:0,0:0:0:0:
321,92,219298,1,0,1:0:0:0:
324,79,219635,1,2,1:2:0:0:
328,66,219973,1,0,1:0:0:0:
441,180,220140,6,0,P|407:204|365:195,1,77.9999964294435,10|2,0:0|0:0,0:0:0:0:
301,155,220477,2,0,P|262:151|232:174,1,77.9999964294435,0|2,1:2|1:2,0:0:0:0:
173,299,220814,5,2,1:2:0:0:
102,360,220983,1,8,0:0:0:0:
55,285,221152,1,8,0:0:0:0:
209,236,221320,5,4,1:2:0:0:
138,124,221489,1,10,0:0:0:0:
31,215,221658,1,10,0:0:0:0:
102,360,221826,6,0,B|144:344|159:282|121:244|121:244|126:237|126:237|90:202|98:151|133:130,1,270.000010299683,4|2,1:2|1:0,0:0:0:0:
155,9,222500,5,10,0:0:0:0:
155,16,222668,2,0,B|182:46|182:46|154:22|116:39|116:39|154:16,1,155.999992858887,2|0,0:0|0:0,0:0:0:0:
75,94,223174,6,0,P|55:83|50:48,1,38.9999982147218,0|0,1:0|1:0,0:0:0:0:
207,108,223343,6,0,P|225:101|237:86,1,38.9999982147218,0|0,1:0|0:0,0:0:0:0:
135,157,223511,6,0,B|113:179|113:179|121:163|121:163|106:148|106:148|128:151|128:151|137:131|137:131|144:152|144:152|164:155|164:155|148:168|148:168|150:183|150:183|135:157,1,225.000008583069,4|0,1:2|0:0,0:0:0:0:
125,243,224522,5,2,0:0:0:0:
114,323,224691,1,2,0:0:0:0:
112,336,225196,6,0,L|174:349,1,45.0000017166138,2|2,0:0|0:0,0:0:0:0:
232,296,225534,2,0,L|276:286,1,45.0000017166138,2|2,0:0|0:0,0:0:0:0:
335,348,225871,2,0,L|397:361,1,45.0000017166138,2|2,0:0|0:0,0:0:0:0:
474,319,226208,6,0,B|484:340|508:353|508:353|498:340|496:328|496:328|503:315|519:304|519:304|502:315|485:309|485:309|472:297|470:277|470:277|471:297|459:311|459:311|445:317|428:315|428:315|445:318|452:333|452:333|456:344|450:360|450:360|468:343|474:319,1,359.999989013672,2|0,1:2|0:0,0:0:0:0:
492,214,227219,2,0,P|467:210|437:229,1,45.0000017166138,2|0,0:0|0:0,0:0:0:0:
366,186,227556,2,0,P|333:214|292:203,2,90.0000034332277,2|2|2,0:0|0:0|0:0,0:0:0:0:
317,106,228567,2,0,L|253:91,1,45.0000017166138,2|2,0:0|0:0,0:0:0:0:
203,37,228904,6,0,L|106:64,1,90.0000034332277,2|0,1:2|0:0,0:0:0:0:
32,20,229410,1,2,1:2:0:0:
24,27,229579,5,2,0:0:0:0:
99,111,229747,2,0,L|116:60,1,52.8000016113282,2|2,0:0|1:2,0:0:0:0:
164,170,230084,5,2,0:0:0:0:
95,274,230253,2,0,L|75:216,1,61.2000003735352,2|2,0:0|0:0,0:0:0:0:
43,332,230590,5,2,0:0:0:0:
156,382,230758,2,0,L|178:315,1,69.0000013160706,2|2,0:0|0:0,0:0:0:0:
223,266,231095,2,0,P|199:246|159:260,2,60,2|2|2,1:2|0:0|0:0,0:0:0:0:
344,365,231601,6,0,B|412:368|377:322|450:331,1,107.999996704102,10|0,0:0|0:0,0:0:0:0:
442,324,231938,2,0,B|377:332|412:286|344:289,1,107.999996704102,10|2,0:0|0:0,0:0:0:0:
290,323,232275,1,2,0:0:0:0:
139,373,232612,5,10,0:0:0:0:
128,368,232696,1,8,0:0:0:0:
116,363,232781,1,10,0:0:0:0:
104,358,232865,1,8,0:0:0:0:
58,345,232949,6,0,P|33:317|53:269,1,71.9999978027344,10|10,0:0|0:0,0:0:0:0:
94,215,233286,1,2,0:0:0:0:
105,286,233455,1,4,1:2:0:0:
153,162,233623,6,0,P|128:92|97:22,1,143.999995605469,12|2,0:0|0:0,0:0:0:0:
92,21,234129,1,2,0:0:0:0:
198,78,234298,6,0,P|244:45|305:58,2,107.999996704102,4|2|2,1:2|0:0|0:0,0:0:0:0:
268,137,235309,2,0,P|257:167|248:206,1,66.0000020141602,2|2,0:0|0:0,0:0:0:0:
214,281,235646,6,0,B|205:301|184:307|184:307|205:301|223:316,1,77.9999964294435,2|2,0:0|0:0,0:0:0:0:
314,297,235983,2,0,B|322:276|343:270|343:270|322:276|304:261,1,77.9999964294435,2|2,0:0|0:0,0:0:0:0:
240,375,236320,6,0,B|286:386|286:386|320:360,1,90.0000034332277,10|2,0:0|0:0,0:0:0:0:
292,202,236657,2,0,B|246:191|246:191|212:217,1,90.0000034332277,10|2,0:0|0:0,0:0:0:0:
157,310,236994,6,0,B|150:326|150:326|116:321|116:321|142:301|142:301|157:310,1,102.000001945496,10|2,0:0|0:0,0:0:0:0:
372,268,237331,2,0,B|386:276|386:276|412:256|412:256|378:251|378:251|372:268,1,102.000001945496,10|2,0:0|0:0,0:0:0:0:
235,126,237668,2,0,B|218:119|218:119|223:85|223:85|243:111|243:111|235:126,1,102.000001945496,10|2,0:0|0:0,0:0:0:0:
255,24,238005,6,0,P|210:13|169:46,1,102.000001945496,10|2,0:0|0:0,0:0:0:0:
359,184,238343,6,0,B|366:143|386:123|386:123|365:142|336:142,1,113.999996955872,10|2,0:0|0:0,0:0:0:0:
145,234,238680,2,0,B|124:197|98:186|98:186|124:196|152:186,1,113.999996955872,10|2,0:0|0:0,0:0:0:0:
230,357,239017,2,0,B|259:350|282:373|282:373|291:343|320:338,1,113.999996955872,10|2,0:0|0:0,0:0:0:0:
256,231,239354,6,0,B|276:247|276:247|268:234|268:234|279:220|279:220|261:225|261:225|251:209|251:209|247:227|247:227|231:232|231:232|246:241|246:241|246:254|246:254|256:231,1,188.999994232178,10|0,0:0|0:0,0:0:0:0:
256,231,239691,2,0,B|206:209|214:153|257:139|257:139|296:126|317:77|276:28|222:28|208:65,1,287.999991210938,4|2,1:2|0:0,0:0:0:0:
211,63,240112,2,0,L|177:54,2,22.5000008583069,2|2|2,0:0|0:0|0:0,0:0:0:0:
127,96,240365,2,0,L|105:101,3,22.5000008583069,10|2|2|2,0:0|0:0|0:0|0:0,0:0:0:0:
38,56,240702,5,2,0:0:0:0:
26,63,240786,1,2,0:0:0:0:
20,75,240871,1,2,1:2:0:0:
20,88,240955,1,2,0:0:0:0:
24,100,241039,2,0,L|36:135,3,22.5000008583069,0|0|10|0,0:0|0:0|0:0|0:0,0:0:0:0:
83,170,241376,2,0,L|71:205,3,22.5000008583069,2|0|0|0,1:2|0:0|0:0|0:0,0:0:0:0:
20,265,241713,6,0,P|47:287|77:280,1,60,10|2,0:0|0:0,0:0:0:0:
148,237,242050,2,0,P|177:235|198:256,1,60,2|10,0:0|0:0,0:0:0:0:
248,341,242388,5,2,1:2:0:0:
283,373,242500,1,10,0:0:0:0:
330,364,242612,1,8,0:0:0:0:
370,307,242725,5,8,0:3:0:0:
426,276,242837,1,4,0:3:0:0:
483,302,242949,1,8,0:3:0:0:
509,372,243062,6,0,L|472:188,1,180.000006866455,6|2,1:2|0:0,0:0:0:0:
481,41,243736,2,0,P|442:61|388:90,1,90.0000034332277,2|8,1:2|0:0,0:0:0:0:
338,156,244073,1,10,0:0:0:0:
259,248,244241,6,0,L|166:199,1,90.0000034332277,2|8,1:2|0:0,0:0:0:0:
138,119,244579,5,10,0:0:0:0:
74,107,244747,5,2,1:2:0:0:
11,158,244916,5,2,0:0:0:0:
20,238,245084,6,0,B|53:258|100:236|104:191|104:191|116:189|116:189|129:145|171:129|212:151,1,240,4|2,1:2|0:0,0:0:0:0:
285,191,245590,1,2,0:0:0:0:
403,93,245758,2,0,P|343:74|278:47,1,120,10|0,0:0|0:0,0:0:0:0:
374,11,246095,5,2,0:0:0:0:
442,11,246264,1,0,1:0:0:0:
471,73,246432,2,0,B|478:104|508:109|508:109|477:173|453:126|427:186|433:226|433:226|454:219|482:238,1,240,2|2,0:0|1:2,0:0:0:0:
480,234,246938,1,2,0:0:0:0:
403,356,247107,6,0,P|344:367|313:316,1,120,10|2,0:0|0:0,0:0:0:0:
382,265,247444,2,0,P|399:206|425:147,1,120,2|8,0:0|0:0,0:0:0:0:
411,361,247781,6,0,B|374:396|310:377|303:317|303:317|279:218|261:243|194:205|194:205|190:199|190:199|212:298|303:287,1,480,2|10,1:2|0:0,0:0:0:0:
242,140,248792,6,0,B|215:113|180:134|180:134|208:126|229:147,1,120,2|0,0:0|1:0,0:0:0:0:
313,191,249129,2,0,B|340:218|375:197|375:197|347:205|326:184,1,120,2|8,0:0|0:0,0:0:0:0:
237,240,249466,1,2,1:2:0:0:
305,103,249635,2,0,P|299:48|226:27,1,120,2|10,0:0|0:2,0:0:0:0:
327,185,249972,5,2,0:0:0:0:
166,100,250140,2,0,P|104:97|74:152,1,120,2|0,0:0|0:0,0:0:0:0:
121,348,250477,6,0,B|53:407|-31:332|7:229|106:255|106:255|183:276|230:249|246:195|218:142|218:142|203:166|166:166,1,528.000016113282,4|10,1:2|0:0,0:0:0:0:
123,354,251489,2,0,B|98:386|32:380|19:344,1,120,2|0,0:0|1:0,0:0:0:0:
54,194,251826,2,0,B|11:207|0:247|0:247|-13:223|8:201,1,120,2|8,0:0|0:0,0:0:0:0:
74,310,252163,1,2,1:2:0:0:
132,201,252331,2,0,B|167:228|165:269|165:269|185:251|172:223,1,120,2|10,0:0|0:0,0:0:0:0:
308,149,252668,6,0,P|337:149|361:132,1,60,2|0,0:0|0:0,0:0:0:0:
380,241,252836,6,0,L|403:185,1,60,2|0,0:0|0:0,0:0:0:0:
495,226,253005,6,0,P|477:202|477:172,1,60,10|0,0:0|0:0,0:0:0:0:
471,21,253174,6,0,B|483:108|483:108|454:106|431:126|431:126|428:97|403:81|403:81|470:21,1,287.999991210938,4|8,1:2|0:0,0:0:0:0:
476,13,253680,1,2,1:2:0:0:
477,173,253848,2,0,B|497:226|497:226|319:169|319:169|364:133,1,300,12|2,0:0|0:0,0:0:0:0:
379,286,254354,1,0,1:0:0:0:
379,286,254522,6,0,B|330:272|278:301|325:329|258:366|203:338,2,180.000006866455,2|2|10,0:0|1:2|0:0,0:0:0:0:
454,335,255365,1,0,1:0:0:0:
455,335,255534,2,0,P|420:369|378:357,1,90.0000034332277,2|2,1:2|0:0,0:0:0:0:
242,278,255871,6,0,B|194:231|115:240|77:326|112:368|112:368|101:337|125:311,1,287.999991210938,4|10,1:2|0:0,0:0:0:0:
231,193,256882,1,2,0:0:0:0:
261,129,257050,1,2,1:2:0:0:
204,95,257219,2,0,P|168:107|135:118,1,71.9999978027344,2|8,0:0|0:0,0:0:0:0:
73,179,257556,2,0,P|37:167|4:156,1,71.9999978027344,0|0,1:0|0:0,0:0:0:0:
88,258,257893,6,0,B|121:258|139:213|139:213|123:258|160:287,1,143.999995605469,10|2,0:0|0:0,0:0:0:0:
158,152,258399,1,8,0:0:0:0:
103,329,258567,2,0,P|93:371|101:328,1,143.999995605469,2|2,1:2|0:0,0:0:0:0:
215,228,259241,6,0,P|250:217|294:254,1,71.9999978027344,10|2,0:0|0:0,0:0:0:0:
341,302,259579,2,0,P|376:313|420:276,1,71.9999978027344,2|0,0:0|1:0,0:0:0:0:
477,244,259916,2,0,P|466:211|452:162,1,71.9999978027344,2|8,0:0|0:0,0:0:0:0:
437,86,260253,1,0,1:0:0:0:
443,77,260590,2,0,B|408:69|365:101|401:117|354:149|308:128,1,143.999995605469,10|2,0:0|0:0,0:0:0:0:
189,44,261264,6,0,P|178:81|168:112,1,71.9999978027344,4|8,1:2|0:0,0:0:0:0:
131,197,261601,1,0,1:0:0:0:
299,309,261938,6,0,P|288:271|278:241,1,71.9999978027344,10|0,0:0|0:0,0:0:0:0:
241,156,262275,1,8,0:0:0:0:
149,325,262444,6,0,B|154:352|179:361|179:361|61:325|61:325|88:332|106:309,1,215.999993408203,4|0,1:2|1:0,0:0:0:0:
92,247,263118,6,0,L|123:220,1,35.9999989013672,10|0,0:0|0:0,0:0:0:0:
195,274,263286,2,0,L|182:241,1,35.9999989013672,8|0,0:3|0:0,0:0:0:0:
172,172,263455,2,0,P|161:166|171:168,1,35.9999989013672,8|0,0:3|0:0,0:0:0:0:
143,64,263623,6,0,L|156:97,1,35.9999989013672,4|0,0:3|0:0,0:0:0:0:
247,92,263791,2,0,L|219:115,1,35.9999989013672,4|0,0:3|0:0,0:0:0:0:
166,177,263961,6,0,B|207:163|269:203|215:217|280:262|327:234,1,180.000006866455,4|0,1:2|0:0,0:0:0:0:
399,186,264466,1,10,0:0:0:0:
487,315,264635,6,0,L|408:298,1,72,12|0,0:0|0:0,0:0:0:0:
335,339,265309,6,0,P|289:374|239:358,1,107.999996704102,2|0,0:0|0:0,0:0:0:0:
279,305,265898,2,0,L|255:196,1,107.999996704102,2|2,0:0|0:0,0:0:0:0:
229,117,266572,6,0,L|258:107,3,20,2|2|2|2,0:0|0:0|0:0|0:0,0:0:0:0:
108,28,267124,5,2,0:0:0:0:
18,97,267552,5,2,0:0:0:0:
50,194,268013,5,2,0:0:0:0:
116,257,268515,5,2,0:0:0:0:
108,344,269091,5,2,0:0:0:0:
37,368,269782,6,0,L|8:358,2,20,2|2|2,0:0|0:0|0:0,0:0:0:0:
