osu file format v14

[General]
AudioFilename: audio.mp3
AudioLeadIn: 0
PreviewTime: -1
Countdown: 1
SampleSet: Soft
StackLeniency: 0.7
Mode: 0
LetterboxInBreaks: 0
WidescreenStoryboard: 0

[Editor]
DistanceSpacing: 1
BeatDivisor: 8
GridSize: 8
TimelineZoom: 1

[Metadata]
Title:Chemia (Nightcore Mix)
TitleUnicode:Chemia (Nightcore Mix)
Artist:Nowa Era
ArtistUnicode:Nowa Era
Creator:hent2222
Version:ale kwas
Source:
Tags:
BeatmapID:2068628
BeatmapSetID:988947

[Difficulty]
HPDrainRate:6
CircleSize:4.2
OverallDifficulty:8.8
ApproachRate:9.6
SliderMultiplier:2.6
SliderTickRate:1

[Events]
//Background and Video events
0,0,"bgggg.jpg",0,0
//Break Periods
//Storyboard Layer 0 (Background)
//Storyboard Layer 1 (Fail)
//Storyboard Layer 2 (Pass)
//Storyboard Layer 3 (Foreground)
//Storyboard Sound Samples

[TimingPoints]
209,432.782608695652,4,2,0,20,1,0
26175,-100,4,2,0,17,0,0
27041,-100,4,2,0,14,0,0
27907,-100,4,2,0,11,0,0
28772,-100,4,2,0,8,0,0
29638,-100,4,2,0,5,0,0

[Colours]
Combo1 : 127,255,0
Combo2 : 234,255,0
Combo3 : 192,192,192

[HitObjects]
155,42,209,5,0,0:0:0:0:
334,94,317,1,0,0:0:0:0:
205,181,425,1,0,0:0:0:0:
408,186,533,1,0,0:0:0:0:
261,327,641,1,0,0:0:0:0:
492,274,749,1,0,0:0:0:0:
442,49,858,1,0,0:0:0:0:
414,285,966,1,0,0:0:0:0:
267,126,1074,1,0,0:0:0:0:
360,226,1182,1,0,0:0:0:0:
105,195,1290,1,0,0:0:0:0:
306,162,1399,1,0,0:0:0:0:
210,271,1507,5,0,0:0:0:0:
143,313,1723,1,0,0:0:0:0:
70,48,1940,5,0,0:0:0:0:
94,240,2048,1,0,0:0:0:0:
154,57,2156,1,0,0:0:0:0:
174,255,2264,1,0,0:0:0:0:
235,69,2372,1,0,0:0:0:0:
254,281,2481,1,0,0:0:0:0:
334,313,2589,1,0,0:0:0:0:
94,240,2697,1,0,0:0:0:0:
335,220,2805,1,0,0:0:0:0:
94,149,2913,1,0,0:0:0:0:
333,138,3022,1,0,0:0:0:0:
94,62,3130,1,0,0:0:0:0:
183,27,3238,5,0,0:0:0:0:
263,323,3454,1,0,0:0:0:0:
292,47,3671,5,0,0:0:0:0:
182,333,3779,1,0,0:0:0:0:
115,48,3887,1,0,0:0:0:0:
259,333,3995,1,0,0:0:0:0:
375,48,4104,1,0,0:0:0:0:
109,333,4212,1,0,0:0:0:0:
206,49,4320,1,0,0:0:0:0:
334,333,4428,1,0,0:0:0:0:
28,47,4536,1,0,0:0:0:0:
411,333,4645,1,0,0:0:0:0:
467,51,4753,1,0,0:0:0:0:
26,331,4861,1,0,0:0:0:0:
114,269,4969,5,0,0:0:0:0:
388,262,5185,1,0,0:0:0:0:
103,99,5402,5,0,0:0:0:0:
232,96,5510,1,0,0:0:0:0:
232,224,5618,1,0,0:0:0:0:
104,224,5726,1,0,0:0:0:0:
104,96,5835,1,0,0:0:0:0:
232,96,5943,1,0,0:0:0:0:
232,232,6051,1,0,0:0:0:0:
104,232,6159,1,0,0:0:0:0:
104,96,6267,1,0,0:0:0:0:
232,96,6376,1,0,0:0:0:0:
232,232,6484,1,0,0:0:0:0:
104,232,6592,1,0,0:0:0:0:
160,160,6700,5,0,0:0:0:0:
160,160,6917,1,0,0:0:0:0:
256,72,7133,5,0,0:0:0:0:
408,192,7241,1,0,0:0:0:0:
256,312,7349,1,0,0:0:0:0:
104,192,7458,1,0,0:0:0:0:
256,64,7566,1,0,0:0:0:0:
408,192,7674,1,0,0:0:0:0:
256,320,7782,1,0,0:0:0:0:
104,192,7890,1,0,0:0:0:0:
256,64,7999,1,0,0:0:0:0:
408,192,8107,1,0,0:0:0:0:
256,320,8215,1,0,0:0:0:0:
112,192,8323,1,0,0:0:0:0:
256,192,8431,5,0,0:0:0:0:
256,192,8648,1,0,0:0:0:0:
96,32,8864,5,0,0:0:0:0:
352,32,8972,1,0,0:0:0:0:
352,296,9081,1,0,0:0:0:0:
88,296,9189,1,0,0:0:0:0:
88,32,9297,1,0,0:0:0:0:
352,32,9405,1,0,0:0:0:0:
352,288,9513,1,0,0:0:0:0:
88,296,9622,1,0,0:0:0:0:
88,32,9730,1,0,0:0:0:0:
352,32,9838,1,0,0:0:0:0:
352,296,9946,1,0,0:0:0:0:
96,296,10054,1,0,0:0:0:0:
232,176,10162,5,0,0:0:0:0:
232,176,10379,1,0,0:0:0:0:
176,88,10595,5,0,0:0:0:0:
272,264,10703,1,0,0:0:0:0:
272,96,10812,1,0,0:0:0:0:
176,256,10920,1,0,0:0:0:0:
152,48,11028,1,0,0:0:0:0:
296,304,11136,1,0,0:0:0:0:
304,64,11244,1,0,0:0:0:0:
152,288,11353,1,0,0:0:0:0:
112,32,11461,1,0,0:0:0:0:
328,328,11569,1,0,0:0:0:0:
336,40,11677,1,0,0:0:0:0:
120,312,11785,1,0,0:0:0:0:
24,352,11894,5,0,0:0:0:0:
488,352,12110,1,0,0:0:0:0:
176,88,12326,5,0,0:0:0:0:
200,320,12435,1,0,0:0:0:0:
288,48,12651,5,0,0:0:0:0:
248,360,12759,1,0,0:0:0:0:
104,40,12867,1,0,0:0:0:0:
352,64,13084,5,0,0:0:0:0:
144,368,13192,1,0,0:0:0:0:
0,56,13300,1,0,0:0:0:0:
512,128,13408,1,0,0:0:0:0:
40,384,13517,1,0,0:0:0:0:
72,312,13625,5,0,0:0:0:0:
112,240,13841,1,0,0:0:0:0:
48,72,14058,5,0,0:0:0:0:
48,304,14166,1,0,0:0:0:0:
112,72,14274,1,0,0:0:0:0:
112,304,14382,1,0,0:0:0:0:
176,72,14490,1,0,0:0:0:0:
176,304,14599,1,0,0:0:0:0:
240,72,14707,1,0,0:0:0:0:
240,304,14815,1,0,0:0:0:0:
304,72,14923,1,0,0:0:0:0:
304,304,15031,1,0,0:0:0:0:
368,72,15139,1,0,0:0:0:0:
368,304,15248,1,0,0:0:0:0:
384,176,15356,5,0,0:0:0:0:
88,192,15572,1,0,0:0:0:0:
176,296,15789,5,0,0:0:0:0:
200,64,15898,1,0,0:0:0:0:
288,336,16114,5,0,0:0:0:0:
248,24,16222,1,0,0:0:0:0:
104,344,16330,1,0,0:0:0:0:
352,320,16547,5,0,0:0:0:0:
144,16,16655,1,0,0:0:0:0:
0,328,16763,1,0,0:0:0:0:
512,256,16871,1,0,0:0:0:0:
40,0,16980,1,0,0:0:0:0:
72,72,17088,1,0,0:0:0:0:
112,144,17304,1,0,0:0:0:0:
464,72,17520,5,0,0:0:0:0:
464,304,17628,1,0,0:0:0:0:
400,72,17736,1,0,0:0:0:0:
400,304,17844,1,0,0:0:0:0:
336,72,17952,1,0,0:0:0:0:
336,304,18061,1,0,0:0:0:0:
272,72,18169,1,0,0:0:0:0:
272,304,18277,1,0,0:0:0:0:
208,72,18385,1,0,0:0:0:0:
208,304,18493,1,0,0:0:0:0:
144,72,18602,1,0,0:0:0:0:
144,304,18710,1,0,0:0:0:0:
99,291,18818,5,0,0:0:0:0:
421,140,19035,1,0,0:0:0:0:
319,40,19251,5,0,0:0:0:0:
257,336,19359,1,0,0:0:0:0:
163,54,19576,5,0,0:0:0:0:
257,336,19684,1,0,0:0:0:0:
338,28,19792,1,0,0:0:0:0:
68,79,20008,5,0,0:0:0:0:
302,204,20116,1,0,0:0:0:0:
108,319,20225,1,0,0:0:0:0:
268,223,20333,1,0,0:0:0:0:
463,48,20441,1,0,0:0:0:0:
294,248,20549,1,0,0:0:0:0:
402,306,20766,1,0,0:0:0:0:
372,367,20982,5,0,0:0:0:0:
140,367,21090,1,0,0:0:0:0:
372,303,21198,1,0,0:0:0:0:
140,303,21306,1,0,0:0:0:0:
372,239,21414,1,0,0:0:0:0:
140,239,21523,1,0,0:0:0:0:
372,175,21631,1,0,0:0:0:0:
140,175,21739,1,0,0:0:0:0:
372,111,21847,1,0,0:0:0:0:
140,111,21955,1,0,0:0:0:0:
372,47,22064,1,0,0:0:0:0:
140,47,22172,1,0,0:0:0:0:
183,47,22280,5,0,0:0:0:0:
225,48,22497,1,0,0:0:0:0:
319,40,22713,1,0,0:0:0:0:
257,336,22821,1,0,0:0:0:0:
163,54,23038,5,0,0:0:0:0:
257,336,23146,1,0,0:0:0:0:
338,28,23254,1,0,0:0:0:0:
68,79,23470,5,0,0:0:0:0:
302,204,23578,1,0,0:0:0:0:
108,319,23687,1,0,0:0:0:0:
268,223,23795,1,0,0:0:0:0:
463,48,23903,1,0,0:0:0:0:
294,248,24011,1,0,0:0:0:0:
402,306,24228,1,0,0:0:0:0:
159,89,24444,5,0,0:0:0:0:
255,295,24553,1,0,0:0:0:0:
361,71,24661,1,0,0:0:0:0:
265,316,24769,1,0,0:0:0:0:
130,68,24877,1,0,0:0:0:0:
257,333,24985,1,0,0:0:0:0:
375,46,25093,1,0,0:0:0:0:
263,351,25202,1,0,0:0:0:0:
115,46,25310,1,0,0:0:0:0:
261,371,25418,1,0,0:0:0:0:
390,30,25526,1,0,0:0:0:0:
268,379,25634,6,0,L|291:379,1,16.25
319,322,25851,2,0,L|317:305,1,16.25
132,96,26175,6,0,B|83:45|83:45|83:45,1,65
380,288,26392,2,0,B|429:339|429:339|429:339,1,65
111,73,26608,2,0,B|62:22|62:22|62:22,1,65
403,310,26825,2,0,B|452:361|452:361|452:361,1,65
132,96,27041,6,0,B|83:45|83:45|83:45,1,65
380,288,27258,2,0,B|429:339|429:339|429:339,1,65
111,73,27474,2,0,B|62:22|62:22|62:22,1,65
403,310,27691,2,0,B|452:361|452:361|452:361,1,65
132,96,27907,6,0,B|83:45|83:45|83:45,1,65
380,288,28124,2,0,B|429:339|429:339|429:339,1,65
111,73,28340,2,0,B|62:22|62:22|62:22,1,65
403,310,28557,2,0,B|452:361|452:361|452:361,1,65
132,96,28772,6,0,B|83:45|83:45|83:45,1,65
380,288,28989,2,0,B|429:339|429:339|429:339,1,65
111,73,29205,2,0,B|62:22|62:22|62:22,1,65
403,310,29422,2,0,B|452:361|452:361|452:361,1,65
132,96,29638,6,0,B|83:45|83:45|83:45,1,65
380,288,29855,2,0,B|429:339|429:339|429:339,1,65
111,73,30071,2,0,B|62:22|62:22|62:22,1,65
403,310,30288,2,0,B|452:361|452:361|452:361,1,65
