osu file format v14

[General]
AudioFilename: audio.mp3
AudioLeadIn: 0
PreviewTime: 90087
Countdown: 0
SampleSet: Soft
StackLeniency: 0.4
Mode: 0
LetterboxInBreaks: 0
WidescreenStoryboard: 1

[Editor]
Bookmarks: 64966
DistanceSpacing: 1.4
BeatDivisor: 4
GridSize: 4
TimelineZoom: 1

[Metadata]
Title:The Warrior
TitleUnicode:The Warrior
Artist:Novelbright
ArtistUnicode:Novelbright
Creator:arronchu1207
Version:Hard
Source:リーマンズクラブ
Tags:rock anime japanese opening op ryman's club salaryman badminton kanor full version
BeatmapID:3753337
BeatmapSetID:1828435

[Difficulty]
HPDrainRate:4
CircleSize:3.7
OverallDifficulty:6.5
ApproachRate:8
SliderMultiplier:1.4
SliderTickRate:1

[Events]
//Background and Video events
0,0,"b.jpg",0,0
//Break Periods
//Storyboard Layer 0 (Background)
//Storyboard Layer 1 (Fail)
//Storyboard Layer 2 (Pass)
//Storyboard Layer 3 (Foreground)
//Storyboard Layer 4 (Overlay)
//Storyboard Sound Samples

[TimingPoints]
440,322.58064516129,4,2,1,70,1,0
440,-105.263157894737,4,2,1,70,0,0
20923,-105.263157894737,4,2,1,70,0,0
32375,-105.263157894737,4,2,1,40,0,0
32698,-105.263157894737,4,2,1,50,0,0
33020,-105.263157894737,4,2,1,60,0,0
33343,-105.263157894737,4,2,1,70,0,0
36407,-95.2380952380952,4,2,1,80,0,1
41569,-95.2380952380952,4,2,1,80,0,1
57052,-200,4,2,1,70,0,0
58504,-105.263157894737,4,2,1,70,0,0
59714,-105.263157894737,4,2,1,5,0,0
59794,-105.263157894737,4,2,1,60,0,0
60601,-105.263157894737,4,2,1,5,0,0
60681,-105.263157894737,4,2,1,60,0,0
61246,-105.263157894737,4,2,1,5,0,0
61327,-105.263157894737,4,2,1,60,0,0
62536,-105.263157894737,4,2,1,5,0,0
62617,-105.263157894737,4,2,1,60,0,0
63181,-105.263157894737,4,2,1,5,0,0
63262,-105.263157894737,4,2,1,60,0,0
63827,-105.263157894737,4,2,1,5,0,0
63907,-105.263157894737,4,2,1,60,0,0
86569,-105.263157894737,4,2,1,40,0,0
86891,-105.263157894737,4,2,1,50,0,0
87214,-105.263157894737,4,2,1,60,0,0
87536,-105.263157894737,4,2,1,70,0,0
88181,-105.263157894737,4,2,1,50,0,0
89310,-105.263157894737,4,2,1,70,0,0
90601,-95.2380952380952,4,2,1,80,0,1
95762,-95.2380952380952,4,2,1,80,0,1
111246,-95.2380952380952,4,2,1,80,0,0
127214,-95.2380952380952,4,2,1,30,0,0
128181,-95.2380952380952,4,2,1,40,0,0
128504,-95.2380952380952,4,2,1,50,0,0
128827,-95.2380952380952,4,2,1,60,0,0
129149,-95.2380952380952,4,2,1,70,0,0
129579,-95.2380952380952,4,2,1,5,0,0
129686,-95.2380952380952,4,2,1,70,0,0
129794,-95.2380952380952,4,2,1,5,0,0
129901,-95.2380952380952,4,2,1,70,0,0
130009,-95.2380952380952,4,2,1,5,0,0
130116,-95.2380952380952,4,2,1,70,0,0
130224,-95.2380952380952,4,2,1,5,0,0
130331,-95.2380952380952,4,2,1,70,0,0
130439,-95.2380952380952,4,2,1,5,0,0
130546,-95.2380952380952,4,2,1,70,0,0
130655,-95.2380952380952,4,2,1,5,0,0
130762,-95.2380952380952,4,2,1,70,0,0
131407,-285.714285714286,4,2,1,70,0,0
132617,-95.2380952380952,4,2,1,70,0,0
133181,-95.2380952380952,4,2,1,80,0,1
138343,-95.2380952380952,4,2,1,80,0,1
152698,-95.2380952380952,4,2,1,80,0,0
153827,-95.2380952380952,4,2,1,80,0,1
158988,-95.2380952380952,4,2,1,80,0,1
174472,-200,4,2,1,70,0,0
175923,-105.263157894737,4,2,1,70,0,0
177133,-105.263157894737,4,2,1,5,0,0
177214,-105.263157894737,4,2,1,60,0,0
177375,-105.263157894737,4,2,1,5,0,0
177456,-105.263157894737,4,2,1,60,0,0
178020,-105.263157894737,4,2,1,5,0,0
178101,-105.263157894737,4,2,1,60,0,0
178665,-105.263157894737,4,2,1,5,0,0
178746,-105.263157894737,4,2,1,60,0,0
179956,-105.263157894737,4,2,1,5,0,0
180037,-105.263157894737,4,2,1,60,0,0
180601,-105.263157894737,4,2,1,5,0,0
180682,-105.263157894737,4,2,1,60,0,0
187570,322.58064516129,4,2,1,60,1,0
187862,312.5,4,2,1,60,1,0
188018,400,4,2,1,60,1,0
188318,-105.263157894737,4,2,1,5,0,0
188403,280.373831775701,4,2,1,60,1,0
188403,-105.263157894737,4,2,1,60,0,0
188543,-200,4,2,1,60,0,0
189945,-200,4,2,1,5,0,0
190085,-105.263157894737,4,2,1,60,0,0

[Colours]
Combo1 : 194,206,113
Combo2 : 209,180,109
Combo3 : 117,202,181
Combo4 : 118,192,201

[HitObjects]
256,192,5601,12,4,10762,0:0:0:0:
214,97,14633,6,0,P|234:90|260:94,3,33.2499991121292,0|0|8|8,3:0|3:0|3:0|3:0,0:0:0:0:
285,115,14956,2,0,P|305:122|331:118,3,33.2499991121292,8|8|8|8,3:0|3:0|3:0|3:0,0:0:0:0:
362,110,15278,2,0,L|352:152,3,33.2499991121292,4|4|4|4,3:0|3:0|3:0|3:0,0:0:0:0:
379,182,15601,1,0,3:0:0:0:
318,252,15762,6,0,B|246:243|261:285|187:272,1,132.999996448517,6|0,3:2|0:0,0:0:0:0:
98,250,16246,2,0,L|111:336,1,66.4999982242585,2|0,3:2|0:0,0:0:0:0:
11,277,16569,1,0,3:2:0:0:
8,272,16730,2,0,L|21:203,1,66.4999982242585,2|0,0:0|3:0,0:0:0:0:
1,115,17052,6,0,L|142:140,1,132.999996448517,2|0,0:0|0:0,0:0:0:0:
208,84,17536,2,0,L|196:8,1,66.4999982242585,2|0,3:2|0:0,0:0:0:0:
307,69,17859,1,0,3:0:0:0:
302,67,18020,2,0,L|291:132,1,66.4999982242585,0|8,3:0|0:0,0:0:0:0:
329,217,18343,6,0,B|401:228|393:185|467:197,1,132.999996448517,6|8,3:2|0:0,0:0:0:0:
504,276,18827,2,0,P|513:318|502:346,1,66.4999982242585,8|0,0:0|3:0,0:0:0:0:
502,346,19069,1,0,3:0:0:0:
496,350,19149,2,0,L|457:342,3,33.2499991121292,8|0|0|0,3:0|3:0|3:0|3:0,0:0:0:0:
428,311,19472,2,0,L|389:319,2,33.2499991121292,8|0|0,3:0|3:0|3:0,0:0:0:0:
395,223,19794,6,0,L|404:179,1,33.2499991121292,2|2,3:2|0:0,0:0:0:0:
371,203,19956,2,0,L|380:159,1,33.2499991121292,2|2,3:2|0:0,0:0:0:0:
345,179,20117,2,0,L|272:191,1,66.4999982242585,12|0,0:0|0:0,0:0:0:0:
156,45,20923,6,0,P|100:32|31:75,1,132.999996448517,4|0,3:2|0:0,0:0:0:0:
12,157,21407,1,8,0:0:0:0:
97,194,21569,1,0,3:0:0:0:
102,189,21730,2,0,L|181:175,1,66.4999982242585,8|0,0:0|3:0,0:0:0:0:
237,116,22052,1,8,0:0:0:0:
279,199,22214,6,0,L|265:278,1,66.4999982242585,0|8,3:0|0:0,0:0:0:0:
189,315,22536,2,0,L|203:394,1,66.4999982242585,0|8,3:0|0:0,0:0:0:0:
294,381,22859,2,0,L|373:367,1,66.4999982242585,0|8,3:0|0:0,0:0:0:0:
421,300,23181,1,8,3:0:0:0:
500,349,23343,1,0,3:0:0:0:
495,353,23504,6,0,L|510:211,1,132.999996448517,6|0,3:2|3:0,0:0:0:0:
475,133,23988,1,8,0:0:0:0:
391,174,24149,2,0,P|343:191|258:155,1,132.999996448517,6|0,3:2|3:0,0:0:0:0:
198,103,24633,1,8,0:0:0:0:
264,37,24794,6,0,L|127:60,1,132.999996448517,6|0,3:2|3:0,0:0:0:0:
127,56,25198,1,0,3:0:0:0:
122,52,25278,2,0,L|111:136,1,66.4999982242585,8|0,0:0|3:0,0:0:0:0:
43,180,25601,2,0,L|54:264,1,66.4999982242585,8|0,0:0|3:0,0:0:0:0:
125,302,25923,1,0,3:0:0:0:
189,234,26085,1,0,3:0:0:0:
185,230,26246,6,0,P|240:214|317:260,1,132.999996448517,6|0,3:2|3:0,0:0:0:0:
348,328,26730,1,0,3:0:0:0:
426,278,26891,2,0,L|434:210,1,66.4999982242585,8|0,0:0|3:0,0:0:0:0:
401,118,27214,1,8,0:0:0:0:
396,122,27375,6,0,L|260:141,1,132.999996448517,0|8,3:0|0:0,0:0:0:0:
191,81,27859,1,0,3:0:0:0:
193,75,28020,1,0,3:0:0:0:
125,11,28181,2,0,P|102:53|114:140,1,132.999996448517,8|0,0:0|3:2,0:0:0:0:
223,284,28827,5,0,3:0:0:0:
170,360,28988,1,8,0:0:0:0:
167,355,29149,2,0,L|90:345,1,66.4999982242585,8|0,0:0|0:0,0:0:0:0:
42,273,29472,2,0,L|0:280,3,33.2499991121292,0|0|0|0,3:0|3:0|3:0|3:0,0:0:0:0:
48,269,29794,1,8,0:0:0:0:
121,211,29956,6,0,P|135:166|101:76,1,132.999996448517,6|0,3:2|3:0,0:0:0:0:
171,15,30439,2,0,L|240:26,1,66.4999982242585,8|0,0:0|0:0,0:0:0:0:
300,93,30762,2,0,L|345:85,3,33.2499991121292,8|0|0|0,0:0|3:0|3:0|3:0,0:0:0:0:
369,57,31085,2,0,L|414:65,3,33.2499991121292,0|0|0|0,3:0|3:0|3:0|3:0,0:0:0:0:
436,93,31407,5,10,0:0:0:0:
367,260,31730,1,8,0:0:0:0:
368,266,31891,1,8,0:0:0:0:
457,294,32052,1,8,0:0:0:0:
456,300,32213,1,8,0:0:0:0:
386,360,32375,2,0,L|310:371,1,66.4999982242585,0|0,3:0|3:0,0:0:0:0:
242,316,32698,6,0,P|233:275|244:244,1,66.4999982242585,8|8,0:0|0:0,0:0:0:0:
242,247,32939,1,8,0:0:0:0:
246,243,33020,2,0,L|209:236,3,33.2499991121292,8|8|8|8,0:0|0:0|0:0|0:0,0:0:0:0:
173,211,33343,2,0,L|140:217,3,33.2499991121292,8|8|8|8,0:0|0:0|0:0|0:0,0:0:0:0:
104,187,33665,2,0,P|100:156|107:141,3,33.2499991121292,8|8|8|8,0:0|0:0|0:0|0:0,0:0:0:0:
103,149,33988,5,0,0:0:0:0:
103,149,34956,1,0,3:0:0:0:
35,84,35117,2,0,L|63:223,1,132.999996448517,8|0,0:0|3:0,0:0:0:0:
15,295,35601,1,8,0:0:0:0:
13,302,35762,1,10,0:0:0:0:
182,380,36085,1,2,0:0:0:0:
186,371,36407,6,0,P|222:340|323:340,1,146.999995513916,6|0,3:2|3:0,0:0:0:0:
398,273,36891,2,0,L|412:192,1,73.4999977569581,10|0,0:0|0:0,0:0:0:0:
498,145,37214,2,0,L|510:217,1,73.4999977569581,2|0,3:2|3:0,0:0:0:0:
435,65,37536,1,8,0:0:0:0:
440,59,37698,6,0,L|512:46,1,73.4999977569581,2|0,3:2|0:0,0:0:0:0:
425,158,38020,2,0,L|497:145,1,73.4999977569581,2|8,3:2|0:0,0:0:0:0:
351,90,38343,2,0,P|297:58|208:71,1,146.999995513916,2|0,0:0|3:0,0:0:0:0:
130,124,38827,1,8,0:0:0:0:
61,47,38988,6,0,L|91:206,1,146.999995513916,2|0,3:2|3:0,0:0:0:0:
172,250,39472,1,8,0:0:0:0:
101,324,39633,2,0,L|17:310,1,73.4999977569581,2|0,0:0|3:0,0:0:0:0:
172,250,39956,2,0,L|245:238,1,73.4999977569581,2|8,3:2|0:0,0:0:0:0:
312,160,40278,6,0,B|393:144|372:200|472:182,1,146.999995513916,2|0,3:2|3:0,0:0:0:0:
509,98,40762,1,8,0:0:0:0:
512,88,41085,6,0,L|500:40,3,36.749998878479,0|0|0|0,3:0|3:0|3:0|3:0,0:0:0:0:
507,42,41407,1,8,0:0:0:0:
410,5,41569,6,0,L|260:32,1,146.999995513916,6|0,3:2|3:0,0:0:0:0:
205,115,42052,2,0,L|121:98,1,73.4999977569581,10|0,0:0|0:0,0:0:0:0:
69,182,42375,2,0,L|83:254,1,73.4999977569581,2|0,3:2|3:0,0:0:0:0:
122,365,42698,1,8,0:0:0:0:
126,360,42859,6,0,L|42:343,1,73.4999977569581,2|0,3:2|0:0,0:0:0:0:
155,268,43181,2,0,L|71:251,1,73.4999977569581,2|8,3:2|0:0,0:0:0:0:
217,340,43504,2,0,P|256:352|347:302,1,146.999995513916,2|0,0:0|3:0,0:0:0:0:
382,209,43988,1,8,0:0:0:0:
449,287,44149,6,0,L|429:142,1,146.999995513916,2|0,3:2|3:0,0:0:0:0:
355,69,44633,1,8,0:0:0:0:
356,62,44794,1,0,3:0:0:0:
259,22,44956,1,8,0:0:0:0:
260,29,45117,1,0,3:0:0:0:
228,126,45278,2,0,P|201:141|144:137,1,73.4999977569581,8|0,0:0|3:0,0:0:0:0:
63,102,45601,5,8,0:0:0:0:
46,179,45762,1,8,0:0:0:0:
102,235,45923,1,8,0:0:0:0:
119,312,46084,1,8,0:0:0:0:
39,377,46246,2,0,P|14:378|4:369,4,36.749998878479,0|0|0|0|8,3:0|3:0|3:0|3:0|3:0,0:0:0:0:
119,312,46730,6,0,P|165:296|249:350,1,146.999995513916,6|0,3:2|3:0,0:0:0:0:
343,374,47214,1,8,0:0:0:0:
338,378,47375,2,0,L|345:303,1,73.4999977569581,0|8,3:0|0:0,0:0:0:0:
415,229,47698,1,0,3:0:0:0:
414,223,47859,1,8,0:0:0:0:
487,174,48020,6,0,P|448:190|351:147,1,146.999995513916,6|0,3:2|3:0,0:0:0:0:
306,62,48504,1,8,0:0:0:0:
310,58,48665,2,0,L|228:43,1,73.4999977569581,0|8,3:0|0:0,0:0:0:0:
169,122,48988,1,0,3:0:0:0:
163,123,49149,1,8,0:0:0:0:
93,64,49310,6,0,P|122:112|109:203,1,146.999995513916,6|0,3:2|3:0,0:0:0:0:
64,303,49794,1,8,0:0:0:0:
0,253,49956,6,0,L|147:284,1,146.999995513916,6|2,0:0|3:2,0:0:0:0:
271,309,50439,1,8,0:0:0:0:
198,352,50601,6,0,P|185:289|214:209,1,146.999995513916,6|0,3:2|3:0,0:0:0:0:
291,147,51085,2,0,L|376:163,1,73.4999977569581,8|0,0:0|0:0,0:0:0:0:
419,54,51407,1,0,3:0:0:0:
415,49,51569,2,0,L|330:65,1,73.4999977569581,10|0,0:0|3:0,0:0:0:0:
255,9,51891,6,0,P|221:33|114:25,1,146.999995513916,6|0,3:2|3:0,0:0:0:0:
46,101,52375,2,0,P|66:142|70:179,1,73.4999977569581,10|0,0:0|0:0,0:0:0:0:
139,246,52698,1,0,3:0:0:0:
143,242,52859,2,0,L|221:254,1,73.4999977569581,2|8,3:2|0:0,0:0:0:0:
290,183,53181,6,0,B|345:173|345:173|379:179|379:179|443:168,1,146.999995513916,6|0,3:2|3:0,0:0:0:0:
505,245,53665,2,0,L|492:323,1,73.4999977569581,10|0,0:0|0:0,0:0:0:0:
403,367,53988,2,0,L|391:295,1,73.4999977569581,2|0,3:2|3:0,0:0:0:0:
294,259,54310,1,8,0:0:0:0:
289,264,54472,6,0,P|239:284|154:241,1,146.999995513916,4|0,3:2|3:0,0:0:0:0:
104,159,54956,1,8,0:0:0:0:
105,153,55117,1,0,3:0:0:0:
182,85,55278,5,8,0:0:0:0:
180,79,55439,1,0,3:0:0:0:
110,15,55601,6,0,L|60:21,4,36.749998878479,8|8|8|8|0,3:0|3:0|3:0|3:0|3:0,0:0:0:0:
180,79,56085,1,8,3:2:0:0:
184,74,56246,2,0,L|260:64,1,73.4999977569581,12|0,0:0|3:0,0:0:0:0:
354,98,56569,2,0,L|397:104,3,36.749998878479,0|0|0|0,3:0|3:0|3:0|3:0,0:0:0:0:
425,141,56891,2,0,L|418:183,1,36.749998878479,0|0,3:0|3:0,0:0:0:0:
381,207,57052,6,0,B|346:210|313:191|313:191|282:222|224:225|224:225|268:200|273:164,1,245,4|0,3:2|0:0,0:0:0:0:
220,75,58343,1,0,3:0:0:0:
220,75,58423,1,0,3:0:0:0:
220,75,58504,6,0,P|191:37|133:38,2,99.7499973363877,8|8|8,0:0|3:0|3:0,0:0:0:0:
138,133,59149,2,0,L|66:119,1,66.4999982242585,0|0,3:0|3:0,0:0:0:0:
67,123,59391,1,0,3:0:0:0:
62,127,59472,1,8,0:0:0:0:
91,353,59794,6,0,P|45:373|-15:345,2,99.7499973363877,4|0|0,3:2|3:0|3:0,0:0:0:0:
151,276,60439,2,0,L|249:298,2,99.7499973363877,8|0|0,0:0|3:0|3:0,0:0:0:0:
219,384,61085,6,0,L|317:362,2,99.7499973363877,0|0|0,3:0|3:0|3:0,0:0:0:0:
248,297,61730,2,0,L|264:223,1,66.4999982242585,8|0,0:0|3:0,0:0:0:0:
211,153,62052,1,8,0:0:0:0:
140,214,62214,1,8,0:0:0:0:
134,212,62294,1,8,0:0:0:0:
128,210,62375,6,0,L|19:232,2,99.7499973363877,4|0|0,3:2|3:0|3:0,0:0:0:0:
211,153,63020,2,0,P|225:101|200:44,2,99.7499973363877,8|0|0,0:0|3:0|3:0,0:0:0:0:
276,219,63665,6,0,L|297:329,1,99.7499973363877,0|0,3:2|3:0,0:0:0:0:
422,374,64149,1,0,3:0:0:0:
494,314,64310,2,0,P|506:266|498:242,1,66.4999982242585,8|8,0:0|0:0,0:0:0:0:
499,246,64552,1,8,0:0:0:0:
495,242,64633,2,0,L|454:235,3,33.2499991121292,8|8|8|8,0:0|0:0|0:0|0:0,0:0:0:0:
431,199,64956,6,0,L|444:120,1,66.4999982242585,4|0,3:2|0:0,0:0:0:0:
394,53,65278,2,0,B|362:43|362:43|322:60,1,66.4999982242585,8|0,0:0|0:0,0:0:0:0:
257,112,65601,2,0,L|278:250,1,132.999996448517,0|8,3:0|0:0,0:0:0:0:
221,318,66085,6,0,P|178:337|93:303,1,132.999996448517,2|0,0:0|0:0,0:0:0:0:
30,248,66569,1,8,0:0:0:0:
83,172,66730,2,0,L|221:192,1,132.999996448517
288,133,67214,2,0,L|276:65,1,66.4999982242585,8|0,0:0|3:0,0:0:0:0:
275,61,67456,1,8,0:0:0:0:
274,54,67536,6,0,P|331:74|410:49,1,132.999996448517,2|8,3:2|0:0,0:0:0:0:
471,115,68020,2,0,L|459:193,1,66.4999982242585,2|0,0:0|3:0,0:0:0:0:
393,244,68343,1,2,0:0:0:0:
389,239,68504,2,0,B|357:231|357:231|326:250,1,66.4999982242585,8|2,0:0|0:0,0:0:0:0:
308,339,68827,6,0,L|169:318,1,132.999996448517,0|8,3:0|0:0,0:0:0:0:
111,252,69310,1,0,0:0:0:0:
175,184,69472,2,0,L|216:178,4,33.2499991121292,8|8|8|8|0,0:0|0:0|0:0|0:0|0:0,0:0:0:0:
130,101,69956,6,0,L|262:79,1,132.999996448517,6|0,3:2|0:0,0:0:0:0:
329,16,70439,2,0,L|407:29,1,66.4999982242585,8|0,0:0|3:0,0:0:0:0:
348,108,70762,2,0,L|426:121,1,66.4999982242585,8|0,0:0|3:0,0:0:0:0:
367,200,71085,2,0,L|445:213,1,66.4999982242585,8|0,0:0|3:0,0:0:0:0:
313,276,71407,6,0,P|270:296|244:296,1,66.4999982242585,8|0,0:0|3:0,0:0:0:0:
204,216,71730,2,0,P|165:188|152:166,1,66.4999982242585,8|0,0:0|3:0,0:0:0:0:
205,95,72052,1,8,0:0:0:0:
201,91,72214,2,0,P|205:43|218:21,1,66.4999982242585,8|8,0:0|0:0,0:0:0:0:
305,13,72536,6,0,L|281:159,1,132.999996448517,6|0,3:2|3:0,0:0:0:0:
338,220,73020,2,0,L|407:208,1,66.4999982242585,8|0,0:0|0:0,0:0:0:0:
419,300,73343,2,0,L|353:311,1,66.4999982242585,0|0,3:0|3:0,0:0:0:0:
287,376,73665,1,8,0:0:0:0:
281,372,73746,1,0,3:0:0:0:
276,368,73827,6,0,L|196:355,1,66.4999982242585,0|0,3:0|3:0,0:0:0:0:
138,298,74149,1,8,0:0:0:0:
202,231,74310,1,8,0:0:0:0:
131,169,74472,1,0,3:0:0:0:
125,165,74552,1,0,3:0:0:0:
119,161,74633,2,0,L|109:112,3,33.2499991121292,0|0|8|8,3:0|3:0|0:0|0:0,0:0:0:0:
145,94,74956,2,0,L|155:45,1,33.2499991121292,8|8,0:0|0:0,0:0:0:0:
130,19,75117,6,0,P|199:48|267:33,1,132.999996448517,0|0,3:0|3:0,0:0:0:0:
323,102,75601,2,0,L|312:176,1,66.4999982242585,8|0,0:0|0:0,0:0:0:0:
247,233,75923,2,0,L|258:307,1,66.4999982242585,0|0,3:0|3:0,0:0:0:0:
203,375,76246,1,8,0:0:0:0:
198,370,76407,6,0,L|67:349,1,132.999996448517,2|2,3:2|3:2,0:0:0:0:
3,280,76891,1,8,0:0:0:0:
71,217,77052,2,0,P|86:184|77:128,1,66.4999982242585,2|0,0:0|3:2,0:0:0:0:
86,148,77294,1,0,3:0:0:0:
84,142,77375,2,0,L|41:147,3,33.2499991121292,0|0|0|0,3:0|3:0|3:0|3:0,0:0:0:0:
36,126,77698,6,0,L|184:150,1,132.999996448517,6|0,3:2|3:2,0:0:0:0:
238,87,78181,2,0,L|226:13,1,66.4999982242585,8|2,0:0|3:2,0:0:0:0:
334,76,78504,2,0,L|308:221,1,132.999996448517,0|8,0:0|0:0,0:0:0:0:
255,282,78988,6,0,P|298:257|388:284,1,132.999996448517,6|0,3:2|3:0,0:0:0:0:
382,278,79391,1,0,3:0:0:0:
386,283,79472,2,0,L|379:332,2,33.2499991121292,0|0|0,3:0|3:0|3:0,0:0:0:0:
464,235,79794,2,0,L|452:158,1,66.4999982242585,2|0,0:0|3:0,0:0:0:0:
395,102,80117,1,0,3:0:0:0:
389,104,80278,1,0,3:0:0:0:
456,37,80439,5,2,0:0:0:0:
459,76,82698,5,0,3:0:0:0:
459,76,83020,2,0,L|444:156,1,66.4999982242585,8|0,0:0|3:0,0:0:0:0:
451,149,83262,1,0,3:0:0:0:
455,155,83343,1,0,3:0:0:0:
405,235,83504,6,0,P|370:245|331:229,1,66.4999982242585,8|0,0:0|3:0,0:0:0:0:
338,232,83746,1,0,3:0:0:0:
335,226,83827,1,0,3:0:0:0:
261,169,83988,6,0,L|189:181,1,66.4999982242585,8|0,0:0|3:0,0:0:0:0:
191,186,84230,1,0,3:0:0:0:
187,193,84310,1,0,3:0:0:0:
119,258,84472,5,8,0:0:0:0:
46,199,84633,2,0,L|33:154,2,33.2499991121292,0|0|0,3:0|3:0|3:0,0:0:0:0:
119,258,84956,6,0,L|109:289,3,33.2499991121292,8|0|0|0,0:0|3:0|3:0|3:0,0:0:0:0:
77,323,85278,2,0,L|86:354,3,33.2499991121292,0|0|0|0,3:0|3:0|3:0|3:0,0:0:0:0:
124,383,85601,5,8,0:0:0:0:
285,291,85923,1,8,0:0:0:0:
286,284,86085,1,8,0:0:0:0:
343,211,86245,1,8,0:0:0:0:
342,204,86407,1,8,0:0:0:0:
263,153,86569,2,0,L|193:165,1,66.4999982242585,0|0,3:0|3:0,0:0:0:0:
128,101,86891,6,0,L|95:94,3,33.2499991121292,8|8|8|8,0:0|0:0|0:0|0:0,0:0:0:0:
59,125,87214,2,0,L|68:169,3,33.2499991121292,8|8|8|8,0:0|0:0|0:0|0:0,0:0:0:0:
94,194,87536,2,0,L|85:238,3,33.2499991121292,8|8|8|8,0:0|0:0|0:0|0:0,0:0:0:0:
75,272,87859,2,0,L|42:278,3,33.2499991121292,8|8|8|8,0:0|0:0|0:0|0:0,0:0:0:0:
5,248,88181,5,2,0:0:0:0:
145,370,88504,5,2,0:0:0:0:
267,230,88827,5,2,0:0:0:0:
127,108,89149,5,2,0:0:0:0:
166,192,89310,2,0,L|193:56,1,132.999996448517,8|8,0:0|0:0,0:0:0:0:
112,12,89794,1,8,0:0:0:0:
112,12,90601,6,0,P|148:43|249:43,1,146.999995513916,6|0,3:2|3:0,0:0:0:0:
341,11,91085,2,0,L|355:92,1,73.4999977569581,10|0,0:0|0:0,0:0:0:0:
442,135,91408,2,0,L|454:63,1,73.4999977569581,2|0,3:2|3:0,0:0:0:0:
362,188,91730,1,8,0:0:0:0:
357,182,91892,6,0,L|285:169,1,73.4999977569581,2|0,3:2|0:0,0:0:0:0:
235,258,92214,2,0,L|307:271,1,73.4999977569581,2|8,3:2|0:0,0:0:0:0:
180,177,92537,2,0,P|108:166|44:200,1,146.999995513916,2|0,0:0|3:0,0:0:0:0:
127,262,93021,1,8,0:0:0:0:
191,182,93182,6,0,L|167:33,1,146.999995513916,2|0,3:2|3:0,0:0:0:0:
265,3,93666,1,8,0:0:0:0:
270,8,93827,2,0,L|256:92,1,73.4999977569581,2|0,0:0|3:0,0:0:0:0:
356,57,94150,2,0,L|344:130,1,73.4999977569581,2|8,3:2|0:0,0:0:0:0:
369,228,94472,6,0,B|428:235|428:235|457:221|457:221|522:227,1,146.999995513916,2|0,3:2|3:0,0:0:0:0:
475,322,94956,1,8,0:0:0:0:
480,330,95279,6,0,L|472:378,3,36.749998878479,0|0|0|0,3:0|3:0|3:0|3:0,0:0:0:0:
489,384,95601,1,8,0:0:0:0:
388,330,95763,6,0,P|309:322|246:358,1,146.999995513916,6|0,3:2|3:0,0:0:0:0:
171,288,96246,2,0,L|188:204,1,73.4999977569581,10|0,0:0|0:0,0:0:0:0:
85,243,96569,2,0,L|99:171,1,73.4999977569581,2|0,3:2|3:0,0:0:0:0:
128,77,96892,1,8,0:0:0:0:
122,72,97053,6,0,L|38:89,1,73.4999977569581,2|0,3:2|0:0,0:0:0:0:
187,7,97375,2,0,L|271:24,1,73.4999977569581,2|8,3:2|0:0,0:0:0:0:
322,92,97698,2,0,P|380:54|458:62,1,146.999995513916,2|0,0:0|3:0,0:0:0:0:
408,152,98182,1,8,0:0:0:0:
499,198,98343,6,0,L|479:343,1,146.999995513916,2|0,3:2|3:0,0:0:0:0:
382,381,98827,1,8,0:0:0:0:
381,374,98988,1,0,3:0:0:0:
303,306,99150,1,8,0:0:0:0:
304,299,99311,1,0,3:0:0:0:
372,222,99472,2,0,P|383:180|365:141,1,73.4999977569581,8|0,0:0|3:0,0:0:0:0:
284,79,99795,5,8,0:0:0:0:
233,22,99956,1,8,0:0:0:0:
164,56,100117,1,8,0:0:0:0:
215,113,100278,1,8,0:0:0:0:
284,79,100440,2,0,L|326:71,4,36.749998878479,0|0|0|0|8,3:0|3:0|3:0|3:0|3:0,0:0:0:0:
373,152,100924,6,0,L|352:307,1,146.999995513916,6|0,3:2|3:0,0:0:0:0:
262,347,101408,1,8,0:0:0:0:
256,342,101569,2,0,L|249:267,1,73.4999977569581,0|8,3:0|0:0,0:0:0:0:
172,199,101892,1,0,3:0:0:0:
166,198,102053,1,8,0:0:0:0:
98,275,102214,6,0,P|61:213|77:143,1,146.999995513916,6|0,3:2|3:0,0:0:0:0:
149,69,102698,1,8,0:0:0:0:
155,65,102859,2,0,L|234:77,1,73.4999977569581,0|8,3:0|0:0,0:0:0:0:
312,17,103182,1,0,3:0:0:0:
313,23,103343,1,8,0:0:0:0:
377,103,103504,6,0,P|391:173|358:238,1,146.999995513916,6|0,3:2|3:0,0:0:0:0:
269,289,103988,1,8,0:0:0:0:
314,381,104150,6,0,L|471:362,1,146.999995513916,2|2,0:0|3:2,0:0:0:0:
495,267,104633,1,8,0:0:0:0:
395,238,104794,6,0,P|362:173|376:102,1,146.999995513916,6|0,3:2|3:0,0:0:0:0:
302,29,105279,2,0,L|217:13,1,73.4999977569581,8|0,0:0|0:0,0:0:0:0:
150,80,105601,1,0,3:0:0:0:
146,75,105763,2,0,L|61:91,1,73.4999977569581,10|0,0:0|3:0,0:0:0:0:
18,174,106085,6,0,P|5:249|43:320,1,146.999995513916,6|0,3:2|3:0,0:0:0:0:
128,353,106569,2,0,L|212:337,1,73.4999977569581,10|0,0:0|0:0,0:0:0:0:
269,262,106892,1,0,3:0:0:0:
273,258,107053,2,0,B|308:249|308:249|351:270,1,73.4999977569581,2|8,3:2|0:0,0:0:0:0:
429,318,107375,6,0,B|439:263|439:263|433:229|433:229|444:165,1,146.999995513916,6|0,3:2|3:0,0:0:0:0:
390,89,107859,2,0,L|377:11,1,73.4999977569581,10|0,0:0|0:0,0:0:0:0:
291,73,108182,2,0,L|279:145,1,73.4999977569581,2|0,3:2|3:0,0:0:0:0:
208,13,108504,1,10,0:0:0:0:
203,18,108666,6,0,P|153:38|68:-5,1,146.999995513916,4|0,3:2|3:0,0:0:0:0:
1,77,109150,1,8,0:0:0:0:
2,83,109311,1,0,3:0:0:0:
64,164,109472,5,8,0:0:0:0:
63,170,109633,1,0,3:0:0:0:
149,114,109794,2,0,B|184:106|184:106|224:127,1,73.4999977569581,8|0,0:0|3:0,0:0:0:0:
280,205,110117,6,0,L|274:248,3,36.749998878479,8|8|8|8,0:0|0:0|0:0|0:0,0:0:0:0:
301,285,110439,2,0,L|306:321,3,36.749998878479,0|0|0|0,3:0|3:0|3:0|3:0,0:0:0:0:
348,352,110762,2,0,L|391:346,3,36.749998878479,0|0|0|0,3:0|3:0|3:0|3:0,0:0:0:0:
422,311,111085,2,0,L|430:265,1,36.749998878479,0|0,3:0|3:0,0:0:0:0:
463,236,111246,6,0,P|423:250|372:177,1,146.999995513916,6|0,3:2|3:0,0:0:0:0:
448,106,111730,2,0,P|463:58|454:20,1,73.4999977569581,8|0,0:0|0:0,0:0:0:0:
359,54,112052,2,0,L|276:43,1,73.4999977569581,0|0,3:0|3:0,0:0:0:0:
199,100,112375,1,8,0:0:0:0:
262,180,112536,6,0,L|241:339,1,146.999995513916,6|0,3:2|3:0,0:0:0:0:
148,368,113020,2,0,B|111:376|111:376|77:356,1,73.4999977569581,8|0,0:0|0:0,0:0:0:0:
33,265,113343,2,0,L|23:192,1,73.4999977569581,0|0,3:0|3:0,0:0:0:0:
77,105,113665,1,8,0:0:0:0:
169,150,113827,6,0,B|212:158|212:158|265:138|265:138|313:147,1,146.999995513916,6|0,3:2|3:0,0:0:0:0:
393,207,114310,2,0,P|405:250|391:290,1,73.4999977569581,8|0,0:0|0:0,0:0:0:0:
322,347,114633,2,0,B|284:322|284:322|177:344,1,146.999995513916,2|8,3:2|0:0,0:0:0:0:
90,300,115117,6,0,B|128:325|128:325|235:303,1,146.999995513916,2|0,3:2|3:0,0:0:0:0:
288,221,115601,2,0,L|272:137,1,73.4999977569581,8|0,0:0|0:0,0:0:0:0:
344,73,115923,2,0,L|352:28,4,36.749998878479,8|0|0|0|0,0:0|3:0|3:0|3:0|3:0,0:0:0:0:
265,140,116407,6,0,P|214:152|124:103,1,146.999995513916,6|0,3:2|3:0,0:0:0:0:
50,49,116891,1,8,0:0:0:0:
11,144,117052,2,0,L|38:291,1,146.999995513916,2|0,0:0|3:0,0:0:0:0:
110,362,117536,1,8,0:0:0:0:
190,297,117698,6,0,P|223:294|263:320,1,73.4999977569581,2|0,3:2|0:0,0:0:0:0:
333,382,118020,2,0,P|366:385|406:359,1,73.4999977569581,0|8,3:0|0:0,0:0:0:0:
477,296,118343,2,0,L|331:258,1,146.999995513916,2|0,0:0|3:0,0:0:0:0:
266,181,118827,1,8,0:0:0:0:
337,107,118988,6,0,L|191:145,1,146.999995513916,2|0,3:2|3:0,0:0:0:0:
109,85,119472,1,8,0:0:0:0:
55,165,119633,1,0,0:0:0:0:
52,171,119794,2,0,B|63:204|63:204|48:249,1,73.4999977569581,2|0,3:2|3:0,0:0:0:0:
7,334,120117,1,8,0:0:0:0:
99,378,120278,6,0,P|141:338|249:339,1,146.999995513916,2|0,3:2|3:0,0:0:0:0:
235,334,120681,1,0,3:0:0:0:
242,340,120762,2,0,L|236:377,3,36.749998878479,0|0|0|0,3:0|3:0|3:0|3:0,0:0:0:0:
266,368,121085,2,0,L|352:354,1,73.4999977569581,8|8,0:0|0:0,0:0:0:0:
508,160,121569,6,0,B|445:144|437:195|363:184,1,146.999995513916,6|0,3:2|3:0,0:0:0:0:
286,120,122052,2,0,P|240:107|202:114,1,73.4999977569581,0|0,3:0|0:0,0:0:0:0:
143,184,122375,2,0,P|130:230|137:268,1,73.4999977569581,8|0,0:0|3:0,0:0:0:0:
199,333,122698,1,8,0:0:0:0:
280,270,122859,6,0,L|259:124,1,146.999995513916,2|0,3:2|3:0,0:0:0:0:
175,63,123343,2,0,B|140:53|140:53|101:76,1,73.4999977569581,0|0,3:0|0:0,0:0:0:0:
37,146,123665,2,0,L|29:227,1,73.4999977569581,8|0,0:0|0:0,0:0:0:0:
68,315,123988,1,0,0:0:0:0:
160,270,124149,6,0,P|204:261|295:319,1,146.999995513916,2|0,3:2|3:0,0:0:0:0:
367,376,124633,1,0,3:0:0:0:
373,374,124794,1,0,0:0:0:0:
459,317,124956,2,0,B|469:280|469:280|457:245,1,73.4999977569581,8|0,0:0|0:0,0:0:0:0:
383,175,125278,1,0,3:0:0:0:
470,121,125439,6,0,P|400:126|342:73,1,146.999995513916,2|0,3:2|3:0,0:0:0:0:
343,71,125843,1,0,3:0:0:0:
345,64,125923,2,0,L|263:77,1,73.4999977569581,0|0,3:0|0:0,0:0:0:0:
179,29,126246,2,0,B|144:16|144:16|95:37,1,73.4999977569581,8|0,0:0|3:0,0:0:0:0:
38,104,126569,1,0,3:0:0:0:
34,110,126730,6,0,P|45:150|149:159,1,146.999995513916,6|0,3:2|3:0,0:0:0:0:
229,121,127214,2,0,P|267:110|308:115,1,73.4999977569581,4|4,3:0|3:0,0:0:0:0:
345,204,127536,2,0,L|333:278,1,73.4999977569581,4|4,3:0|3:0,0:0:0:0:
235,272,127859,2,0,L|247:346,1,73.4999977569581,8|8,0:0|0:0,0:0:0:0:
342,382,128181,6,0,L|381:375,3,36.749998878479,8|8|8|8,0:0|0:0|0:0|0:0,0:0:0:0:
418,342,128504,2,0,L|457:349,3,36.749998878479,8|8|8|8,0:0|0:0|0:0|0:0,0:0:0:0:
497,319,128827,2,0,P|505:303|500:270,3,36.749998878479,8|8|8|8,0:0|0:0|0:0|0:0,0:0:0:0:
475,242,129149,2,0,P|467:226|472:193,3,36.749998878479,8|8|8|8,0:0|0:0|0:0|0:0,0:0:0:0:
496,164,129472,6,0,P|441:182|379:148,2,110.249996635437,2|2|2,3:2|3:2|3:2,0:0:0:0:
445,73,130117,2,0,P|390:55|328:89,2,110.249996635437,2|2|2,3:2|3:2|3:2,0:0:0:0:
394,163,130762,6,0,L|381:230,2,48.9999985046387,10|8|2,0:0|0:0|3:2,0:0:0:0:
357,178,131085,6,0,L|344:245,2,48.9999985046387,8|10|0,0:0|0:0|3:0,0:0:0:0:
320,193,131407,5,14,3:2:0:0:
256,192,131488,12,0,132698,3:0:0:0:
97,155,133181,6,0,P|133:124|234:124,1,146.999995513916,6|0,3:2|3:0,0:0:0:0:
330,103,133665,2,0,L|317:175,1,73.4999977569581,10|0,0:0|0:0,0:0:0:0:
387,251,133988,2,0,L|399:323,1,73.4999977569581,2|0,3:2|3:0,0:0:0:0:
293,311,134310,1,8,0:0:0:0:
288,315,134472,6,0,L|216:328,1,73.4999977569581,2|0,3:2|0:0,0:0:0:0:
163,239,134794,2,0,L|235:226,1,73.4999977569581,2|8,3:2|0:0,0:0:0:0:
316,162,135117,2,0,P|267:126|173:143,1,146.999995513916,2|0,0:0|3:0,0:0:0:0:
90,177,135601,1,8,0:0:0:0:
18,103,135762,6,0,L|48:262,1,146.999995513916,2|0,3:2|3:0,0:0:0:0:
99,335,136246,1,8,0:0:0:0:
182,275,136407,2,0,P|220:273|254:287,1,73.4999977569581,2|0,0:0|3:0,0:0:0:0:
313,368,136730,2,0,P|351:370|385:355,1,73.4999977569581,2|8,3:2|0:0,0:0:0:0:
455,284,137052,6,0,B|433:124,1,146.999995513916,2|0,3:2|3:0,0:0:0:0:
498,56,137536,1,8,0:0:0:0:
498,56,137859,6,0,L|505:10,3,36.749998878479,0|0|0|0,3:0|3:0|3:0|3:0,0:0:0:0:
495,9,138181,1,8,0:0:0:0:
397,43,138343,6,0,P|326:74|250:65,1,146.999995513916,6|0,3:2|3:0,0:0:0:0:
174,8,138826,2,0,L|91:27,1,73.4999977569581,10|0,0:0|0:0,0:0:0:0:
35,103,139149,2,0,B|26:134|26:134|38:186,1,73.4999977569581,2|0,3:2|3:0,0:0:0:0:
83,277,139472,1,8,0:0:0:0:
77,282,139633,6,0,L|-7:265,1,73.4999977569581,2|0,3:2|0:0,0:0:0:0:
107,188,139955,2,0,L|23:171,1,73.4999977569581,2|8,3:2|0:0,0:0:0:0:
176,119,140278,2,0,B|255:129|239:83|336:97,1,146.999995513916,2|0,0:0|3:0,0:0:0:0:
401,33,140762,1,8,0:0:0:0:
467,111,140923,6,0,P|480:175|444:255,1,146.999995513916,6|0,3:2|3:0,0:0:0:0:
367,310,141407,1,8,0:0:0:0:
366,317,141568,1,0,3:0:0:0:
274,269,141730,1,8,0:0:0:0:
273,262,141891,1,0,3:0:0:0:
204,338,142052,2,0,P|177:353|120:349,1,73.4999977569581,8|0,0:0|3:0,0:0:0:0:
53,291,142375,5,8,0:0:0:0:
78,214,142536,1,8,0:0:0:0:
28,132,142698,1,8,0:0:0:0:
53,55,142859,1,8,0:0:0:0:
127,20,143020,2,0,P|152:19|162:28,4,36.749998878479,0|0|0|0|8,3:0|3:0|3:0|3:0|3:0,0:0:0:0:
190,116,143504,6,0,L|342:90,1,146.999995513916,6|0,3:2|3:0,0:0:0:0:
415,25,143988,1,8,0:0:0:0:
480,104,144149,2,0,P|490:140|473:177,1,73.4999977569581,0|8,3:0|0:0,0:0:0:0:
381,212,144472,1,0,3:0:0:0:
380,206,144633,1,8,0:0:0:0:
437,291,144794,6,0,P|398:307|301:264,1,146.999995513916,6|0,3:2|3:0,0:0:0:0:
239,191,145278,1,8,0:0:0:0:
243,186,145439,2,0,L|256:113,1,73.4999977569581,0|8,3:0|0:0,0:0:0:0:
198,27,145762,1,0,3:0:0:0:
192,28,145923,1,8,0:0:0:0:
96,67,146084,6,0,P|81:137|114:202,1,146.999995513916,6|0,3:2|0:0,0:0:0:0:
192,270,146568,1,8,0:0:0:0:
123,347,146730,6,0,L|270:378,1,146.999995513916,6|2,0:0|3:2,0:0:0:0:
349,316,147213,1,8,0:0:0:0:
434,374,147375,6,0,P|450:303|417:239,1,146.999995513916,6|0,3:2|3:0,0:0:0:0:
354,157,147859,2,0,L|426:143,1,73.4999977569581,8|0,0:0|0:0,0:0:0:0:
446,42,148181,1,0,3:0:0:0:
442,37,148343,2,0,L|357:53,1,73.4999977569581,10|0,0:0|3:0,0:0:0:0:
277,4,148665,6,0,P|243:28|136:20,1,146.999995513916,6|0,3:2|3:0,0:0:0:0:
60,87,149149,2,0,B|50:122|50:122|69:165,1,73.4999977569581,10|0,0:0|0:0,0:0:0:0:
138,228,149472,1,0,3:0:0:0:
142,224,149633,2,0,L|220:212,1,73.4999977569581,2|8,3:2|0:0,0:0:0:0:
287,140,149955,6,0,B|342:150|342:150|376:144|376:144|440:155,1,146.999995513916,6|0,3:2|3:0,0:0:0:0:
492,237,150439,2,0,P|496:277|479:315,1,73.4999977569581,10|0,0:0|0:0,0:0:0:0:
393,356,150762,2,0,P|380:321|385:285,1,73.4999977569581,2|0,3:2|3:0,0:0:0:0:
305,221,151084,1,8,0:0:0:0:
300,226,151246,6,0,P|250:246|165:203,1,146.999995513916,4|0,3:2|3:0,0:0:0:0:
115,121,151730,1,8,0:0:0:0:
116,115,151891,1,0,3:0:0:0:
30,173,152053,5,8,0:0:0:0:
31,179,152214,1,0,3:0:0:0:
90,262,152375,2,0,P|100:306|89:348,1,73.4999977569581,8|8,3:0|3:0,0:0:0:0:
185,383,152698,6,0,L|221:373,3,36.749998878479,0|0|0|0,3:0|3:0|3:0|3:0,0:0:0:0:
261,342,153020,2,0,L|297:352,3,36.749998878479,0|0|0|0,3:0|3:0|3:0|3:0,0:0:0:0:
340,380,153343,2,0,L|376:370,3,36.749998878479,0|0|0|0,3:0|3:0|3:0|3:0,0:0:0:0:
381,360,153665,1,0,3:0:0:0:
466,297,153827,6,0,P|481:250|443:156,1,146.999995513916,6|0,3:2|0:0,0:0:0:0:
352,196,154310,2,0,L|273:183,1,73.4999977569581,10|0,0:0|0:0,0:0:0:0:
207,109,154633,2,0,L|128:122,1,73.4999977569581,2|0,3:2|3:0,0:0:0:0:
45,173,154956,1,8,0:0:0:0:
39,168,155117,6,0,B|22:136|22:136|32:99,1,73.4999977569581,2|0,3:2|0:0,0:0:0:0:
132,221,155439,2,0,L|116:302,1,73.4999977569581,2|8,3:2|0:0,0:0:0:0:
192,364,155762,2,0,P|253:326|336:336,1,146.999995513916,2|0,0:0|3:0,0:0:0:0:
415,381,156246,1,8,0:0:0:0:
474,296,156407,6,0,L|444:147,1,146.999995513916,2|0,3:2|3:0,0:0:0:0:
367,83,156891,1,8,0:0:0:0:
308,167,157052,2,0,P|273:183|231:185,1,73.4999977569581,2|0,0:0|3:0,0:0:0:0:
182,66,157375,2,0,P|218:69|251:84,1,73.4999977569581,2|8,3:2|0:0,0:0:0:0:
113,142,157698,6,0,P|85:95|108:-6,1,146.999995513916,2|0,3:2|3:0,0:0:0:0:
182,66,158181,1,8,0:0:0:0:
43,210,158504,2,0,L|-3:199,4,36.749998878479,0|0|0|0|8,3:0|3:0|3:0|3:0|0:0,0:0:0:0:
108,290,158988,6,0,B|188:299|174:252|256:268,1,146.999995513916,6|0,3:2|3:0,0:0:0:0:
351,246,159472,2,0,L|337:329,1,73.4999977569581,10|0,0:0|0:0,0:0:0:0:
430,364,159794,2,0,L|442:291,1,73.4999977569581,2|0,3:2|3:0,0:0:0:0:
505,209,160117,1,8,0:0:0:0:
510,204,160278,6,0,P|507:163|479:131,1,73.4999977569581,2|0,3:2|0:0,0:0:0:0:
386,156,160601,2,0,P|348:138|307:146,1,73.4999977569581,2|8,3:2|0:0,0:0:0:0:
227,92,160923,2,0,L|250:238,1,146.999995513916,2|0,0:0|3:0,0:0:0:0:
188,320,161407,1,8,0:0:0:0:
92,281,161569,6,0,P|66:241|80:138,1,146.999995513916,2|0,3:2|3:0,0:0:0:0:
159,87,162052,1,8,0:0:0:0:
166,89,162214,1,0,3:0:0:0:
245,154,162375,1,8,0:0:0:0:
252,152,162537,1,0,3:0:0:0:
331,86,162698,2,0,B|364:72|364:72|404:84,1,73.4999977569581,8|0,0:0|3:0,0:0:0:0:
472,155,163020,5,8,0:0:0:0:
455,237,163181,1,8,0:0:0:0:
376,260,163343,1,8,0:0:0:0:
393,178,163504,1,8,0:0:0:0:
472,155,163665,2,0,L|509:170,5,36.749998878479,0|0|0|0|8|0,3:0|3:0|3:0|3:0|3:0|3:0,0:0:0:0:
457,150,164149,6,0,L|310:181,1,146.999995513916,6|0,3:2|3:0,0:0:0:0:
237,109,164633,2,0,L|251:34,1,73.4999977569581,8|0,0:0|3:0,0:0:0:0:
146,89,164956,2,0,L|160:14,1,73.4999977569581,8|0,0:0|3:0,0:0:0:0:
63,143,165278,1,8,0:0:0:0:
57,138,165439,6,0,P|36:179|70:288,1,146.999995513916,6|0,3:2|3:0,0:0:0:0:
147,322,165923,2,0,P|171:349|182:385,1,73.4999977569581,8|0,0:0|3:0,0:0:0:0:
285,280,166246,2,0,P|292:315|283:352,1,73.4999977569581,8|0,0:0|3:0,0:0:0:0:
215,219,166569,1,8,0:0:0:0:
220,215,166730,6,0,L|374:236,1,146.999995513916,6|0,3:2|3:0,0:0:0:0:
446,298,167214,1,8,0:0:0:0:
377,223,167375,2,0,P|363:174|402:82,1,146.999995513916,6|8,0:0|3:3,0:0:0:0:
404,82,167778,1,8,3:3:0:0:
411,79,167859,2,0,L|446:88,2,36.749998878479,8|8|6,3:3|3:3|3:2,0:0:0:0:
250,27,168343,6,0,L|215:36,3,36.749998878479,0|0|8|0,3:0|3:0|0:0|0:0,0:0:0:0:
202,39,168665,1,6,0:0:0:0:
48,165,168988,2,0,P|44:144|58:110,3,36.749998878479,8|8|8|8,0:0|0:0|0:0|0:0,0:0:0:0:
56,120,169310,6,0,P|88:151|190:147,1,146.999995513916,6|0,3:2|3:0,0:0:0:0:
267,212,169794,2,0,P|276:257|266:293,1,73.4999977569581,10|0,0:0|0:0,0:0:0:0:
198,358,170117,1,8,3:0:0:0:
198,358,170198,1,8,3:0:0:0:
198,358,170278,2,0,L|157:351,3,36.749998878479,8|8|8|8,3:0|3:0|3:0|3:0,0:0:0:0:
116,378,170601,6,0,L|93:230,1,146.999995513916,6|0,3:2|0:0,0:0:0:0:
161,155,171085,2,0,B|195:143|195:143|242:165,1,73.4999977569581,8|0,0:0|3:0,0:0:0:0:
237,165,171327,1,0,3:0:0:0:
244,170,171407,2,0,L|230:253,1,73.4999977569581,0|0,3:0|3:0,0:0:0:0:
302,331,171730,1,0,3:0:0:0:
302,331,171810,1,0,3:0:0:0:
302,331,171891,6,0,P|374:344|440:295,1,146.999995513916,6|0,3:2|0:0,0:0:0:0:
477,212,172375,2,0,L|490:139,1,73.4999977569581,8|0,0:0|3:0,0:0:0:0:
430,54,172698,1,0,3:0:0:0:
426,60,172859,2,0,B|390:68|390:68|348:47,1,73.4999977569581,8|0,0:0|3:0,0:0:0:0:
263,92,173181,1,0,3:0:0:0:
258,96,173343,6,0,L|269:181,1,73.4999977569581,8|0,0:0|3:0,0:0:0:0:
341,240,173665,1,8,0:0:0:0:
260,304,173827,2,0,L|212:294,2,36.749998878479,0|0|0,3:0|3:0|3:0,0:0:0:0:
329,379,174149,1,0,3:0:0:0:
413,320,174310,1,0,3:0:0:0:
411,312,174472,5,6,3:2:0:0:
288,121,175762,1,0,3:0:0:0:
289,112,175843,1,0,3:0:0:0:
291,104,175923,2,0,L|402:119,2,99.7499973363877,8|8|8,3:3|3:0|3:0,0:0:0:0:
218,44,176569,2,0,P|174:43|141:70,1,66.4999982242585,0|0,3:0|3:0,0:0:0:0:
151,62,176810,1,0,3:0:0:0:
148,70,176891,1,8,0:0:0:0:
50,228,177214,6,0,P|30:182|58:122,2,99.7499973363877,4|0|0,3:2|3:0|3:0,0:0:0:0:
106,302,177859,2,0,L|8:324,2,99.7499973363877,8|0|0,0:0|3:0|3:0,0:0:0:0:
188,347,178505,6,0,L|286:325,2,99.7499973363877,0|0|0,3:0|3:0|3:0,0:0:0:0:
106,302,179150,2,0,B|98:268|98:268|109:227,1,66.4999982242585,8|0,0:0|3:0,0:0:0:0:
193,206,179472,1,8,0:0:0:0:
153,121,179634,1,0,3:0:0:0:
147,119,179714,1,0,3:0:0:0:
141,117,179795,6,0,L|32:139,2,99.7499973363877,4|0|0,3:2|3:0|3:0,0:0:0:0:
231,93,180440,2,0,P|245:41|220:-16,2,99.7499973363877,8|0|0,0:0|3:0|3:0,0:0:0:0:
294,161,181085,6,0,L|283:226,1,66.4999982242585,0|8,3:0|0:0,0:0:0:0:
209,283,181407,1,0,3:0:0:0:
284,354,181569,1,8,0:0:0:0:
284,354,181649,1,8,0:0:0:0:
284,354,181730,2,0,L|354:344,1,66.4999982242585,8|8,0:0|0:0,0:0:0:0:
411,274,182052,2,0,L|481:284,1,66.4999982242585,8|8,0:0|0:0,0:0:0:0:
493,191,182375,5,4,3:2:0:0:
487,188,182536,2,0,L|346:169,1,132.999996448517,0|0,3:0|3:0,0:0:0:0:
291,101,183020,1,8,0:0:0:0:
226,168,183181,2,0,P|209:217|233:297,1,132.999996448517,0|0,3:0|3:0,0:0:0:0:
401,368,183827,5,0,3:0:0:0:
405,363,183988,2,0,P|404:323|388:279,1,66.4999982242585,0|0,3:0|3:0,0:0:0:0:
458,227,184310,2,0,P|459:187|475:143,1,66.4999982242585,8|0,0:0|3:0,0:0:0:0:
407,88,184633,1,0,3:0:0:0:
230,28,184956,6,0,B|179:33|179:33|149:21|149:21|90:27,1,132.999996448517,2|0,3:2|3:0,0:0:0:0:
25,81,185439,1,2,3:2:0:0:
83,153,185601,2,0,L|70:227,1,66.4999982242585,8|0,0:0|3:0,0:0:0:0:
119,298,185923,1,2,3:2:0:0:
192,240,186085,6,0,P|231:215|317:216,1,132.999996448517,0|0,3:0|3:0,0:0:0:0:
377,284,186569,1,0,3:0:0:0:
499,186,186891,1,8,3:0:0:0:
499,186,186972,1,8,3:0:0:0:
499,186,187052,2,0,L|481:71,1,99.7499973363877,8|8,0:0|0:0,0:0:0:0:
337,5,187570,5,8,0:0:0:0:
261,64,187862,6,0,L|213:52,2,35,0|0|14,3:0|3:0|0:0,0:0:0:0:
362,194,188403,6,0,L|406:184,2,33.2499991121292,0|0|14,3:0|3:0|0:0,0:0:0:0:
256,192,188613,12,10,190365,3:0:0:0:
