osu file format v14

[General]
AudioFilename: audio.mp3
AudioLeadIn: 0
PreviewTime: 90087
Countdown: 0
SampleSet: Soft
StackLeniency: 0.2
Mode: 0
LetterboxInBreaks: 0
WidescreenStoryboard: 0

[Editor]
Bookmarks: 64966
DistanceSpacing: 1.1
BeatDivisor: 4
GridSize: 4
TimelineZoom: 1

[Metadata]
Title:The Warrior
TitleUnicode:The Warrior
Artist:Novelbright
ArtistUnicode:Novelbright
Creator:arronchu1207
Version:Extra
Source:リーマンズクラブ
Tags:rock anime japanese opening op ryman's club salaryman badminton kanor full version
BeatmapID:3752643
BeatmapSetID:1828435

[Difficulty]
HPDrainRate:6
CircleSize:4.2
OverallDifficulty:9.1
ApproachRate:9.4
SliderMultiplier:1.6
SliderTickRate:1

[Events]
//Background and Video events
0,0,"b.jpg",0,0
//Break Periods
//Storyboard Layer 0 (Background)
//Storyboard Layer 1 (Fail)
//Storyboard Layer 2 (Pass)
//Storyboard Layer 3 (Foreground)
//Storyboard Layer 4 (Overlay)
//Storyboard Sound Samples

[TimingPoints]
440,322.58064516129,4,2,1,70,1,0
440,-105.263157894737,4,2,1,70,0,0
20439,-166.666666666667,4,2,1,70,0,0
20923,-105.263157894737,4,2,1,70,0,0
32375,-105.263157894737,4,2,1,40,0,0
32698,-105.263157894737,4,2,1,50,0,0
33020,-105.263157894737,4,2,1,60,0,0
33343,-105.263157894737,4,2,1,70,0,0
36407,-95.2380952380952,4,2,1,80,0,1
41407,-62.5,4,2,1,80,0,1
41569,-95.2380952380952,4,2,1,80,0,1
57052,-285.714285714286,4,2,1,70,0,0
58504,-105.263157894737,4,2,1,70,0,0
59714,-105.263157894737,4,2,1,5,0,0
59794,-105.263157894737,4,2,1,60,0,0
60601,-105.263157894737,4,2,1,5,0,0
60681,-105.263157894737,4,2,1,60,0,0
61246,-105.263157894737,4,2,1,5,0,0
61327,-105.263157894737,4,2,1,60,0,0
62536,-105.263157894737,4,2,1,5,0,0
62617,-105.263157894737,4,2,1,60,0,0
63181,-105.263157894737,4,2,1,5,0,0
63262,-105.263157894737,4,2,1,60,0,0
63827,-105.263157894737,4,2,1,5,0,0
63907,-105.263157894737,4,2,1,60,0,0
86569,-105.263157894737,4,2,1,40,0,0
86891,-105.263157894737,4,2,1,50,0,0
87214,-105.263157894737,4,2,1,60,0,0
87536,-105.263157894737,4,2,1,70,0,0
88181,-105.263157894737,4,2,1,50,0,0
89310,-105.263157894737,4,2,1,70,0,0
90601,-95.2380952380952,4,2,1,80,0,1
95601,-62.5,4,2,1,80,0,1
95762,-95.2380952380952,4,2,1,80,0,1
111246,-95.2380952380952,4,2,1,80,0,0
127214,-95.2380952380952,4,2,1,30,0,0
128181,-95.2380952380952,4,2,1,40,0,0
128504,-95.2380952380952,4,2,1,50,0,0
128827,-95.2380952380952,4,2,1,60,0,0
129149,-95.2380952380952,4,2,1,70,0,0
130762,-95.2380952380952,4,2,1,70,0,0
131407,-285.714285714286,4,2,1,70,0,0
132617,-95.2380952380952,4,2,1,70,0,0
133181,-95.2380952380952,4,2,1,80,0,1
138181,-62.5,4,2,1,80,0,1
138343,-95.2380952380952,4,2,1,80,0,1
152698,-95.2380952380952,4,2,1,80,0,0
153827,-95.2380952380952,4,2,1,80,0,1
158827,-62.5,4,2,1,80,0,1
158988,-95.2380952380952,4,2,1,80,0,1
174472,-250,4,2,1,70,0,0
175923,-105.263157894737,4,2,1,70,0,0
177133,-105.263157894737,4,2,1,5,0,0
177214,-105.263157894737,4,2,1,60,0,0
177375,-105.263157894737,4,2,1,5,0,0
177456,-105.263157894737,4,2,1,60,0,0
178020,-105.263157894737,4,2,1,5,0,0
178101,-105.263157894737,4,2,1,60,0,0
178665,-105.263157894737,4,2,1,5,0,0
178746,-105.263157894737,4,2,1,60,0,0
179956,-105.263157894737,4,2,1,5,0,0
180037,-105.263157894737,4,2,1,60,0,0
180601,-105.263157894737,4,2,1,5,0,0
180682,-105.263157894737,4,2,1,60,0,0
187570,322.58064516129,4,2,1,60,1,0
187862,312.5,4,2,1,60,1,0
188018,400,4,2,1,60,1,0
188318,-105.263157894737,4,2,1,5,0,0
188403,280.373831775701,4,2,1,60,1,0
188403,-105.263157894737,4,2,1,60,0,0
188543,-333.333333333333,4,2,1,60,0,0
189945,-333.333333333333,4,2,1,5,0,0
190085,-105.263157894737,4,2,1,60,0,0

[Colours]
Combo1 : 194,206,113
Combo2 : 209,180,109
Combo3 : 117,202,181
Combo4 : 118,192,201

[HitObjects]
256,192,5601,12,4,10762,0:0:0:0:
232,139,14633,6,0,L|273:147,1,37.9999989852906,0|0,3:0|3:0,3:0:0:0:
403,84,14794,2,8,L|362:92,1,37.9999989852906,8|8,3:0|3:0,3:0:0:0:
298,33,14956,2,8,L|290:74,1,37.9999989852906,8|8,3:0|3:0,3:0:0:0:
353,204,15117,2,8,L|345:163,1,37.9999989852906,8|8,3:0|3:0,3:0:0:0:
226,133,15278,5,4,3:0:0:0:
196,108,15359,1,4,3:0:0:0:
158,103,15439,1,4,3:0:0:0:
122,116,15520,1,4,3:0:0:0:
98,145,15601,5,0,3:0:0:0:
100,154,15681,1,0,3:0:0:0:
126,179,15762,6,0,L|155:24,1,151.999995941162,6|0,3:2|0:0,0:0:0:0:
22,148,16246,2,0,L|35:230,1,75.9999979705811,2|0,3:2|0:0,0:0:0:0:
112,347,16569,1,0,3:2:0:0:
112,347,16730,2,0,P|122:307|106:269,1,75.9999979705811,2|0,0:0|3:0,0:0:0:0:
182,209,17052,6,0,L|262:223,1,75.9999979705811,2|0,0:0|3:0,0:0:0:0:
371,294,17375,1,0,0:0:0:0:
371,294,17536,2,0,L|291:308,1,75.9999979705811,2|0,3:2|0:0,0:0:0:0:
442,218,17859,1,0,3:0:0:0:
420,379,18020,1,0,3:0:0:0:
496,308,18181,1,8,0:0:0:0:
291,314,18343,6,0,L|143:283,1,151.999995941162,6|8,3:2|0:0,0:0:0:0:
0,112,18827,1,8,0:0:0:0:
160,155,18988,1,0,3:0:0:0:
169,152,19069,1,0,3:0:0:0:
177,149,19149,5,8,3:0:0:0:
202,120,19230,1,0,3:0:0:0:
209,83,19310,1,0,3:0:0:0:
200,45,19391,1,0,3:0:0:0:
178,13,19472,5,8,3:0:0:0:
168,14,19552,1,0,3:0:0:0:
158,15,19633,1,0,3:0:0:0:
148,16,19714,1,0,3:0:0:0:
118,38,19794,6,0,L|74:33,1,37.9999989852906,2|2,3:2|0:0,0:0:0:0:
0,112,19956,2,0,L|44:107,1,37.9999989852906,2|2,3:2|0:0,0:0:0:0:
100,163,20117,1,12,0:0:0:0:
105,158,20439,6,0,P|113:186|100:217,2,47.9999985351563,2|2|2,0:0|0:0|0:0,0:0:0:0:
27,240,20923,6,0,P|92:229|147:300,1,151.999995941162,4|0,3:2|0:0,0:0:0:0:
111,364,21407,1,8,0:0:0:0:
28,378,21569,1,0,3:0:0:0:
191,165,21730,5,8,0:0:0:0:
108,151,21892,1,0,3:0:0:0:
206,361,22052,5,8,0:0:0:0:
123,375,22214,1,0,3:0:0:0:
285,170,22375,5,8,0:0:0:0:
202,156,22537,1,0,3:0:0:0:
298,357,22698,5,8,0:0:0:0:
215,371,22860,1,0,3:0:0:0:
420,171,23020,5,8,0:0:0:0:
406,253,23181,1,8,3:0:0:0:
393,336,23343,1,0,3:0:0:0:
285,170,23504,6,0,P|267:126|294:42,1,113.999996955872,6|0,3:2|0:0,0:0:0:0:
350,10,23827,2,0,L|426:21,1,75.9999979705811,0|8,3:0|0:0,0:0:0:0:
185,144,24149,6,0,B|119:149|138:107|59:123,1,113.999996955872,6|0,3:2|0:0,0:0:0:0:
16,183,24472,2,0,B|6:220|6:220|27:268,1,75.9999979705811,0|8,3:0|0:0,0:0:0:0:
227,372,24794,6,0,L|246:214,1,151.999995941162,6|0,3:2|3:0,0:0:0:0:
253,211,25198,1,0,3:0:0:0:
262,201,25278,2,0,P|303:216|340:206,1,75.9999979705811,8|0,0:0|3:0,0:0:0:0:
462,77,25601,5,8,0:0:0:0:
443,157,25762,1,0,3:0:0:0:
270,82,25923,5,0,3:0:0:0:
289,2,26084,1,0,3:0:0:0:
350,58,26246,6,0,B|271:64|287:15|195:30,1,151.999995941162,6|0,3:2|3:0,0:0:0:0:
82,126,26730,1,0,3:0:0:0:
82,126,26891,2,0,L|70:41,1,75.9999979705811,8|0,0:0|3:0,0:0:0:0:
158,172,27214,1,8,0:0:0:0:
0,153,27375,6,0,L|156:178,1,151.999995941162,0|8,3:0|0:0,0:0:0:0:
268,312,27859,2,0,L|185:323,1,75.9999979705811,0|0,3:0|3:0,0:0:0:0:
322,236,28181,5,8,0:0:0:0:
402,261,28343,1,0,3:2:0:0:
451,92,28504,5,0,3:2:0:0:
371,67,28666,1,0,3:2:0:0:
388,152,28827,5,0,3:0:0:0:
391,159,28907,1,0,3:0:0:0:
395,155,28988,2,0,L|340:163,1,37.9999989852906,8|0,0:0|0:0,0:0:0:0:
281,104,29149,2,0,L|206:92,1,75.9999979705811,8|0,0:0|0:0,0:0:0:0:
23,16,29472,5,0,3:0:0:0:
53,0,29552,1,0,3:0:0:0:
87,1,29633,1,0,3:0:0:0:
118,15,29714,1,0,3:0:0:0:
134,44,29794,1,8,0:0:0:0:
40,182,29956,6,0,L|15:27,1,151.999995941162,6|0,3:2|3:0,0:0:0:0:
87,1,30359,1,0,3:0:0:0:
87,1,30439,2,0,L|74:90,1,75.9999979705811,8|0,0:0|0:0,0:0:0:0:
66,262,30762,5,8,0:0:0:0:
101,239,30843,1,0,3:0:0:0:
142,240,30923,1,0,3:0:0:0:
175,265,31004,1,0,3:0:0:0:
188,304,31085,5,0,3:0:0:0:
187,313,31165,1,0,3:0:0:0:
186,322,31246,1,0,3:0:0:0:
185,331,31327,1,0,3:0:0:0:
153,357,31407,5,10,0:0:0:0:
337,105,31730,5,8,0:0:0:0:
498,131,31891,1,8,0:0:0:0:
472,292,32052,1,8,0:0:0:0:
311,266,32214,1,8,0:0:0:0:
400,197,32375,5,0,3:0:0:0:
408,195,32456,1,0,3:0:0:0:
416,193,32536,1,0,3:0:0:0:
424,191,32617,1,0,3:0:0:0:
462,206,32698,5,8,0:0:0:0:
486,239,32778,1,8,0:0:0:0:
491,280,32859,1,8,0:0:0:0:
474,317,32939,1,8,0:0:0:0:
440,342,33020,5,8,0:0:0:0:
399,332,33101,1,8,0:0:0:0:
358,323,33181,1,8,0:0:0:0:
316,314,33262,1,8,0:0:0:0:
280,336,33343,6,8,L|288:379,1,37.9999989852906
314,194,33504,2,8,L|306:151,1,37.9999989852906
267,329,33665,2,8,L|275:372,1,37.9999989852906
301,187,33826,2,8,L|293:144,1,37.9999989852906
206,238,33988,5,0,0:0:0:0:
199,240,34149,1,0,0:0:0:0:
192,242,34310,1,0,0:0:0:0:
94,216,34472,1,0,0:0:0:0:
161,143,34633,1,0,0:0:0:0:
163,149,34794,5,0,0:0:0:0:
119,339,34956,1,0,3:0:0:0:
206,238,35117,6,0,P|249:227|348:280,1,151.999995941162,8|0,0:0|3:0,0:0:0:0:
455,372,35601,1,8,0:0:0:0:
426,187,35762,1,10,0:0:0:0:
429,177,36085,1,2,0:0:0:0:
432,168,36407,6,0,B|342:146|354:213|251:189,1,167.999994873047,6|0,3:2|3:0,0:0:0:0:
113,111,36891,2,0,L|98:22,1,83.9999974365235,10|0,0:0|0:0,0:0:0:0:
195,275,37214,2,0,L|181:357,1,83.9999974365235,2|0,3:2|3:0,0:0:0:0:
39,190,37536,1,8,0:0:0:0:
10,277,37698,6,0,P|56:283|104:251,1,83.9999974365235,2|0,3:2|0:0,0:0:0:0:
270,192,38020,2,0,L|187:178,1,83.9999974365235,2|8,3:2|0:0,0:0:0:0:
109,0,38343,2,0,L|122:82,1,83.9999974365235,2|0,0:0|3:0,0:0:0:0:
42,143,38665,1,0,3:0:0:0:
206,27,38827,1,8,0:0:0:0:
48,135,38988,6,0,P|95:118|189:185,1,167.999994873047,2|0,3:2|3:0,0:0:0:0:
387,70,39472,1,8,0:0:0:0:
301,13,39633,2,0,L|286:103,1,83.9999974365235,2|0,0:0|3:0,0:0:0:0:
451,217,39956,1,2,3:2:0:0:
387,70,40117,1,8,0:0:0:0:
276,236,40278,6,0,B|339:226|339:226|369:239|369:239|442:229,1,167.999994873047,2|0,3:2|3:0,0:0:0:0:
306,363,40762,2,0,L|219:352,1,83.9999974365235,8|0,0:0|0:0,0:0:0:0:
20,246,41085,5,0,3:0:0:0:
61,217,41165,1,0,3:0:0:0:
110,227,41246,1,0,3:0:0:0:
133,271,41327,1,0,3:0:0:0:
114,317,41407,6,0,P|100:328|112:310,1,64,8|0,0:0|0:0,0:0:0:0:
6,103,41569,6,0,B|96:91|79:150|188:134,1,167.999994873047,6|0,3:2|3:0,0:0:0:0:
299,3,42052,2,0,L|282:99,1,83.9999974365235,10|0,0:0|0:0,0:0:0:0:
232,313,42375,2,0,L|217:230,1,83.9999974365235,2|0,3:2|3:0,0:0:0:0:
428,125,42698,1,8,0:0:0:0:
373,201,42859,6,0,P|327:202|293:174,1,83.9999974365235,2|0,3:2|0:0,0:0:0:0:
110,142,43181,2,0,L|192:127,1,83.9999974365235,2|8,3:2|0:0,0:0:0:0:
299,3,43504,2,0,L|284:85,1,83.9999974365235,2|0,0:0|3:0,0:0:0:0:
203,28,43827,1,0,3:0:0:0:
381,62,43988,1,8,0:0:0:0:
217,207,44149,6,0,L|192:35,1,167.999994873047,2|0,3:2|3:0,0:0:0:0:
349,198,44633,1,8,0:0:0:0:
335,289,44794,1,0,3:0:0:0:
117,352,44956,5,8,0:0:0:0:
103,261,45117,1,0,3:0:0:0:
362,188,45278,5,8,0:0:0:0:
348,279,45439,1,0,3:0:0:0:
57,173,45601,5,8,0:0:0:0:
94,2,45763,1,8,0:0:0:0:
265,40,45924,1,8,0:0:0:0:
226,210,46085,1,8,0:0:0:0:
158,107,46246,5,0,3:0:0:0:
157,98,46327,1,0,3:0:0:0:
156,90,46407,1,0,3:0:0:0:
155,82,46488,1,0,3:0:0:0:
187,48,46569,6,0,L|177:103,1,41.9999987182618,8|0,3:0|3:0,0:0:0:0:
57,173,46730,6,0,P|21:127|42:18,1,167.999994873047,6|0,3:2|3:0,0:0:0:0:
230,172,47214,1,8,0:0:0:0:
218,263,47375,1,0,3:0:0:0:
420,349,47536,5,8,0:0:0:0:
408,259,47697,1,0,3:0:0:0:
224,161,47859,5,8,0:0:0:0:
346,32,48020,2,0,L|327:208,1,167.999994873047,6|0,3:2|3:0,0:0:0:0:
200,330,48504,5,8,0:0:0:0:
183,239,48665,1,0,3:0:0:0:
457,203,48827,5,8,0:0:0:0:
440,294,48988,1,0,3:0:0:0:
174,231,49149,5,8,0:0:0:0:
315,173,49310,2,0,B|229:182|233:128|153:142,1,167.999994873047,6|0,3:2|3:0,0:0:0:0:
392,45,49794,1,8,0:0:0:0:
299,0,49956,2,0,B|294:40|294:40|301:89,1,83.9999974365235,6|0,0:0|3:0,0:0:0:0:
375,273,50278,1,2,3:2:0:0:
227,182,50439,1,8,0:0:0:0:
328,372,50601,6,0,P|400:375|478:311,1,167.999994873047,6|0,3:2|3:0,0:0:0:0:
375,273,51085,2,0,L|287:259,1,83.9999974365235,8|0,0:0|0:0,0:0:0:0:
138,369,51407,1,0,3:0:0:0:
186,199,51569,2,0,L|201:293,1,83.9999974365235,10|0,0:0|3:0,0:0:0:0:
16,325,51891,6,0,P|-3:248|35:158,1,167.999994873047,6|0,3:2|3:0,0:0:0:0:
156,49,52375,1,10,0:0:0:0:
122,141,52536,1,0,0:0:0:0:
35,2,52698,5,0,3:0:0:0:
166,53,52859,2,0,L|253:35,1,83.9999974365235,2|8,3:2|0:0,0:0:0:0:
395,174,53181,6,0,B|307:183|325:123|231:140,1,167.999994873047,6|0,3:2|3:0,0:0:0:0:
134,232,53665,2,0,L|148:330,1,83.9999974365235,10|0,0:0|0:0,0:0:0:0:
51,173,53988,1,2,3:2:0:0:
229,260,54149,1,0,3:0:0:0:
64,366,54310,1,8,0:0:0:0:
0,295,54472,6,0,P|93:275|154:329,1,167.999994873047,4|0,3:2|3:0,0:0:0:0:
405,261,54956,5,8,0:0:0:0:
390,352,55117,1,0,3:0:0:0:
214,169,55278,5,8,0:0:0:0:
229,260,55439,1,0,3:0:0:0:
377,121,55601,5,8,3:0:0:0:
408,87,55681,1,8,3:0:0:0:
398,41,55762,1,8,3:0:0:0:
356,20,55843,1,8,3:0:0:0:
320,48,55923,6,0,L|365:55,1,41.9999987182618,0|0,3:0|3:0,3:0:0:0:
499,4,56085,1,8,3:2:0:0:
466,227,56246,1,12,0:0:0:0:
361,199,56407,5,0,3:0:0:0:
354,210,56488,1,0,3:0:0:0:
348,220,56569,2,0,L|356:274,1,41.9999987182618,0|0,3:0|3:0,3:0:0:0:
233,331,56730,5,0,3:0:0:0:
234,320,56810,1,0,3:0:0:0:
236,310,56891,1,0,3:0:0:0:
237,299,56971,1,0,3:0:0:0:
220,267,57052,6,0,B|120:250|146:328|27:308,1,195.999994018555,4|0,3:2|0:0,0:0:0:0:
68,216,58343,1,0,3:0:0:0:
71,205,58423,1,0,3:0:0:0:
74,194,58504,5,8,0:0:0:0:
36,108,58746,5,8,3:0:0:0:
170,201,58988,5,8,3:0:0:0:
232,136,59149,1,0,3:0:0:0:
149,40,59310,1,0,3:0:0:0:
151,53,59391,1,0,3:0:0:0:
153,65,59472,2,0,L|283:44,1,113.999996955872,8|0,0:0|0:0,0:0:0:0:
336,1,59794,6,0,P|311:52|331:114,2,113.999996955872,4|0|0,3:2|3:0|3:0,0:0:0:0:
470,129,60439,2,0,L|456:209,1,75.9999979705811,8|0,0:0|0:0,0:0:0:0:
463,214,60681,2,0,L|338:230,1,113.999996955872,0|0,3:0|3:0,0:0:0:0:
197,336,61085,6,0,P|230:362|283:348,1,75.9999979705811,0|0,3:0|0:0,0:0:0:0:
275,367,61327,2,0,B|269:317|269:317|271:300|271:300|264:245,1,113.999996955872,0|0,3:0|3:0,0:0:0:0:
136,180,61730,2,0,P|96:175|61:197,1,75.9999979705811,8|0,0:0|3:0,0:0:0:0:
15,265,62052,1,8,0:0:0:0:
177,316,62214,1,8,0:0:0:0:
177,316,62294,1,8,0:0:0:0:
177,316,62375,6,0,B|207:337|207:337|262:328,1,75.9999979705811,4|0,3:2|0:0,0:0:0:0:
259,338,62617,2,0,L|244:212,1,113.999996955872,0|0,3:0|3:0,0:0:0:0:
363,70,63020,2,0,P|371:105|358:145,1,75.9999979705811,8|0,0:0|0:0,0:0:0:0:
350,150,63262,2,0,B|291:157|303:121|238:128,1,113.999996955872,0|0,3:0|3:0,0:0:0:0:
77,41,63665,6,0,B|115:50|115:50|151:27,1,75.9999979705811,0|0,3:2|0:0,0:0:0:0:
153,17,63907,2,0,L|137:141,1,113.999996955872,0|0,3:0|3:0,0:0:0:0:
38,302,64310,5,8,0:0:0:0:
102,235,64472,1,8,0:0:0:0:
141,223,64552,1,8,0:0:0:0:
181,235,64633,1,8,0:0:0:0:
206,268,64714,1,8,0:0:0:0:
242,287,64794,1,8,0:0:0:0:
282,283,64875,1,8,0:0:0:0:
291,274,64956,6,0,L|283:190,1,75.9999979705811,4|0,3:2|0:0,0:0:0:0:
390,312,65278,2,0,L|382:228,1,75.9999979705811,8|0,0:0|0:0,0:0:0:0:
303,384,65601,2,0,P|260:350|153:356,1,151.999995941162,0|8,3:0|0:0,0:0:0:0:
73,228,66085,1,2,0:0:0:0:
11,292,66246,6,0,P|2:331|13:372,1,75.9999979705811,0|0,3:0|0:0,0:0:0:0:
84,220,66569,2,0,P|91:183|82:146,1,75.9999979705811,8|0,0:0|0:0,0:0:0:0:
18,41,66891,2,0,L|173:70,1,151.999995941162,0|8,3:0|0:0,0:0:0:0:
324,10,67375,1,0,3:0:0:0:
317,19,67456,1,8,0:0:0:0:
311,27,67536,6,0,L|322:102,1,75.9999979705811,2|0,3:2|0:0,0:0:0:0:
395,165,67859,1,8,0:0:0:0:
395,165,68020,2,0,P|434:173|477:149,1,75.9999979705811,2|0,0:0|3:0,0:0:0:0:
327,233,68343,2,0,L|252:222,1,75.9999979705811,2|8,0:0|0:0,0:0:0:0:
179,281,68665,1,2,0:0:0:0:
179,281,68827,6,0,P|171:320|195:363,1,75.9999979705811,0|0,3:0|0:0,0:0:0:0:
251,221,69149,2,0,P|259:182|235:139,1,75.9999979705811,8|0,0:0|0:0,0:0:0:0:
107,87,69472,1,8,0:0:0:0:
146,98,69552,1,8,0:0:0:0:
181,76,69633,1,8,0:0:0:0:
185,34,69714,1,8,0:0:0:0:
155,5,69794,2,0,L|163:55,1,37.9999989852906
252,156,69956,6,0,L|270:1,1,151.999995941162,6|0,3:2|0:0,0:0:0:0:
377,101,70439,1,8,0:0:0:0:
379,111,70601,1,0,3:0:0:0:
440,176,70762,5,8,0:0:0:0:
420,262,70923,1,0,3:0:0:0:
282,297,71085,5,8,0:0:0:0:
302,383,71246,1,0,3:0:0:0:
451,171,71407,5,8,0:0:0:0:
431,257,71568,1,0,3:0:0:0:
269,292,71730,5,8,0:0:0:0:
289,378,71891,1,0,3:0:0:0:
330,157,72052,5,8,0:0:0:0:
247,141,72214,1,8,0:0:0:0:
165,125,72375,1,8,0:0:0:0:
31,200,72536,6,0,L|7:43,1,151.999995941162,6|0,3:2|3:0,0:0:0:0:
165,125,73020,2,0,L|153:206,1,75.9999979705811,8|0,0:0|0:0,0:0:0:0:
0,288,73343,2,0,P|41:296|80:274,1,75.9999979705811,0|0,3:0|3:0,0:0:0:0:
273,320,73665,5,8,0:0:0:0:
239,294,73746,1,0,3:0:0:0:
197,294,73827,1,0,3:0:0:0:
162,317,73907,1,0,3:0:0:0:
146,355,73988,6,0,L|196:361,1,37.9999989852906,0|0,3:0|3:0,0:0:0:0:
287,317,74149,2,0,P|301:270|285:227,1,75.9999979705811,8|8,0:0|0:0,0:0:0:0:
237,181,74391,1,0,3:0:0:0:
226,173,74472,6,0,L|184:179,1,37.9999989852906,0|0,3:0|3:0,3:0:0:0:
322,108,74633,2,0,L|364:114,1,37.9999989852906,0|0,3:0|3:0,3:0:0:0:
255,5,74794,5,8,0:0:0:0:
252,46,74875,1,8,0:0:0:0:
218,71,74956,1,8,0:0:0:0:
176,65,75036,1,8,0:0:0:0:
164,52,75117,6,0,L|184:208,1,151.999995941162,0|0,3:0|3:0,0:0:0:0:
54,304,75601,2,0,L|65:222,1,75.9999979705811,8|0,0:0|0:0,0:0:0:0:
203,349,75923,2,0,P|166:370|123:365,1,75.9999979705811,0|0,3:0|3:0,0:0:0:0:
265,275,76246,1,8,0:0:0:0:
330,346,76407,6,0,L|414:361,1,75.9999979705811,2|0,3:2|0:0,0:0:0:0:
512,256,76730,2,0,L|428:271,1,75.9999979705811,2|8,3:2|0:0,0:0:0:0:
326,168,77052,2,0,L|410:183,1,75.9999979705811,2|0,0:0|3:2,0:0:0:0:
478,145,77294,1,0,3:0:0:0:
484,138,77375,5,0,3:0:0:0:
492,96,77456,1,0,3:0:0:0:
469,61,77536,1,0,3:0:0:0:
430,45,77617,1,0,3:0:0:0:
390,59,77698,6,0,B|307:66|325:20|238:31,1,151.999995941162,6|0,3:2|3:2,0:0:0:0:
74,151,78181,1,8,0:0:0:0:
160,200,78343,2,0,L|170:109,1,75.9999979705811,2|0,3:2|0:0,0:0:0:0:
74,151,78665,1,0,3:0:0:0:
258,171,78827,1,8,0:0:0:0:
81,301,78988,6,0,P|51:241|69:154,1,151.999995941162,6|0,3:2|3:0,0:0:0:0:
128,103,79391,1,0,3:0:0:0:
128,103,79472,2,0,L|175:107,2,37.9999989852906,0|0|0,3:0|3:0|3:0,3:0:0:0:
11,6,79794,2,0,L|28:94,1,75.9999979705811,2|0,0:0|3:0,0:0:0:0:
139,196,80117,1,0,3:0:0:0:
138,204,80278,1,0,3:0:0:0:
71,268,80439,5,2,0:0:0:0:
407,128,82698,5,0,3:0:0:0:
411,120,83020,5,8,0:0:0:0:
345,17,83181,1,0,3:0:0:0:
306,1,83262,1,0,3:0:0:0:
266,15,83343,1,0,3:0:0:0:
255,55,83423,1,0,3:0:0:0:
270,93,83504,2,0,L|314:103,1,37.9999989852906,8|0,0:0|3:0,0:0:0:0:
411,120,83665,5,0,3:0:0:0:
450,104,83746,1,0,3:0:0:0:
490,118,83827,1,0,3:0:0:0:
501,158,83907,1,0,3:0:0:0:
486,196,83988,2,0,L|442:206,1,37.9999989852906,8|0,0:0|3:0,0:0:0:0:
346,227,84149,5,0,3:0:0:0:
307,211,84230,1,0,3:0:0:0:
267,225,84311,1,0,3:0:0:0:
256,265,84391,1,0,3:0:0:0:
271,303,84472,2,0,L|315:313,1,37.9999989852906,8|0,0:0|3:0,0:0:0:0:
402,326,84633,5,0,3:0:0:0:
411,323,84713,1,0,3:0:0:0:
420,321,84794,1,0,3:0:0:0:
429,319,84874,1,0,3:0:0:0:
465,297,84955,5,8,0:0:0:0:
480,257,85036,1,0,3:0:0:0:
468,216,85117,1,0,3:0:0:0:
433,188,85198,1,0,3:0:0:0:
391,188,85278,5,0,3:0:0:0:
356,211,85359,1,0,3:0:0:0:
314,212,85439,1,0,3:0:0:0:
277,192,85520,1,0,3:0:0:0:
257,154,85601,5,8,0:0:0:0:
164,380,85923,5,8,0:0:0:0:
3,354,86084,1,8,0:0:0:0:
29,193,86245,1,8,0:0:0:0:
190,219,86407,1,8,0:0:0:0:
277,294,86568,5,0,3:0:0:0:
275,302,86649,1,0,3:0:0:0:
274,310,86729,1,0,3:0:0:0:
273,318,86810,1,0,3:0:0:0:
288,355,86891,5,8,0:0:0:0:
326,369,86971,1,8,0:0:0:0:
366,357,87052,1,8,0:0:0:0:
381,318,87132,1,8,0:0:0:0:
368,277,87213,5,8,0:0:0:0:
374,235,87294,1,8,0:0:0:0:
406,209,87374,1,8,0:0:0:0:
447,213,87455,1,8,0:0:0:0:
474,245,87536,6,8,L|482:296,1,37.9999989852906
403,123,87698,2,8,L|408:85,1,37.9999989852906
463,250,87859,2,8,L|471:301,1,37.9999989852906
392,128,88021,2,8,L|397:90,1,37.9999989852906
480,19,88181,5,2,0:0:0:0:
487,21,88504,5,2,0:0:0:0:
485,28,88827,5,2,0:0:0:0:
478,26,89149,5,2,0:0:0:0:
325,199,89310,6,0,L|305:42,1,151.999995941162,8|8,0:0|0:0,0:0:0:0:
467,169,89794,1,8,0:0:0:0:
467,169,90601,6,0,B|434:131|376:144|376:144|351:179|286:190,1,167.999994873047,6|0,3:2|3:0,0:0:0:0:
178,93,91085,2,0,P|161:55|172:5,1,83.9999974365235,10|0,0:0|0:0,0:0:0:0:
219,190,91408,2,0,L|205:272,1,83.9999974365235,2|0,3:2|3:0,0:0:0:0:
73,378,91730,1,8,0:0:0:0:
22,298,91892,6,0,P|60:281|101:288,1,83.9999974365235,2|0,3:2|0:0,0:0:0:0:
254,381,92214,2,0,L|171:367,1,83.9999974365235,2|8,3:2|0:0,0:0:0:0:
87,205,92537,2,0,L|100:287,1,83.9999974365235,2|0,0:0|3:0,0:0:0:0:
189,231,92859,1,0,3:0:0:0:
0,265,93021,1,8,0:0:0:0:
189,231,93182,6,0,B|282:248|261:193|361:208,1,167.999994873047,2|0,3:2|3:0,0:0:0:0:
512,104,93666,1,8,0:0:0:0:
432,47,93827,2,0,P|412:89|421:138,1,83.9999974365235,2|0,0:0|3:0,0:0:0:0:
459,339,94150,1,2,3:2:0:0:
351,206,94311,1,8,0:0:0:0:
284,380,94472,6,0,B|465:351,1,167.999994873047,2|0,3:2|3:0,0:0:0:0:
288,281,94956,2,0,L|201:270,1,83.9999974365235,8|0,0:0|0:0,0:0:0:0:
18,345,95278,5,0,3:0:0:0:
59,373,95359,1,0,3:0:0:0:
108,361,95440,1,0,3:0:0:0:
127,314,95521,1,0,3:0:0:0:
106,271,95601,6,0,P|86:261|103:277,1,64,8|0,0:0|0:0,0:0:0:0:
0,160,95763,6,0,B|61:168|61:168|100:151|100:151|169:160,1,167.999994873047,6|0,3:2|3:0,0:0:0:0:
265,30,96246,2,0,P|273:74|247:124,1,83.9999974365235,10|0,0:0|0:0,0:0:0:0:
227,336,96569,2,0,L|212:253,1,83.9999974365235,2|0,3:2|3:0,0:0:0:0:
365,130,96892,1,8,0:0:0:0:
377,227,97053,6,0,P|331:228|297:200,1,83.9999974365235,2|0,3:2|0:0,0:0:0:0:
176,124,97375,2,0,L|258:109,1,83.9999974365235,2|8,3:2|0:0,0:0:0:0:
388,4,97698,2,0,L|373:86,1,83.9999974365235,2|0,0:0|3:0,0:0:0:0:
287,29,98021,1,0,3:0:0:0:
442,159,98182,1,8,0:0:0:0:
277,40,98343,6,0,L|301:206,1,167.999994873047,2|0,3:2|3:0,0:0:0:0:
450,384,98827,1,8,0:0:0:0:
464,293,98988,1,0,3:0:0:0:
207,226,99150,5,8,0:0:0:0:
221,317,99311,1,0,3:0:0:0:
474,301,99472,5,8,0:0:0:0:
488,210,99633,1,0,3:0:0:0:
279,86,99795,5,8,0:0:0:0:
105,107,99957,1,8,0:0:0:0:
128,281,100118,1,8,0:0:0:0:
301,257,100279,1,8,0:0:0:0:
205,191,100440,5,0,3:0:0:0:
203,182,100521,1,0,3:0:0:0:
202,174,100601,1,0,3:0:0:0:
201,166,100682,1,0,3:0:0:0:
224,136,100763,6,0,L|214:191,1,41.9999987182618,8|0,3:0|3:0,0:0:0:0:
118,294,100924,6,0,L|92:125,1,167.999994873047,6|0,3:2|3:0,0:0:0:0:
236,45,101408,1,8,0:0:0:0:
224,136,101569,1,0,3:0:0:0:
493,112,101730,5,8,0:0:0:0:
481,22,101891,1,0,3:0:0:0:
230,31,102053,5,8,0:0:0:0:
216,122,102214,2,0,B|307:127|290:83|379:92,1,167.999994873047,6|0,3:2|3:0,0:0:0:0:
483,292,102698,5,8,0:0:0:0:
500,201,102859,1,0,3:0:0:0:
362,1,103021,5,8,0:0:0:0:
379,92,103182,1,0,3:0:0:0:
491,300,103343,5,8,0:0:0:0:
508,209,103504,2,0,B|445:204|445:204|409:225|409:225|340:217,1,167.999994873047,6|0,3:2|3:0,0:0:0:0:
174,112,103988,1,8,0:0:0:0:
258,56,104150,2,0,L|274:145,1,83.9999974365235,2|0,0:0|3:0,0:0:0:0:
132,302,104472,1,2,3:2:0:0:
174,112,104633,1,8,0:0:0:0:
296,305,104795,6,0,P|223:340|127:298,1,167.999994873047,6|0,3:2|3:0,0:0:0:0:
40,189,105279,2,0,L|54:277,1,83.9999974365235,8|0,0:0|0:0,0:0:0:0:
144,151,105601,1,0,3:0:0:0:
14,78,105763,2,0,P|50:64|98:82,1,83.9999974365235,10|0,0:0|3:0,0:0:0:0:
227,213,106085,6,0,L|251:38,1,167.999994873047,6|0,3:2|3:0,0:0:0:0:
392,1,106569,1,10,0:0:0:0:
407,94,106730,1,0,0:0:0:0:
483,36,106892,5,0,3:0:0:0:
331,148,107053,2,0,P|332:205|358:239,1,83.9999974365235,2|8,3:2|0:0,0:0:0:0:
491,337,107375,6,0,B|465:294|406:299|406:299|378:327|324:317,1,167.999994873047,6|0,3:2|3:0,0:0:0:0:
221,181,107859,2,0,L|238:274,1,83.9999974365235,10|0,0:0|0:0,0:0:0:0:
139,242,108181,1,2,3:2:0:0:
322,203,108343,1,0,3:0:0:0:
230,357,108504,1,10,0:0:0:0:
328,189,108665,6,0,P|369:172|486:230,1,167.999994873047,4|0,3:2|3:0,0:0:0:0:
415,364,109149,1,8,0:0:0:0:
388,276,109310,1,0,3:0:0:0:
355,101,109472,5,8,0:0:0:0:
328,189,109633,1,0,3:0:0:0:
406,377,109794,5,8,0:0:0:0:
379,289,109955,1,0,3:0:0:0:
454,220,110117,6,8,L|498:227,1,41.9999987182618
369,296,110278,2,8,L|325:303,1,41.9999987182618
246,227,110439,5,0,3:0:0:0:
248,216,110519,1,0,3:0:0:0:
250,206,110600,1,0,3:0:0:0:
253,196,110680,1,0,3:0:0:0:
240,150,110762,5,0,3:0:0:0:
200,124,110843,1,0,3:0:0:0:
154,127,110923,1,0,3:0:0:0:
119,157,111004,1,0,3:0:0:0:
112,202,111085,2,0,L|121:249,1,41.9999987182618,0|0,3:0|3:0,3:0:0:0:
10,337,111246,6,0,B|66:326|66:326|111:344|111:344|179:331,1,167.999994873047,6|0,3:2|3:0,0:0:0:0:
357,217,111730,2,0,L|342:308,1,83.9999974365235,8|0,0:0|0:0,0:0:0:0:
285,151,112052,1,0,3:0:0:0:
445,275,112214,1,0,3:0:0:0:
263,358,112375,1,8,0:0:0:0:
193,289,112536,6,0,P|245:263|350:309,1,167.999994873047,6|0,3:2|3:0,0:0:0:0:
168,383,113020,2,0,L|74:360,1,83.9999974365235,8|0,0:0|0:0,0:0:0:0:
29,155,113343,1,0,3:0:0:0:
193,289,113504,1,0,3:0:0:0:
3,309,113665,1,8,0:0:0:0:
175,194,113827,6,0,L|355:228,1,167.999994873047,6|0,3:2|3:0,0:0:0:0:
504,69,114310,2,0,L|415:83,1,83.9999974365235,8|0,0:0|0:0,0:0:0:0:
255,17,114633,2,0,P|296:11|342:46,1,83.9999974365235,2|0,3:2|0:0,0:0:0:0:
180,78,114956,1,8,0:0:0:0:
338,42,115117,6,0,L|308:208,1,167.999994873047,2|0,3:2|3:0,0:0:0:0:
194,377,115601,2,0,P|176:325|187:286,1,83.9999974365235,8|0,0:0|0:0,0:0:0:0:
97,147,115923,1,8,0:0:0:0:
119,187,116004,1,0,3:0:0:0:
108,232,116085,1,0,3:0:0:0:
76,264,116165,1,0,3:0:0:0:
29,260,116246,1,0,3:0:0:0:
185,115,116407,6,0,B|276:97|254:155|351:140,1,167.999994873047,6|0,3:2|3:0,0:0:0:0:
512,33,116891,1,8,0:0:0:0:
414,3,117052,2,0,L|427:94,1,83.9999974365235,2|0,0:0|3:0,0:0:0:0:
351,262,117375,1,0,3:0:0:0:
512,155,117536,1,8,0:0:0:0:
334,60,117698,6,0,B|269:49|269:49|235:62|235:62|167:51,1,167.999994873047,2|0,3:2|3:0,0:0:0:0:
7,181,118181,1,8,0:0:0:0:
71,9,118343,2,0,L|88:110,1,83.9999974365235,2|0,0:0|3:0,0:0:0:0:
175,272,118665,1,0,3:0:0:0:
7,181,118827,1,8,0:0:0:0:
204,92,118988,6,0,L|185:263,1,167.999994873047,2|0,3:2|3:0,0:0:0:0:
13,365,119472,2,0,P|4:320|29:272,1,83.9999974365235,8|0,0:0|0:0,0:0:0:0:
174,170,119794,1,2,3:2:0:0:
99,331,119956,1,0,3:0:0:0:
7,181,120117,1,8,0:0:0:0:
207,270,120278,6,0,B|252:243|304:260|304:260|327:287|371:289,1,167.999994873047,2|0,3:2|3:0,0:0:0:0:
442,254,120681,1,0,3:0:0:0:
450,249,120762,2,0,L|462:194,1,41.9999987182618,0|0,3:0|3:0,3:0:0:0:
378,108,120923,2,0,L|386:149,1,41.9999987182618,0|0,3:0|3:0,3:0:0:0:
446,41,121085,5,8,0:0:0:0:
289,74,121246,1,8,0:0:0:0:
289,74,121569,6,0,B|199:57|215:114|127:99,1,167.999994873047,6|0,3:2|3:0,0:0:0:0:
8,202,122052,2,0,P|4:253|17:282,1,83.9999974365235,0|0,3:0|0:0,0:0:0:0:
107,268,122375,2,0,P|111:217|98:188,1,83.9999974365235,8|0,0:0|3:0,0:0:0:0:
43,371,122698,1,8,0:0:0:0:
181,315,122859,6,0,L|1:278,1,167.999994873047,2|0,3:2|3:0,0:0:0:0:
8,268,123262,1,0,3:0:0:0:
0,255,123343,2,0,P|-4:211|13:172,1,83.9999974365235,0|0,3:0|0:0,0:0:0:0:
171,99,123665,2,0,L|76:115,1,83.9999974365235,8|0,0:0|0:0,0:0:0:0:
114,14,123988,1,0,0:0:0:0:
141,199,124149,6,0,P|183:217|298:163,1,167.999994873047,2|0,3:2|3:0,0:0:0:0:
274,0,124633,2,0,L|255:98,1,83.9999974365235,0|0,3:0|0:0,0:0:0:0:
371,216,124956,2,0,P|383:172|368:128,1,83.9999974365235,8|0,0:0|0:0,0:0:0:0:
309,291,125278,1,0,3:0:0:0:
482,308,125439,6,0,B|420:300|420:300|381:313|381:313|312:300,1,167.999994873047,2|0,3:2|3:0,0:0:0:0:
309,291,125843,1,0,3:0:0:0:
299,280,125923,2,0,L|214:291,1,83.9999974365235,0|0,3:0|0:0,0:0:0:0:
34,204,126246,1,8,0:0:0:0:
53,294,126407,1,0,3:0:0:0:
73,384,126569,1,0,3:0:0:0:
210,283,126730,6,0,P|247:235|237:132,1,167.999994873047,6|0,3:2|3:0,0:0:0:0:
139,61,127214,1,4,3:0:0:0:
131,63,127375,1,4,3:0:0:0:
52,1,127536,5,4,3:0:0:0:
85,149,127698,1,4,3:0:0:0:
20,216,127859,5,8,0:0:0:0:
18,226,127939,1,8,0:0:0:0:
16,236,128020,1,8,0:0:0:0:
15,247,128100,1,8,0:0:0:0:
31,290,128181,5,8,0:0:0:0:
73,307,128262,1,8,0:0:0:0:
119,303,128343,1,8,0:0:0:0:
154,273,128423,1,8,0:0:0:0:
164,227,128504,5,8,0:0:0:0:
191,189,128585,1,8,0:0:0:0:
234,175,128665,1,8,0:0:0:0:
278,186,128746,1,8,0:0:0:0:
305,223,128827,6,8,L|295:282,1,41.9999987182618
376,118,128988,2,8,L|368:76,1,41.9999987182618
319,231,129149,2,8,L|309:290,1,41.9999987182618
390,126,129310,2,8,L|382:84,1,41.9999987182618
300,32,129472,5,2,3:2:0:0:
433,225,129714,1,2,3:2:0:0:
484,0,129956,1,2,3:2:0:0:
294,137,130117,5,2,3:2:0:0:
507,186,130359,1,2,3:2:0:0:
368,359,130601,1,2,3:2:0:0:
401,149,130762,6,0,P|408:180|412:210,1,55.9999982910157,10|8,0:0|0:0,0:0:0:0:
317,277,130977,1,2,3:2:0:0:
313,272,131085,2,0,P|318:240|322:214,1,55.9999982910157,8|10,0:0|0:0,0:0:0:0:
471,341,131300,1,0,3:0:0:0:
467,345,131407,6,0,B|385:327|375:396|277:379,1,195.999994018555,14|0,3:2|3:0,0:0:0:0:
278,379,132698,5,0,3:0:0:0:
341,191,132859,1,0,3:2:0:0:
347,180,133181,6,0,B|257:158|269:225|166:201,1,167.999994873047,6|0,3:2|3:0,0:0:0:0:
37,96,133665,2,0,L|22:7,1,83.9999974365235,10|0,0:0|0:0,0:0:0:0:
110,270,133988,2,0,L|96:352,1,83.9999974365235,2|0,3:2|3:0,0:0:0:0:
210,114,134310,1,8,0:0:0:0:
262,191,134472,6,0,P|225:210|185:204,1,83.9999974365235,2|0,3:2|0:0,0:0:0:0:
347,30,134794,2,0,L|333:113,1,83.9999974365235,2|8,3:2|0:0,0:0:0:0:
418,328,135117,2,0,L|405:246,1,83.9999974365235,2|0,0:0|3:0,0:0:0:0:
322,304,135439,1,0,3:0:0:0:
506,272,135601,1,8,0:0:0:0:
318,319,135762,6,0,P|271:336|177:269,1,167.999994873047,2|0,3:2|3:0,0:0:0:0:
352,176,136246,1,8,0:0:0:0:
253,148,136407,2,0,P|261:193|268:238,1,83.9999974365235,2|0,0:0|3:0,0:0:0:0:
186,75,136730,1,2,3:2:0:0:
352,176,136891,1,8,0:0:0:0:
179,276,137052,6,0,B|153:230|93:237|93:237|71:267|13:269,1,167.999994873047,2|0,3:2|3:0,0:0:0:0:
156,376,137536,2,0,L|243:365,1,83.9999974365235,8|0,0:0|0:0,0:0:0:0:
368,264,137859,5,0,3:0:0:0:
402,228,137939,1,0,3:0:0:0:
452,233,138020,1,0,3:0:0:0:
473,278,138101,1,0,3:0:0:0:
447,320,138181,6,0,P|430:336|439:317,1,64,8|0,0:0|0:0,0:0:0:0:
326,171,138343,6,0,B|240:155|252:218|144:202,1,167.999994873047,6|0,3:2|3:0,0:0:0:0:
37,369,138826,2,0,P|32:327|50:290,1,83.9999974365235,10|0,0:0|0:0,0:0:0:0:
44,88,139149,2,0,L|57:170,1,83.9999974365235,2|0,3:2|3:0,0:0:0:0:
187,307,139472,1,8,0:0:0:0:
243,220,139633,6,0,P|204:200|159:208,1,83.9999974365235,2|0,3:2|0:0,0:0:0:0:
305,318,139955,2,0,L|387:303,1,83.9999974365235,2|8,3:2|0:0,0:0:0:0:
481,142,140278,2,0,L|466:224,1,83.9999974365235,2|0,0:0|3:0,0:0:0:0:
337,92,140601,1,0,3:0:0:0:
505,42,140762,1,8,0:0:0:0:
356,187,140923,6,0,B|269:193|273:139|183:157,1,167.999994873047,6|0,3:2|3:0,0:0:0:0:
9,288,141407,1,8,0:0:0:0:
26,376,141569,1,0,3:0:0:0:
240,350,141730,5,8,0:0:0:0:
257,262,141892,1,0,3:0:0:0:
1,190,142052,5,8,0:0:0:0:
18,278,142214,1,0,3:0:0:0:
268,249,142375,5,8,0:0:0:0:
303,77,142537,1,8,0:0:0:0:
132,42,142698,1,8,0:0:0:0:
98,214,142859,1,8,0:0:0:0:
188,144,143020,5,0,3:0:0:0:
197,143,143101,1,0,3:0:0:0:
205,142,143181,1,0,3:0:0:0:
213,141,143262,1,0,3:0:0:0:
242,119,143343,6,0,P|238:103|235:116,1,41.9999987182618,8|0,3:0|3:0,0:0:0:0:
282,257,143504,6,0,B|323:247|340:217|340:217|383:194|452:228,1,167.999994873047,6|0,3:2|3:0,0:0:0:0:
493,51,143988,1,8,0:0:0:0:
505,142,144149,1,0,3:0:0:0:
421,310,144310,5,8,0:0:0:0:
433,220,144471,1,0,3:0:0:0:
500,42,144633,5,8,0:0:0:0:
512,133,144794,2,0,B|446:124|446:124|412:97|412:97|341:87,1,167.999994873047,6|0,3:2|3:0,0:0:0:0:
190,14,145278,5,8,0:0:0:0:
207,105,145439,1,0,3:0:0:0:
319,257,145601,5,8,0:0:0:0:
302,348,145762,1,0,3:0:0:0:
148,219,145923,5,8,0:0:0:0:
354,88,146084,2,0,P|433:76|505:128,1,167.999994873047,6|0,3:2|0:0,0:0:0:0:
327,221,146568,1,8,0:0:0:0:
419,253,146730,2,0,L|410:170,1,83.9999974365235,6|0,0:0|3:0,0:0:0:0:
348,366,147052,1,2,3:2:0:0:
511,289,147213,1,8,0:0:0:0:
335,373,147375,6,0,P|263:376|185:312,1,167.999994873047,6|0,3:2|3:0,0:0:0:0:
32,258,147859,2,0,L|120:244,1,83.9999974365235,8|0,0:0|0:0,0:0:0:0:
241,106,148181,1,0,3:0:0:0:
153,71,148343,2,0,P|143:108|168:165,1,83.9999974365235,10|0,0:0|3:0,0:0:0:0:
332,202,148665,6,0,L|357:33,1,167.999994873047,6|0,3:2|3:0,0:0:0:0:
241,106,149149,1,10,0:0:0:0:
439,137,149310,1,0,0:0:0:0:
233,119,149472,5,0,3:0:0:0:
378,284,149633,2,0,L|466:270,1,83.9999974365235,2|8,3:2|0:0,0:0:0:0:
322,370,149955,6,0,B|234:379|252:319|158:336,1,167.999994873047,6|0,3:2|3:0,0:0:0:0:
41,253,150439,2,0,P|30:212|40:172,1,83.9999974365235,10|0,0:0|0:0,0:0:0:0:
250,73,150762,1,2,3:2:0:0:
127,217,150923,1,0,3:0:0:0:
69,38,151084,1,8,0:0:0:0:
267,57,151246,6,0,L|241:224,1,167.999994873047,4|0,3:2|3:0,0:0:0:0:
403,384,151730,5,8,0:0:0:0:
388,293,151891,1,0,3:0:0:0:
478,115,152052,5,8,0:0:0:0:
493,206,152213,1,0,3:0:0:0:
277,46,152375,5,8,3:0:0:0:
311,15,152455,1,8,3:0:0:0:
357,25,152536,1,8,3:0:0:0:
378,67,152617,1,8,3:0:0:0:
375,77,152698,1,0,3:0:0:0:
373,87,152778,1,0,3:0:0:0:
365,92,152859,6,0,L|358:47,1,41.9999987182618,0|0,3:0|3:0,3:0:0:0:
299,165,153020,2,0,L|305:206,1,41.9999987182618,0|0,3:0|3:0,3:0:0:0:
248,304,153181,5,0,3:0:0:0:
224,339,153262,1,0,3:0:0:0:
173,345,153343,1,0,3:0:0:0:
139,307,153423,1,0,3:0:0:0:
138,296,153504,5,0,3:0:0:0:
138,283,153584,1,0,3:0:0:0:
139,272,153665,1,0,3:0:0:0:
142,260,153745,1,0,3:0:0:0:
180,226,153827,6,0,P|110:241|27:175,1,167.999994873047,6|0,3:2|0:0,0:0:0:0:
217,60,154310,2,0,L|230:147,1,83.9999974365235,10|0,0:0|0:0,0:0:0:0:
294,361,154633,2,0,L|308:279,1,83.9999974365235,2|0,3:2|3:0,0:0:0:0:
474,118,154955,1,8,0:0:0:0:
500,214,155117,6,0,P|459:220|421:203,1,83.9999974365235,2|0,3:2|0:0,0:0:0:0:
382,19,155439,2,0,L|368:102,1,83.9999974365235,2|8,3:2|0:0,0:0:0:0:
308,278,155762,2,0,L|295:196,1,83.9999974365235,2|0,0:0|3:0,0:0:0:0:
235,354,156084,1,0,3:0:0:0:
405,318,156246,1,8,0:0:0:0:
235,354,156407,6,0,B|174:346|174:346|139:319|139:319|52:309,1,167.999994873047,2|0,3:2|3:0,0:0:0:0:
25,106,156891,1,8,0:0:0:0:
1,195,157052,2,0,P|42:197|79:178,1,83.9999974365235,2|0,0:0|3:0,0:0:0:0:
227,20,157375,1,2,3:2:0:0:
25,106,157536,1,8,0:0:0:0:
194,246,157697,6,0,B|283:256|280:201|372:220,1,167.999994873047,2|0,3:2|3:0,0:0:0:0:
485,364,158181,2,0,L|398:353,1,83.9999974365235,8|0,0:0|0:0,0:0:0:0:
356,217,158503,5,0,3:0:0:0:
328,176,158584,1,0,3:0:0:0:
340,127,158665,1,0,3:0:0:0:
387,108,158746,1,0,3:0:0:0:
430,129,158827,6,0,P|438:151|425:134,1,64,8|0,0:0|0:0,0:0:0:0:
288,37,158988,6,0,B|251:-3|195:15|195:15|174:47|119:37,1,167.999994873047,6|0,3:2|3:0,0:0:0:0:
34,184,159471,2,0,P|20:145|29:105,1,83.9999974365235,10|0,0:0|0:0,0:0:0:0:
142,294,159794,2,0,L|127:377,1,83.9999974365235,2|0,3:2|3:0,0:0:0:0:
243,179,160117,1,8,0:0:0:0:
297,260,160278,6,0,P|331:282|372:280,1,83.9999974365235,2|0,3:2|0:0,0:0:0:0:
243,179,160600,2,0,L|161:194,1,83.9999974365235,2|8,3:2|0:0,0:0:0:0:
373,103,160923,2,0,L|358:185,1,83.9999974365235,2|0,0:0|3:0,0:0:0:0:
289,51,161246,1,0,3:0:0:0:
459,163,161407,1,8,0:0:0:0:
274,41,161568,6,0,P|185:20|118:81,1,167.999994873047,2|0,3:2|3:0,0:0:0:0:
40,242,162052,1,8,0:0:0:0:
127,218,162213,1,0,3:0:0:0:
301,373,162375,5,8,0:0:0:0:
213,354,162536,1,0,3:0:0:0:
380,208,162697,5,8,0:0:0:0:
466,191,162858,1,0,3:0:0:0:
438,280,163020,5,8,0:0:0:0:
230,255,163182,1,8,0:0:0:0:
257,46,163343,1,8,0:0:0:0:
465,75,163504,1,8,0:0:0:0:
376,156,163665,5,0,3:0:0:0:
367,158,163746,1,0,3:0:0:0:
359,159,163826,1,0,3:0:0:0:
351,160,163907,1,0,3:0:0:0:
321,137,163988,6,0,L|376:147,1,41.9999987182618,8|0,3:0|3:0,0:0:0:0:
230,255,164149,6,0,B|196:201|132:219|132:219|116:240|75:248,1,167.999994873047,6|0,3:2|3:0,0:0:0:0:
39,34,164633,1,8,0:0:0:0:
66,156,164794,1,0,3:0:0:0:
323,188,164955,5,8,0:0:0:0:
339,64,165116,1,0,3:0:0:0:
29,20,165278,5,8,0:0:0:0:
54,144,165439,2,0,B|144:150|126:102|236:116,1,167.999994873047,6|0,3:2|3:0,0:0:0:0:
420,314,165923,5,8,0:0:0:0:
444,184,166085,1,0,3:0:0:0:
135,232,166246,5,8,0:0:0:0:
162,357,166407,1,0,3:0:0:0:
431,326,166568,5,8,0:0:0:0:
456,198,166729,2,0,P|394:159|289:193,1,167.999994873047,6|0,3:2|3:0,0:0:0:0:
133,64,167213,1,8,0:0:0:0:
217,8,167375,2,0,L|233:97,1,83.9999974365235,6|0,0:0|3:0,0:0:0:0:
44,218,167697,1,8,3:3:0:0:
31,173,167778,1,8,3:3:0:0:
60,137,167859,1,8,3:3:0:0:
105,139,167939,1,8,3:3:0:0:
135,173,168020,6,0,B|124:234|124:234|138:274|138:274|126:340,1,167.999994873047,6|0,3:2|3:0,0:0:0:0:
126,336,168423,1,0,3:0:0:0:
126,336,168504,1,8,0:0:0:0:
311,383,168665,2,0,L|301:296,1,83.9999974365235,6|0,0:0|3:0,0:0:0:0:
351,111,168988,1,8,0:0:0:0:
392,90,169069,1,8,0:0:0:0:
437,93,169149,1,8,0:0:0:0:
475,118,169230,1,8,0:0:0:0:
496,158,169310,6,0,L|321:134,1,167.999994873047,6|0,3:2|3:0,0:0:0:0:
199,0,169794,1,10,0:0:0:0:
214,93,169955,1,0,0:0:0:0:
96,235,170117,5,8,3:0:0:0:
88,233,170198,1,8,3:0:0:0:
80,231,170278,1,8,3:0:0:0:
40,206,170359,1,8,3:0:0:0:
37,160,170439,1,8,3:0:0:0:
73,131,170520,1,8,3:0:0:0:
116,145,170601,6,0,L|94:313,1,167.999994873047,6|0,3:2|0:0,0:0:0:0:
270,380,171085,1,8,0:0:0:0:
221,301,171246,1,0,3:0:0:0:
219,291,171327,1,0,3:0:0:0:
217,281,171407,1,0,3:0:0:0:
357,131,171569,5,0,3:0:0:0:
355,141,171650,1,0,3:0:0:0:
353,151,171730,2,0,L|363:205,1,41.9999987182618,0|0,3:0|3:0,0:0:0:0:
275,204,171891,2,0,B|372:186|352:256|449:238,1,167.999994873047,6|0,3:2|0:0,0:0:0:0:
489,23,172375,5,8,0:0:0:0:
325,94,172536,1,0,3:0:0:0:
499,144,172698,1,0,3:0:0:0:
249,1,172859,5,8,0:0:0:0:
275,204,173020,1,0,3:0:0:0:
408,54,173181,1,0,3:0:0:0:
191,259,173343,5,8,0:0:0:0:
361,157,173504,1,0,3:0:0:0:
141,109,173665,5,8,0:0:0:0:
398,311,173827,1,0,3:0:0:0:
409,308,173907,1,0,3:0:0:0:
420,305,173988,5,0,3:0:0:0:
333,241,174149,1,0,3:0:0:0:
272,369,174310,1,0,3:0:0:0:
202,301,174472,6,0,B|173:277|123:269|71:295|62:358|62:358|78:336|102:328,1,224,6|0,3:2|3:0,0:0:0:0:
142,241,175762,1,0,3:0:0:0:
146,228,175843,1,0,3:0:0:0:
144,216,175923,5,8,3:3:0:0:
49,130,176165,5,8,3:0:0:0:
0,239,176407,5,8,3:0:0:0:
151,111,176569,5,0,3:0:0:0:
224,44,176730,1,0,3:0:0:0:
235,48,176810,1,0,3:0:0:0:
245,50,176891,2,0,B|289:44|289:44|307:35|307:35|363:27,1,113.999996955872,8|0,0:0|0:0,0:0:0:0:
422,82,177214,6,0,P|434:121|419:168,1,75.9999979705811,4|0,3:2|0:0,0:0:0:0:
417,169,177456,2,0,L|303:148,1,113.999996955872,0|0,3:0|3:0,0:0:0:0:
134,42,177859,2,0,B|168:25|168:25|208:38,1,75.9999979705811,8|0,0:0|0:0,0:0:0:0:
218,29,178101,2,0,P|204:101|196:171,1,113.999996955872,0|0,3:0|3:0,0:0:0:0:
95,279,178504,6,0,P|87:244|43:240,1,75.9999979705811,0|0,3:0|0:0,0:0:0:0:
43,248,178746,2,0,L|173:226,1,113.999996955872,0|0,3:0|3:0,0:0:0:0:
263,373,179149,2,0,L|183:355,1,75.9999979705811,8|0,0:0|3:0,0:0:0:0:
342,332,179472,1,8,0:0:0:0:
234,232,179633,1,0,3:0:0:0:
229,224,179714,1,0,3:0:0:0:
225,215,179794,6,0,B|218:176|218:176|242:138,1,75.9999979705811,4|0,3:2|0:0,0:0:0:0:
236,130,180036,2,0,P|282:148|355:109,1,113.999996955872,0|0,3:0|3:0,0:0:0:0:
502,12,180439,2,0,B|492:59|492:59|478:30,1,75.9999979705811,8|0,0:0|0:0,0:0:0:0:
474,18,180681,2,0,L|350:39,1,113.999996955872,0|0,3:0|3:0,0:0:0:0:
236,130,181085,5,0,3:0:0:0:
218,39,181246,1,8,0:0:0:0:
236,130,181407,1,0,3:0:0:0:
332,226,181569,1,8,0:0:0:0:
330,239,181649,1,8,0:0:0:0:
328,251,181730,5,8,0:0:0:0:
143,303,181891,1,8,0:0:0:0:
328,251,182052,1,8,0:0:0:0:
143,303,182213,1,8,0:0:0:0:
225,363,182375,6,0,P|264:369|308:381,1,75.9999979705811,4|0,3:2|3:0,0:0:0:0:
80,215,182698,2,0,P|41:209|-3:197,1,75.9999979705811,0|0,3:0|3:0,0:0:0:0:
208,166,183020,1,8,0:0:0:0:
143,303,183181,1,0,3:0:0:0:
137,313,183504,6,0,P|183:274|281:279,1,151.999995941162,0|0,3:0|3:0,0:0:0:0:
390,375,183988,2,0,L|373:287,1,75.9999979705811,0|0,3:0|3:0,0:0:0:0:
499,123,184310,5,8,0:0:0:0:
487,206,184472,1,0,3:0:0:0:
475,288,184633,1,0,3:0:0:0:
477,300,184956,5,2,3:2:0:0:
400,333,185117,1,0,3:0:0:0:
334,281,185278,1,0,3:0:0:0:
206,374,185440,5,2,3:2:0:0:
173,297,185601,1,8,0:0:0:0:
225,231,185762,1,0,3:0:0:0:
395,88,185923,5,2,3:2:0:0:
422,174,186085,2,0,L|269:144,1,151.999995941162,0|0,3:0|3:0,0:0:0:0:
122,12,186569,2,0,L|136:88,1,75.9999979705811,0|0,3:0|0:0,0:0:0:0:
16,216,186891,2,8,L|25:170,1,37.9999989852906,8|8,3:0|3:0,3:0:0:0:
6,97,187052,5,8,0:0:0:0:
182,190,187294,5,8,0:0:0:0:
14,311,187570,5,8,0:0:0:0:
299,346,187862,5,0,3:0:0:0:
292,355,187940,1,0,3:0:0:0:
286,363,188018,2,0,P|257:309|280:245,1,120,14|0,0:0|0:0,0:0:0:0:
377,155,188403,5,0,3:0:0:0:
372,165,188473,1,0,3:0:0:0:
365,173,188543,2,0,B|305:184|256:144|256:144|241:180|198:195|198:195|215:173|218:150,1,239.999992675781,14|0,0:0|3:0,0:0:0:0:
141,69,190085,6,8,P|128:47|128:14,2,50.6666653137207,8|8|8,3:0|3:0|3:0,3:0:0:0:
208,20,190365,1,6,3:0:0:0:
